osu file format v14

[General]
AudioFilename: audio.mp3
AudioLeadIn: 0
PreviewTime: 18965
Countdown: 0
SampleSet: Normal
StackLeniency: 0.7
Mode: 1
LetterboxInBreaks: 0
WidescreenStoryboard: 1

[Editor]
Bookmarks: 39365
DistanceSpacing: 3
BeatDivisor: 4
GridSize: 16
TimelineZoom: 3.799998

[Metadata]
Title:GAME 0VER
TitleUnicode:GAME 0VER
Artist:DJ Genki
ArtistUnicode:DJ Genki
Creator:Burak
Version:0NI
Source:
Tags:ULTRA HAPPY COLLECTION!!! Gram happy hardcore over justburak fa featured artist mpg mappers' guild instrumental electronic
BeatmapID:3801980
BeatmapSetID:1850746

[Difficulty]
HPDrainRate:5
CircleSize:3
OverallDifficulty:6
ApproachRate:10
SliderMultiplier:1.4
SliderTickRate:1

[Events]
//Background and Video events
0,0,"bg.jpg",0,-50
//Break Periods
//Storyboard Layer 0 (Background)
//Storyboard Layer 1 (Fail)
//Storyboard Layer 2 (Pass)
//Storyboard Layer 3 (Foreground)
//Storyboard Layer 4 (Overlay)
//Storyboard Sound Samples

[TimingPoints]
5765,300,4,1,0,80,1,0
5765,-90.9090909090909,4,1,0,80,0,0
6965,-100,4,1,0,80,0,0
7562,-83.3333333333333,4,1,0,80,0,0
7637,-84.2105263157895,4,1,0,80,0,0
7712,-85.1063829787234,4,1,0,80,0,0
7787,-86.0215053763441,4,1,0,80,0,0
7862,-86.9565217391304,4,1,0,80,0,0
8012,-88.8888888888889,4,1,0,80,0,0
8162,-90.9090909090909,4,1,0,80,0,0
10565,-83.3333333333333,4,1,0,80,0,0
11765,-100,4,1,0,80,0,0
12346,-83.3333333333333,4,1,0,80,0,0
12421,-84.2105263157895,4,1,0,80,0,0
12496,-85.1063829787234,4,1,0,80,0,0
12571,-86.0215053763441,4,1,0,80,0,0
12646,-86.9565217391304,4,1,0,80,0,0
12796,-88.8888888888889,4,1,0,80,0,0
12946,-90.9090909090909,4,1,0,80,0,0
14165,-100,4,1,0,80,0,0
14746,-83.3333333333333,4,1,0,85,0,0
14821,-84.2105263157895,4,1,0,85,0,0
14896,-85.1063829787234,4,1,0,85,0,0
14971,-86.0215053763441,4,1,0,85,0,0
15046,-86.9565217391304,4,1,0,85,0,0
15196,-88.8888888888889,4,1,0,85,0,0
15290,-88.8888888888889,4,1,0,60,0,0
15346,-90.9090909090909,4,1,0,60,0,0
15365,-111.111111111111,4,1,0,60,0,0
16190,-111.111111111111,4,1,0,60,0,0
16265,-111.111111111111,4,1,0,60,0,0
17762,-111.111111111111,4,1,0,60,0,0
17912,-109.58904109589,4,1,0,62,0,0
17987,-108.843537414966,4,1,0,63,0,0
18062,-108.108108108108,4,1,0,65,0,0
18212,-106.666666666667,4,1,0,66,0,0
18362,-105.263157894737,4,1,0,68,0,0
18437,-104.575163398693,4,1,0,69,0,0
18512,-103.896103896104,4,1,0,71,0,0
18587,-103.225806451613,4,1,0,72,0,0
18662,-102.564102564103,4,1,0,74,0,0
18737,-102.564102564103,4,1,0,75,0,0
18812,-101.26582278481,4,1,0,77,0,0
18887,-100.62893081761,4,1,0,78,0,0
18962,-100,4,1,0,80,0,0
19790,-83.3333333333333,4,1,0,85,0,0
20090,-83.3333333333333,4,1,0,90,0,0
20165,-90.9090909090909,4,1,0,90,0,1
29765,-100,4,1,0,80,0,0
39290,-100,4,1,0,60,0,0
39365,-100,4,1,0,60,0,0
44315,-100,4,1,0,60,0,0
44465,-100,4,1,0,60,0,0
46715,-100,4,1,0,60,0,0
46865,-100,4,1,0,60,0,0
50615,-100,4,1,0,60,0,0
50765,-100,4,1,0,60,0,0
54215,-100,4,1,0,60,0,0
54365,-100,4,1,0,60,0,0
55415,-100,4,1,0,60,0,0
55565,-100,4,1,0,60,0,0
57890,-100,4,1,0,85,0,0
57946,-83.3333333333333,4,1,0,85,0,0
58021,-84.2105263157895,4,1,0,85,0,0
58096,-85.1063829787234,4,1,0,85,0,0
58171,-86.0215053763441,4,1,0,85,0,0
58246,-86.9565217391304,4,1,0,85,0,0
58565,-100,4,1,0,80,0,0
60346,-83.3333333333333,4,1,0,80,0,0
60421,-84.2105263157895,4,1,0,80,0,0
60496,-85.1063829787234,4,1,0,80,0,0
60571,-86.0215053763441,4,1,0,80,0,0
60646,-86.9565217391304,4,1,0,80,0,0
60815,-88.8888888888889,4,1,0,80,0,0
60965,-90.9090909090909,4,1,0,80,0,0
62165,-100,4,1,0,80,0,0
63365,-83.3333333333333,4,1,0,80,0,0
64565,-100,4,1,0,80,0,0
65162,-83.3333333333333,4,1,0,80,0,0
65237,-84.2105263157895,4,1,0,80,0,0
65312,-85.1063829787234,4,1,0,80,0,0
65387,-86.0215053763441,4,1,0,80,0,0
65462,-86.9565217391304,4,1,0,80,0,0
65612,-88.8888888888889,4,1,0,80,0,0
65762,-90.9090909090909,4,1,0,80,0,0
66965,-100,4,1,0,80,0,0
67546,-100,4,1,0,85,0,0
67562,-83.3333333333333,4,1,0,85,0,0
67637,-84.2105263157895,4,1,0,85,0,0
67712,-85.1063829787234,4,1,0,85,0,0
67787,-86.0215053763441,4,1,0,85,0,0
67862,-86.9565217391304,4,1,0,85,0,0
68090,-100,4,1,0,90,0,0
68165,-90.9090909090909,4,1,0,90,0,1
77690,-90.9090909090909,4,1,0,80,0,1
77765,-100,4,1,0,80,0,0
81946,-100,4,1,0,85,0,0
81965,-100,4,1,0,85,0,0
82037,-99.7861724875267,4,1,0,85,0,0
82112,-99.5732574679943,4,1,0,85,0,0
82187,-99.361249112846,4,1,0,85,0,0
82262,-99.1501416430595,4,1,0,85,0,0
82412,-98.7306064880113,4,1,0,85,0,0
82562,-98.314606741573,4,1,0,85,0,0
82862,-97.4930362116992,4,1,0,85,0,0
83015,-100,4,1,0,85,0,0
83162,-96.6850828729282,4,1,0,85,0,0
83312,-96.2861072902338,4,1,0,85,0,0
83462,-95.8904109589041,4,1,0,85,0,0
83762,-95.1086956521739,4,1,0,85,0,0
83915,-100,4,1,0,85,0,0
84062,-94.3396226415094,4,1,0,85,0,0
84212,-93.9597315436242,4,1,0,85,0,0
84362,-93.5828877005348,4,1,0,85,0,0
84437,-93.3955970647098,4,1,0,85,0,0
84512,-93.2090545938748,4,1,0,85,0,0
84590,-93.2090545938748,4,1,0,90,0,0
84662,-92.8381962864721,4,1,0,90,0,0
84737,-92.6538716082065,4,1,0,90,0,0
84812,-92.4702774108322,4,1,0,90,0,0
84887,-92.2874093605801,4,1,0,90,0,0
84962,-92.1052631578947,4,1,0,90,0,0
85262,-91.3838120104439,4,1,0,90,0,0
85412,-91.0273081924577,4,1,0,90,0,0
85487,-90.85009733939,4,1,0,90,0,0
85562,-90.6735751295337,4,1,0,90,0,0
85712,-90.3225806451613,4,1,0,90,0,0
85862,-89.974293059126,4,1,0,90,0,0
86012,-89.628681177977,4,1,0,90,0,0
86162,-89.2857142857143,4,1,0,90,0,0
86237,-89.1152132399745,4,1,0,90,0,0
86312,-88.9453621346887,4,1,0,90,0,0
86387,-88.7761572606214,4,1,0,90,0,0
86462,-88.6075949367089,4,1,0,90,0,0
86537,-88.4396715097916,4,1,0,90,0,0
86612,-88.2723833543506,4,1,0,90,0,0
86762,-87.9396984924623,4,1,0,90,0,0
86837,-87.7742946708464,4,1,0,90,0,0
86912,-87.6095118898623,4,1,0,90,0,0
86987,-87.4453466583386,4,1,0,90,0,0
87062,-87.2817955112219,4,1,0,90,0,0
87137,-87.1188550093342,4,1,0,90,0,0
87212,-86.9565217391304,4,1,0,90,0,0

[HitObjects]
152,293,5765,5,4,0:0:0:0:
152,293,6065,1,4,0:0:0:0:
152,293,6215,1,4,0:0:0:0:
170,268,7565,1,0,0:0:0:0:
170,275,7640,1,0,0:0:0:0:
170,278,7715,1,0,0:0:0:0:
170,279,7790,1,0,0:0:0:0:
170,279,7865,1,8,0:0:0:0:
181,279,8015,1,8,0:0:0:0:
180,278,8165,1,4,0:0:0:0:
183,274,8465,1,4,0:0:0:0:
185,274,8615,1,4,0:0:0:0:
142,240,10565,2,4,L|204:236,7,41.9999987182618,8|8|8|8|8|8|8|8,0:0|0:0|0:0|0:0|0:0|0:0|0:0|0:0,0:0:0:0:
211,286,12365,1,8,0:0:0:0:
211,286,12440,1,8,0:0:0:0:
218,294,12515,1,0,0:0:0:0:
181,286,12590,1,0,0:0:0:0:
220,294,12665,1,8,0:0:0:0:
220,294,12815,1,8,0:0:0:0:
221,298,12965,1,4,0:0:0:0:
220,296,13265,1,4,0:0:0:0:
220,294,13415,1,4,0:0:0:0:
256,192,14165,12,0,14615,0:0:0:0:
168,246,14765,5,8,0:0:0:0:
168,246,14840,1,8,0:0:0:0:
168,246,14915,1,8,0:0:0:0:
168,246,14990,1,8,0:0:0:0:
168,246,15065,1,0,0:0:0:0:
180,245,15365,1,12,0:0:0:0:
180,245,15665,1,0,0:0:0:0:
180,245,15965,1,0,0:0:0:0:
180,245,16115,1,0,0:0:0:0:
198,235,16190,1,0,0:0:0:0:
180,245,16265,1,8,0:0:0:0:
180,245,16415,1,8,0:0:0:0:
199,255,16565,1,0,0:0:0:0:
201,248,16865,1,0,0:0:0:0:
201,244,17015,1,8,0:0:0:0:
202,243,17315,1,0,0:0:0:0:
201,248,17465,1,8,0:0:0:0:
201,248,17615,1,0,0:0:0:0:
201,244,17765,1,0,0:0:0:0:
202,243,17915,1,8,0:0:0:0:
202,243,17990,1,0,0:0:0:0:
229,258,18065,1,0,0:0:0:0:
228,252,18215,1,0,0:0:0:0:
228,252,18365,1,8,0:0:0:0:
201,244,18440,1,8,0:0:0:0:
230,253,18515,1,0,0:0:0:0:
233,253,18590,1,0,0:0:0:0:
233,253,18665,1,8,0:0:0:0:
229,258,18815,1,8,0:0:0:0:
231,237,18890,1,8,0:0:0:0:
241,232,18965,1,0,0:0:0:0:
165,239,19865,1,8,0:0:0:0:
165,239,20165,1,4,0:0:0:0:
165,239,20465,1,0,0:0:0:0:
165,239,20615,1,8,0:0:0:0:
188,245,20690,1,8,0:0:0:0:
165,239,20765,1,0,0:0:0:0:
165,239,20915,1,0,0:0:0:0:
167,230,21065,1,8,0:0:0:0:
167,230,21215,1,0,0:0:0:0:
167,230,21365,1,0,0:0:0:0:
183,259,21665,1,8,0:0:0:0:
183,259,21815,1,8,0:0:0:0:
183,259,21965,1,0,0:0:0:0:
183,259,22040,1,0,0:0:0:0:
214,258,22115,1,0,0:0:0:0:
183,259,22190,1,0,0:0:0:0:
183,259,22265,1,8,0:0:0:0:
224,259,22415,1,0,0:0:0:0:
224,259,22565,1,8,0:0:0:0:
190,266,22865,1,0,0:0:0:0:
190,266,23015,1,8,0:0:0:0:
190,266,23165,1,0,0:0:0:0:
197,259,23240,1,0,0:0:0:0:
190,266,23315,1,0,0:0:0:0:
190,266,23465,1,8,0:0:0:0:
197,263,23615,1,0,0:0:0:0:
197,263,23765,1,8,0:0:0:0:
197,263,23840,1,0,0:0:0:0:
197,263,23915,1,0,0:0:0:0:
197,263,24065,1,0,0:0:0:0:
197,263,24215,1,0,0:0:0:0:
197,263,24365,1,8,0:0:0:0:
197,263,24440,1,8,0:0:0:0:
197,263,24515,1,8,0:0:0:0:
197,263,24590,1,8,0:0:0:0:
197,263,24665,1,0,0:0:0:0:
197,263,24815,1,8,0:0:0:0:
165,239,24965,1,4,0:0:0:0:
165,239,25265,1,0,0:0:0:0:
165,239,25415,1,8,0:0:0:0:
188,245,25490,1,8,0:0:0:0:
165,239,25565,1,0,0:0:0:0:
165,239,25715,1,0,0:0:0:0:
167,230,25865,1,8,0:0:0:0:
167,230,26015,1,0,0:0:0:0:
167,230,26165,1,0,0:0:0:0:
183,259,26465,1,8,0:0:0:0:
183,259,26615,1,8,0:0:0:0:
183,259,26765,1,0,0:0:0:0:
183,259,26840,1,0,0:0:0:0:
214,258,26915,1,8,0:0:0:0:
183,259,26990,1,8,0:0:0:0:
183,259,27065,1,0,0:0:0:0:
224,259,27215,1,0,0:0:0:0:
224,259,27365,1,8,0:0:0:0:
190,266,27665,1,0,0:0:0:0:
190,266,27815,1,8,0:0:0:0:
190,266,27965,1,8,0:0:0:0:
197,259,28040,1,0,0:0:0:0:
190,266,28115,1,0,0:0:0:0:
190,266,28265,1,8,0:0:0:0:
197,263,28565,1,0,0:0:0:0:
197,263,28640,1,0,0:0:0:0:
197,263,28715,1,8,0:0:0:0:
197,263,28865,1,0,0:0:0:0:
197,263,28940,1,8,0:0:0:0:
122,202,29090,1,8,0:0:0:0:
197,263,29165,1,0,0:0:0:0:
213,257,29240,1,0,0:0:0:0:
197,263,29315,1,8,0:0:0:0:
197,263,29465,1,0,0:0:0:0:
178,262,29765,1,12,0:0:0:0:
200,273,30065,1,0,0:0:0:0:
199,272,30215,1,8,0:0:0:0:
199,272,30515,1,8,0:0:0:0:
200,273,30590,1,0,0:0:0:0:
200,273,30665,1,8,0:0:0:0:
189,283,30815,1,8,0:0:0:0:
182,286,30965,1,0,0:0:0:0:
180,284,31265,1,0,0:0:0:0:
179,284,31415,1,8,0:0:0:0:
182,286,31715,1,8,0:0:0:0:
179,290,31865,1,0,0:0:0:0:
180,284,31940,1,0,0:0:0:0:
128,238,32015,1,8,0:0:0:0:
180,284,32090,1,8,0:0:0:0:
202,265,32165,1,0,0:0:0:0:
211,260,32465,1,0,0:0:0:0:
211,260,32615,1,8,0:0:0:0:
202,265,32765,1,8,0:0:0:0:
218,268,32840,1,8,0:0:0:0:
202,265,32915,1,0,0:0:0:0:
209,268,33065,1,8,0:0:0:0:
218,270,33215,1,8,0:0:0:0:
218,271,33365,1,0,0:0:0:0:
217,268,33440,1,0,0:0:0:0:
208,269,33515,1,8,0:0:0:0:
216,268,33665,1,0,0:0:0:0:
245,269,33965,1,8,0:0:0:0:
245,269,34040,1,8,0:0:0:0:
245,269,34115,1,0,0:0:0:0:
245,269,34190,1,0,0:0:0:0:
245,269,34265,1,8,0:0:0:0:
245,269,34415,1,8,0:0:0:0:
245,269,34565,1,4,0:0:0:0:
224,261,34865,1,8,0:0:0:0:
224,261,35015,1,8,0:0:0:0:
243,244,35315,1,0,0:0:0:0:
224,261,35390,1,0,0:0:0:0:
224,261,35465,1,8,0:0:0:0:
224,261,35615,1,8,0:0:0:0:
224,261,35765,1,0,0:0:0:0:
240,281,36065,1,0,0:0:0:0:
240,281,36215,1,0,0:0:0:0:
240,280,36515,1,0,0:0:0:0:
240,281,36665,1,8,0:0:0:0:
240,281,36815,1,0,0:0:0:0:
240,281,36890,1,0,0:0:0:0:
240,281,36965,1,8,0:0:0:0:
240,280,37265,1,0,0:0:0:0:
240,281,37565,1,8,0:0:0:0:
240,281,37640,1,8,0:0:0:0:
240,281,37715,1,0,0:0:0:0:
240,280,37865,1,8,0:0:0:0:
240,280,38015,1,8,0:0:0:0:
228,259,38165,1,0,0:0:0:0:
232,263,38240,1,0,0:0:0:0:
228,259,38315,1,8,0:0:0:0:
228,259,38465,1,0,0:0:0:0:
245,268,38540,1,8,0:0:0:0:
186,256,38690,1,8,0:0:0:0:
245,267,38765,1,8,0:0:0:0:
245,267,38840,1,8,0:0:0:0:
238,302,38915,1,8,0:0:0:0:
226,346,39065,1,0,0:0:0:0:
243,292,39365,1,0,0:0:0:0:
243,292,39965,1,8,0:0:0:0:
243,292,40115,1,0,0:0:0:0:
243,292,40565,1,0,0:0:0:0:
243,292,40865,1,8,0:0:0:0:
243,292,41165,1,0,0:0:0:0:
243,292,41315,1,0,0:0:0:0:
243,292,41765,1,0,0:0:0:0:
243,292,41915,1,8,0:0:0:0:
243,292,42065,1,0,0:0:0:0:
243,292,42365,1,0,0:0:0:0:
243,292,42515,1,0,0:0:0:0:
243,292,42965,1,8,0:0:0:0:
243,292,43265,1,0,0:0:0:0:
224,282,43565,1,8,0:0:0:0:
227,280,43715,1,0,0:0:0:0:
224,282,44165,1,0,0:0:0:0:
224,282,44315,1,0,0:0:0:0:
227,280,44465,1,8,0:0:0:0:
224,282,44765,1,0,0:0:0:0:
224,282,44915,1,0,0:0:0:0:
224,282,45365,1,0,0:0:0:0:
224,282,45665,1,8,0:0:0:0:
224,282,45965,1,0,0:0:0:0:
224,282,46115,1,0,0:0:0:0:
224,282,46565,1,0,0:0:0:0:
224,282,46715,1,0,0:0:0:0:
224,282,46865,1,8,0:0:0:0:
224,282,47165,1,8,0:0:0:0:
224,282,47315,1,0,0:0:0:0:
224,282,47765,1,0,0:0:0:0:
224,282,48065,1,8,0:0:0:0:
224,282,48365,1,8,0:0:0:0:
224,282,48515,1,0,0:0:0:0:
224,282,48965,1,0,0:0:0:0:
224,282,49115,1,0,0:0:0:0:
224,282,49265,1,8,0:0:0:0:
224,282,49415,1,0,0:0:0:0:
224,282,49565,1,8,0:0:0:0:
224,282,49865,1,8,0:0:0:0:
230,280,50165,1,0,0:0:0:0:
230,280,50315,1,8,0:0:0:0:
224,282,50465,1,8,0:0:0:0:
224,282,50615,1,0,0:0:0:0:
230,280,50765,1,0,0:0:0:0:
230,280,50915,1,0,0:0:0:0:
230,280,51065,1,8,0:0:0:0:
224,282,51365,1,0,0:0:0:0:
222,283,51665,1,8,0:0:0:0:
221,282,51815,1,0,0:0:0:0:
224,282,51965,1,0,0:0:0:0:
224,282,52115,1,0,0:0:0:0:
222,283,52265,1,8,0:0:0:0:
200,285,52565,1,0,0:0:0:0:
224,282,52715,1,8,0:0:0:0:
226,279,52865,1,8,0:0:0:0:
224,282,53015,1,0,0:0:0:0:
241,277,53165,1,0,0:0:0:0:
244,290,53315,1,0,0:0:0:0:
244,290,53465,1,8,0:0:0:0:
242,286,53615,1,8,0:0:0:0:
242,286,53690,1,8,0:0:0:0:
237,292,53765,1,8,0:0:0:0:
237,290,53915,1,0,0:0:0:0:
244,290,54065,1,8,0:0:0:0:
244,290,54215,1,0,0:0:0:0:
242,286,54365,1,0,0:0:0:0:
240,279,54515,1,8,0:0:0:0:
242,280,54665,1,8,0:0:0:0:
242,280,54965,1,8,0:0:0:0:
242,286,55115,1,0,0:0:0:0:
233,274,55265,1,0,0:0:0:0:
232,271,55415,1,0,0:0:0:0:
233,270,55565,1,8,0:0:0:0:
231,269,55865,1,0,0:0:0:0:
232,271,56165,1,0,0:0:0:0:
233,270,56315,1,8,0:0:0:0:
231,269,56465,1,8,0:0:0:0:
231,269,56615,1,0,0:0:0:0:
232,271,56765,1,8,0:0:0:0:
204,269,56915,1,0,0:0:0:0:
233,270,57065,1,8,0:0:0:0:
207,268,57365,1,0,0:0:0:0:
212,242,57965,1,8,0:0:0:0:
209,239,58040,1,8,0:0:0:0:
212,242,58115,1,8,0:0:0:0:
212,242,58190,1,8,0:0:0:0:
207,237,58265,1,0,0:0:0:0:
196,252,58565,1,4,0:0:0:0:
194,254,58865,1,4,0:0:0:0:
194,254,59015,1,4,0:0:0:0:
191,221,60365,1,0,0:0:0:0:
191,221,60440,1,0,0:0:0:0:
191,221,60515,1,0,0:0:0:0:
191,221,60590,1,0,0:0:0:0:
190,245,60665,1,8,0:0:0:0:
191,221,60815,1,8,0:0:0:0:
191,221,60965,1,4,0:0:0:0:
168,262,61265,1,4,0:0:0:0:
169,264,61415,1,4,0:0:0:0:
124,226,63365,2,4,L|193:223,7,41.9999987182618,8|8|8|8|8|8|8|8,0:0|0:0|0:0|0:0|0:0|0:0|0:0|0:0,0:0:0:0:
246,186,65165,1,8,0:0:0:0:
246,186,65240,1,8,0:0:0:0:
246,186,65315,1,0,0:0:0:0:
246,186,65390,1,0,0:0:0:0:
246,186,65465,1,8,0:0:0:0:
246,186,65615,1,8,0:0:0:0:
246,186,65765,1,4,0:0:0:0:
246,186,66065,1,4,0:0:0:0:
246,186,66215,1,4,0:0:0:0:
256,192,66965,12,0,67415,0:0:0:0:
100,222,67565,5,8,0:0:0:0:
154,237,67640,1,8,0:0:0:0:
154,237,67715,1,8,0:0:0:0:
154,237,67790,1,8,0:0:0:0:
165,239,67865,1,0,0:0:0:0:
165,239,68165,1,12,0:0:0:0:
165,239,68465,5,0,0:0:0:0:
165,239,68615,1,8,0:0:0:0:
188,245,68690,1,0,0:0:0:0:
165,239,68765,1,0,0:0:0:0:
165,239,68915,1,0,0:0:0:0:
167,230,69065,1,8,0:0:0:0:
167,230,69215,1,0,0:0:0:0:
167,230,69365,1,0,0:0:0:0:
183,259,69665,1,8,0:0:0:0:
183,259,69815,1,8,0:0:0:0:
183,259,69965,1,0,0:0:0:0:
183,259,70040,1,0,0:0:0:0:
214,258,70115,1,8,0:0:0:0:
183,259,70190,1,8,0:0:0:0:
183,259,70265,1,0,0:0:0:0:
224,259,70415,1,0,0:0:0:0:
224,259,70565,1,8,0:0:0:0:
190,266,70865,1,0,0:0:0:0:
190,266,71015,1,8,0:0:0:0:
190,266,71165,1,0,0:0:0:0:
197,259,71240,1,0,0:0:0:0:
190,266,71315,1,8,0:0:0:0:
190,266,71465,1,0,0:0:0:0:
197,263,71615,1,0,0:0:0:0:
197,263,71765,1,8,0:0:0:0:
197,263,71840,1,8,0:0:0:0:
197,263,71915,1,0,0:0:0:0:
197,263,72065,1,8,0:0:0:0:
197,263,72215,1,0,0:0:0:0:
197,263,72365,1,8,0:0:0:0:
197,263,72440,1,0,0:0:0:0:
197,263,72515,1,8,0:0:0:0:
197,263,72590,1,8,0:0:0:0:
197,263,72665,1,0,0:0:0:0:
197,263,72815,1,8,0:0:0:0:
165,239,72965,1,4,0:0:0:0:
165,239,73265,1,0,0:0:0:0:
165,239,73415,1,8,0:0:0:0:
188,245,73490,1,8,0:0:0:0:
165,239,73565,1,0,0:0:0:0:
165,239,73715,1,0,0:0:0:0:
167,230,73865,1,8,0:0:0:0:
167,230,74015,1,0,0:0:0:0:
167,230,74165,1,0,0:0:0:0:
183,259,74465,1,8,0:0:0:0:
183,259,74615,1,8,0:0:0:0:
183,259,74765,1,0,0:0:0:0:
183,259,74840,1,0,0:0:0:0:
214,258,74915,1,8,0:0:0:0:
183,259,74990,1,8,0:0:0:0:
183,259,75065,1,0,0:0:0:0:
224,259,75215,1,0,0:0:0:0:
224,259,75365,1,8,0:0:0:0:
190,266,75665,1,0,0:0:0:0:
190,266,75815,1,8,0:0:0:0:
190,266,75965,1,0,0:0:0:0:
197,259,76040,1,0,0:0:0:0:
190,266,76115,1,0,0:0:0:0:
190,266,76265,1,8,0:0:0:0:
197,263,76565,1,0,0:0:0:0:
197,263,76640,1,0,0:0:0:0:
197,263,76715,1,8,0:0:0:0:
197,263,76865,1,0,0:0:0:0:
197,263,76940,1,8,0:0:0:0:
82,207,77090,1,8,0:0:0:0:
197,263,77165,1,0,0:0:0:0:
213,257,77240,1,0,0:0:0:0:
197,263,77315,1,8,0:0:0:0:
197,263,77465,1,0,0:0:0:0:
178,262,77765,1,12,0:0:0:0:
200,273,78065,1,0,0:0:0:0:
199,272,78215,1,8,0:0:0:0:
199,272,78515,1,8,0:0:0:0:
200,273,78590,1,0,0:0:0:0:
200,273,78665,1,8,0:0:0:0:
189,283,78815,1,8,0:0:0:0:
182,286,78965,1,8,0:0:0:0:
180,284,79265,1,0,0:0:0:0:
179,284,79415,1,8,0:0:0:0:
127,268,79565,1,0,0:0:0:0:
127,268,79640,1,0,0:0:0:0:
182,286,79715,1,8,0:0:0:0:
179,290,79865,1,8,0:0:0:0:
180,284,79940,1,8,0:0:0:0:
128,238,80015,1,0,0:0:0:0:
202,265,80165,1,4,0:0:0:0:
211,260,80465,1,0,0:0:0:0:
211,260,80615,1,8,0:0:0:0:
202,265,80765,1,8,0:0:0:0:
218,268,80840,1,8,0:0:0:0:
202,265,80915,1,0,0:0:0:0:
209,268,81065,1,8,0:0:0:0:
218,270,81215,1,8,0:0:0:0:
218,271,81365,1,0,0:0:0:0:
217,268,81440,1,0,0:0:0:0:
208,269,81515,1,8,0:0:0:0:
216,268,81665,1,0,0:0:0:0:
245,269,81965,1,8,0:0:0:0:
245,269,82040,1,8,0:0:0:0:
245,269,82115,1,8,0:0:0:0:
245,269,82190,1,8,0:0:0:0:
245,269,82265,1,0,0:0:0:0:
245,269,82415,1,0,0:0:0:0:
245,269,82565,1,12,0:0:0:0:
224,261,82865,1,8,0:0:0:0:
230,262,83165,1,0,0:0:0:0:
231,262,83315,1,0,0:0:0:0:
231,262,83465,1,8,0:0:0:0:
232,262,83765,1,4,0:0:0:0:
231,262,84065,1,8,0:0:0:0:
231,262,84215,1,0,0:0:0:0:
232,262,84365,1,0,0:0:0:0:
228,252,84440,1,0,0:0:0:0:
232,262,84515,1,0,0:0:0:0:
230,262,84665,1,8,0:0:0:0:
223,259,84740,1,8,0:0:0:0:
223,259,84815,1,0,0:0:0:0:
223,271,84890,1,0,0:0:0:0:
223,255,84965,1,8,0:0:0:0:
226,269,85265,1,8,0:0:0:0:
226,270,85415,1,0,0:0:0:0:
223,259,85490,1,0,0:0:0:0:
223,259,85565,1,0,0:0:0:0:
221,260,85715,1,8,0:0:0:0:
221,260,85865,1,8,0:0:0:0:
223,260,86015,1,0,0:0:0:0:
221,264,86165,1,8,0:0:0:0:
202,225,86240,1,0,0:0:0:0:
202,225,86315,1,8,0:0:0:0:
202,225,86390,1,0,0:0:0:0:
202,225,86465,1,8,0:0:0:0:
192,256,86540,1,0,0:0:0:0:
197,255,86615,1,8,0:0:0:0:
201,216,86765,1,8,0:0:0:0:
201,216,86840,1,0,0:0:0:0:
201,216,86915,1,8,0:0:0:0:
201,216,86990,1,0,0:0:0:0:
199,216,87065,1,8,0:0:0:0:
201,216,87140,1,0,0:0:0:0:
199,216,87215,1,8,0:0:0:0:
