osu file format v14

[General]
AudioFilename: audio.mp3
AudioLeadIn: 0
PreviewTime: 75849
Countdown: 1
SampleSet: Normal
StackLeniency: 0.7
Mode: 2
LetterboxInBreaks: 0
WidescreenStoryboard: 1

[Editor]
DistanceSpacing: 1
BeatDivisor: 2
GridSize: 4
TimelineZoom: 2

[Metadata]
Title:Dear You
TitleUnicode:Dear You
Artist:DJ Genericname
ArtistUnicode:DJ Genericname
Creator:Nit0ri
Version:Cup
Source:
Tags:dj genericname drum and bass electronic vocal remix
BeatmapID:1750560
BeatmapSetID:834202

[Difficulty]
HPDrainRate:4
CircleSize:2.5
OverallDifficulty:5.5
ApproachRate:5.5
SliderMultiplier:1.3
SliderTickRate:1

[Events]
//Background and Video events
0,0,"wallpaper-716840.jpg",0,0
//Break Periods
//Storyboard Layer 0 (Background)
//Storyboard Layer 1 (Fail)
//Storyboard Layer 2 (Pass)
//Storyboard Layer 3 (Foreground)
//Storyboard Sound Samples

[TimingPoints]
38,344.827586206897,4,1,0,100,1,0
87897,-100,4,1,0,100,0,1
114009,-100,4,1,0,100,0,0

[Colours]
Combo1 : 64,0,64
Combo2 : 0,0,128
Combo3 : 64,0,128

[HitObjects]
49,220,11072,6,0,L|224:221,1,130
297,224,11762,1,0,0:0:0:0:
379,226,11934,1,0,0:0:0:0:
297,141,12106,1,0,0:0:0:0:
186,229,12451,2,0,P|149:139|193:85,1,130
277,228,13141,1,0,0:0:0:0:
358,227,13313,1,0,0:0:0:0:
436,223,13486,2,0,L|280:225,1,130
251,218,14175,6,0,L|95:220,1,130
80,163,14693,1,0,0:0:0:0:
155,161,14865,1,0,0:0:0:0:
242,161,15210,2,0,L|397:82,1,130
357,101,15900,2,0,L|201:19,1,130
240,169,16589,2,0,P|200:93|275:55,1,130
239,251,17279,5,0,0:0:0:0:
329,251,17451,1,0,0:0:0:0:
418,256,17624,1,0,0:0:0:0:
335,174,17969,2,0,L|507:174,1,130
466,119,18658,1,0,0:0:0:0:
376,120,18831,1,0,0:0:0:0:
287,121,19003,1,0,0:0:0:0:
329,52,19348,5,0,0:0:0:0:
210,117,19693,1,0,0:0:0:0:
46,119,20038,1,0,0:0:0:0:
136,120,20210,1,0,0:0:0:0:
225,121,20382,1,0,0:0:0:0:
184,51,20727,5,0,0:0:0:0:
111,303,21072,2,0,P|76:235|126:207,1,130
237,134,21762,2,0,L|138:29,2,130
351,124,22796,1,0,0:0:0:0:
422,122,22969,1,0,0:0:0:0:
352,68,23141,1,0,0:0:0:0:
240,70,23486,6,0,L|86:69,1,130
167,145,24175,1,0,0:0:0:0:
236,145,24348,1,0,0:0:0:0:
305,145,24520,1,0,0:0:0:0:
239,236,24865,2,0,L|87:236,1,130
195,155,25555,5,0,0:0:0:0:
260,156,25727,1,0,0:0:0:0:
195,237,25900,1,0,0:0:0:0:
74,243,26244,2,0,L|1:116,1,130
122,74,26934,2,0,L|309:71,1,130
322,154,27624,6,0,P|373:83|317:26,1,130
251,156,28313,2,0,P|203:118|203:69,1,65
298,303,28658,2,0,P|329:210|293:153,1,130
324,140,29693,1,0,0:0:0:0:
401,139,29865,1,0,0:0:0:0:
476,140,30038,1,0,0:0:0:0:
433,83,30382,2,0,L|272:82,1,130
261,157,31072,5,0,0:0:0:0:
177,160,31244,1,0,0:0:0:0:
91,165,31417,1,0,0:0:0:0:
174,241,31762,1,0,0:0:0:0:
180,77,32106,2,0,B|228:117|260:130|275:141|427:132,1,260
479,193,33141,6,0,L|297:198,1,130
267,120,33831,2,0,L|193:120,2,65
224,208,34520,2,0,L|80:211,1,130
92,132,35210,2,0,L|182:134,1,65
241,138,35555,2,0,L|346:5,1,130
391,209,36417,5,0,0:0:0:0:
310,210,36589,1,0,0:0:0:0:
228,211,36762,1,0,0:0:0:0:
147,213,36934,1,0,0:0:0:0:
68,215,37279,1,0,0:0:0:0:
110,126,37624,6,0,L|279:125,1,130
280,118,38313,1,0,0:0:0:0:
276,199,38658,2,0,L|424:203,1,130
413,131,39348,1,0,0:0:0:0:
338,131,39520,1,0,0:0:0:0:
268,130,39693,1,0,0:0:0:0:
269,70,39865,1,0,0:0:0:0:
342,71,40038,1,0,0:0:0:0:
301,193,40382,5,0,0:0:0:0:
158,99,40727,2,0,L|56:96,2,65
238,102,41417,2,0,L|404:101,1,130
445,103,42106,2,0,L|558:104,2,65
294,140,42796,1,0,0:0:0:0:
161,235,43141,2,0,L|31:233,2,130
