osu file format v14

[General]
AudioFilename: audio.mp3
AudioLeadIn: 0
PreviewTime: 88171
Countdown: 0
SampleSet: Soft
StackLeniency: 0.7
Mode: 0
LetterboxInBreaks: 0
WidescreenStoryboard: 0

[Editor]
Bookmarks: 38,11065,33120,55175,66203,77230,82744,88258,110313
DistanceSpacing: 1.3
BeatDivisor: 4
GridSize: 32
TimelineZoom: 1.5

[Metadata]
Title:Dear You
TitleUnicode:Dear You
Artist:DJ Genericname
ArtistUnicode:DJ Genericname
Creator:-Nenecchi
Version:Always Smiling By Your Side
Source:Higurashi no Naku Koro ni
Tags:Reiji-RJ DnB Yuduki Drum and Bass Remix Higurashi no Naku Koro ni nene
BeatmapID:2021754
BeatmapSetID:965848

[Difficulty]
HPDrainRate:6
CircleSize:4
OverallDifficulty:8
ApproachRate:9
SliderMultiplier:2
SliderTickRate:1

[Events]
//Background and Video events
0,0,"thumb-1920-201993.jpg",0,0
//Break Periods
//Storyboard Layer 0 (Background)
//Storyboard Layer 1 (Fail)
//Storyboard Layer 2 (Pass)
//Storyboard Layer 3 (Foreground)
//Storyboard Sound Samples

[TimingPoints]
38,344.609729481362,4,2,1,60,1,0
38,-250,4,2,1,60,0,0
11065,-100,4,2,1,60,0,0
55175,-166.666666666667,4,2,1,60,0,0
66203,-250.000000000001,4,2,1,60,0,0
88258,-76.9230769230769,4,2,1,60,0,1
110313,-76.9230769230769,4,2,1,60,0,0

[Colours]
Combo1 : 146,201,149
Combo2 : 84,188,100

[HitObjects]
171,98,38,6,0,L|168:145,1,40,6|0,0:3|0:0,0:0:0:0:
263,190,382,2,0,L|260:143,1,40,2|0,0:0|0:0,0:0:0:0:
409,115,727,5,0,0:0:0:0:
340,185,899,1,2,0:3:0:0:
435,209,1071,1,2,0:0:0:0:
334,64,1244,1,0,0:0:0:0:
263,190,1416,6,0,P|275:217|278:245,1,40,2|0,0:3|0:0,0:0:0:0:
145,285,1761,2,0,P|153:256|168:233,1,40,2|0,0:0|0:0,0:0:0:0:
276,321,2105,5,0,0:0:0:0:
276,321,2277,1,2,0:3:0:0:
189,204,2450,1,2,0:0:0:0:
189,204,2622,1,0,0:0:0:0:
353,245,2794,6,0,L|306:242,1,40,2|0,0:3|0:0,0:0:0:0:
369,143,3139,2,0,L|416:140,1,40,2|0,0:0|0:0,0:0:0:0:
464,221,3484,5,0,0:0:0:0:
353,245,3656,1,2,0:3:0:0:
437,131,3828,1,2,0:0:0:0:
427,308,4001,1,0,0:0:0:0:
282,162,4173,6,0,P|305:144|332:135,1,40,2|2,0:3|0:3,0:0:0:0:
260,244,4517,2,0,P|232:232|211:214,1,40,2|0,0:0|0:0,0:0:0:0:
343,223,4862,2,0,P|346:252|341:279,2,40,0|2|2,0:0|0:3|0:0,0:0:0:0:
241,142,5379,1,0,0:0:0:0:
177,251,5551,6,0,L|224:248,1,40,2|0,0:3|0:0,0:0:0:0:
128,145,5896,2,0,L|81:142,1,40,2|0,0:0|0:0,0:0:0:0:
0,191,6240,5,0,0:0:0:0:
105,241,6413,1,2,0:3:0:0:
77,134,6585,1,2,0:0:0:0:
4,290,6757,1,0,0:0:0:0:
191,243,6930,6,0,P|186:213|174:188,1,40,2|0,0:3|0:0,0:0:0:0:
124,329,7274,2,0,P|145:348|171:360,1,40,2|0,0:0|0:0,0:0:0:0:
280,326,7619,5,0,0:0:0:0:
189,255,7791,1,2,0:3:0:0:
329,238,7964,2,0,L|376:241,1,40,2|0,0:0|0:0,0:0:0:0:
380,370,8308,6,0,P|362:346|353:319,1,40,2|0,0:3|0:0,0:0:0:0:
468,260,8653,2,0,P|456:287|438:308,1,40,2|0,0:0|0:0,0:0:0:0:
305,252,8997,5,0,0:0:0:0:
404,207,9170,1,2,0:3:0:0:
370,313,9342,1,2,0:0:0:0:
346,142,9514,1,0,0:0:0:0:
484,231,9687,6,0,L|487:278,1,40,2|2,0:3|0:3,0:0:0:0:
343,200,10031,2,0,L|346:152,1,40,2|0,0:0|0:0,0:0:0:0:
434,281,10376,5,0,0:0:0:0:
243,194,10548,1,2,0:3:0:0:
398,87,10720,6,0,L|402:150,1,60,2|0,0:0|0:0,0:0:0:0:
402,223,11065,6,0,P|364:170|304:132,1,100,12|0,0:3|0:0,0:0:0:0:
172,234,11410,2,0,P|235:250|305:240,1,100,8|0,0:0|0:0,0:0:0:0:
269,249,11668,1,0,0:0:0:0:
269,249,11754,5,0,0:0:0:0:
239,124,11927,1,8,0:3:0:0:
143,316,12099,1,8,0:0:0:0:
351,327,12271,1,0,0:0:0:0:
356,299,12357,1,0,0:0:0:0:
361,271,12443,6,0,L|353:147,1,100,8|0,0:3|0:0,0:0:0:0:
468,61,12788,2,0,L|460:184,1,100,8|0,0:0|0:0,0:0:0:0:
474,229,13047,1,0,0:0:0:0:
461,201,13133,1,0,0:0:0:0:
441,180,13219,1,0,0:0:0:0:
414,167,13305,5,8,0:3:0:0:
239,210,13477,1,8,0:0:0:0:
394,303,13650,6,0,L|389:239,1,50,0|0,0:0|0:0,0:0:0:0:
384,164,13822,2,0,P|354:222|301:269,1,100,8|0,0:3|0:0,0:0:0:0:
163,177,14166,2,0,P|222:151|293:149,1,100,8|0,0:0|0:0,0:0:0:0:
256,146,14425,1,0,0:0:0:0:
256,146,14511,1,0,0:0:0:0:
137,292,14683,1,8,0:3:0:0:
81,177,14856,1,8,0:0:0:0:
81,177,14942,1,0,0:0:0:0:
81,177,15028,2,0,P|112:174|136:164,1,50,0|0,0:0|0:0,0:0:0:0:
177,86,15200,6,0,P|179:150|208:215,1,100,8|8,0:3|0:3,0:0:0:0:
389,162,15545,2,0,P|331:131|261:124,1,100,8|0,0:0|0:0,0:0:0:0:
217,307,15890,2,0,P|271:272|312:214,1,100,0|8,0:0|0:3,0:0:0:0:
318,104,16234,5,8,0:0:0:0:
190,183,16406,1,0,0:0:0:0:
329,298,16579,6,0,L|321:174,1,100,8|0,0:3|0:0,0:0:0:0:
457,103,16923,2,0,L|449:227,1,100,8|0,0:0|0:0,0:0:0:0:
450,202,17182,1,0,0:0:0:0:
450,202,17268,1,0,0:0:0:0:
277,154,17440,1,8,0:3:0:0:
385,122,17613,1,8,0:0:0:0:
257,258,17785,1,0,0:0:0:0:
158,118,17957,6,0,P|195:65|255:27,1,100,8|0,0:3|0:0,0:0:0:0:
385,122,18302,2,0,P|322:138|252:129,1,100,8|0,0:0|0:0,0:0:0:0:
245,127,18560,1,0,0:0:0:0:
269,145,18646,1,0,0:0:0:0:
286,169,18732,1,0,0:0:0:0:
293,198,18818,5,8,0:3:0:0:
183,318,18991,1,8,0:0:0:0:
207,201,19163,2,0,P|236:217|256:237,1,50,0|0,0:0|0:0,0:0:0:0:
314,322,19336,6,0,P|291:261|293:190,1,100,8|0,0:3|0:0,0:0:0:0:
349,106,19680,1,8,0:0:0:0:
383,256,19853,1,0,0:0:0:0:
355,268,19939,1,0,0:0:0:0:
326,271,20025,1,0,0:0:0:0:
297,262,20111,1,0,0:0:0:0:
272,243,20197,5,8,0:3:0:0:
232,106,20369,1,8,0:0:0:0:
335,189,20542,1,0,0:0:0:0:
110,271,20714,5,8,0:3:0:0:
248,186,20886,1,8,0:3:0:0:
222,285,21059,2,0,L|230:409,1,100,8|0,0:0|0:0,0:0:0:0:
349,312,21403,2,0,L|357:188,1,100,0|8,0:0|0:3,0:0:0:0:
469,142,21748,2,0,L|477:266,1,100,8|0,0:0|0:0,0:0:0:0:
292,246,22093,6,0,P|339:201|370:138,1,100,12|0,0:3|0:0,0:0:0:0:
341,31,22437,1,8,0:0:0:0:
261,130,22609,1,0,0:0:0:0:
261,130,22696,1,0,0:0:0:0:
261,130,22782,1,0,0:0:0:0:
359,124,22954,1,8,0:3:0:0:
207,48,23126,1,8,0:0:0:0:
218,218,23299,1,0,0:0:0:0:
268,25,23471,6,0,P|227:75|165:110,1,100,8|0,0:3|0:0,0:0:0:0:
37,17,23816,2,0,P|100:4|170:16,1,100,8|0,0:0|0:0,0:0:0:0:
135,7,24074,1,0,0:0:0:0:
135,7,24160,1,0,0:0:0:0:
216,143,24332,1,8,0:3:0:0:
84,114,24505,1,8,0:0:0:0:
264,32,24677,1,0,0:0:0:0:
342,190,24849,6,0,L|334:314,1,100,8|0,0:3|0:0,0:0:0:0:
150,337,25194,1,8,0:0:0:0:
240,239,25366,1,0,0:0:0:0:
234,215,25452,1,0,0:0:0:0:
228,191,25539,5,0,0:0:0:0:
100,253,25711,1,8,0:3:0:0:
262,346,25883,1,8,0:0:0:0:
216,143,26056,1,0,0:0:0:0:
165,314,26228,5,8,0:3:0:0:
356,219,26400,1,8,0:3:0:0:
179,102,26572,1,8,0:0:0:0:
172,131,26658,1,0,0:0:0:0:
174,160,26744,1,0,0:0:0:0:
188,187,26830,1,0,0:0:0:0:
211,209,26917,5,0,0:0:0:0:
33,91,27089,1,8,0:3:0:0:
20,302,27261,1,8,0:0:0:0:
49,294,27347,1,0,0:0:0:0:
73,278,27433,1,0,0:0:0:0:
89,252,27519,1,0,0:0:0:0:
97,221,27606,6,0,P|122:280|171:331,1,100,8|0,0:3|0:0,0:0:0:0:
316,269,27951,2,0,P|258:239|187:232,1,100,8|0,0:0|0:0,0:0:0:0:
224,232,28209,1,0,0:0:0:0:
224,232,28295,1,0,0:0:0:0:
258,344,28468,1,8,0:3:0:0:
301,146,28640,1,8,0:0:0:0:
109,207,28812,1,0,0:0:0:0:
109,207,28899,1,0,0:0:0:0:
109,207,28985,6,0,P|166:236|237:243,1,100,8|0,0:3|0:0,0:0:0:0:
323,107,29329,2,0,P|259:121|201:161,1,100,8|0,0:0|0:0,0:0:0:0:
229,137,29588,1,0,0:0:0:0:
229,137,29674,1,0,0:0:0:0:
283,0,29846,1,8,0:3:0:0:
419,99,30019,1,8,0:0:0:0:
421,123,30106,1,0,0:0:0:0:
423,147,30191,1,0,0:0:0:0:
425,171,30277,1,0,0:0:0:0:
427,195,30362,5,8,0:3:0:0:
317,320,30535,1,0,0:0:0:0:
227,161,30708,2,0,L|351:169,1,100,8|0,0:0|0:0,0:0:0:0:
326,167,30966,1,0,0:0:0:0:
326,167,31052,5,0,0:0:0:0:
143,159,31225,1,8,0:3:0:0:
242,70,31397,1,8,0:0:0:0:
196,262,31569,1,0,0:0:0:0:
301,146,31742,5,8,0:3:0:0:
196,262,31914,1,8,0:3:0:0:
106,171,32086,2,0,P|147:120|168:53,1,100,8|0,0:0|3:0,0:0:0:0:
164,48,32345,5,0,3:0:0:0:
187,87,32431,1,0,3:0:0:0:
223,113,32517,1,0,3:0:0:0:
265,124,32603,1,8,3:3:0:0:
308,119,32689,1,0,3:0:0:0:
346,98,32775,5,8,3:2:0:0:
295,106,32862,1,0,3:0:0:0:
262,146,32948,1,0,3:0:0:0:
264,197,33034,1,0,3:0:0:0:
299,233,33120,6,0,P|235:217|165:226,1,100,12|0,0:3|0:0,0:0:0:0:
53,281,33465,1,8,0:0:0:0:
258,371,33637,1,0,0:0:0:0:
252,347,33723,1,0,0:0:0:0:
246,323,33810,5,0,0:0:0:0:
156,182,33982,1,8,0:3:0:0:
117,337,34154,1,8,0:0:0:0:
273,205,34326,1,0,0:0:0:0:
107,157,34498,6,0,P|150:205|175:271,1,100,8|0,0:3|0:0,0:0:0:0:
63,384,34843,2,0,P|60:318|84:252,1,100,8|0,0:0|0:0,0:0:0:0:
87,240,35102,1,0,0:0:0:0:
69,263,35188,1,0,0:0:0:0:
45,279,35274,1,0,0:0:0:0:
15,286,35360,1,8,0:3:0:0:
0,181,35532,5,8,0:0:0:0:
165,293,35705,1,0,0:0:0:0:
170,265,35791,1,0,0:0:0:0:
175,237,35877,6,0,L|167:113,1,100,8|0,0:3|0:0,0:0:0:0:
62,26,36222,2,0,L|54:150,1,100,8|0,0:0|0:0,0:0:0:0:
91,231,36566,1,0,0:0:0:0:
91,231,36652,1,0,0:0:0:0:
91,231,36738,1,8,0:3:0:0:
162,75,36911,1,8,0:0:0:0:
0,139,37083,1,0,0:0:0:0:
213,219,37255,6,0,P|170:169|108:135,1,100,8|8,0:3|0:3,0:0:0:0:
169,326,37600,2,0,P|233:337|302:323,1,100,8|0,0:0|0:0,0:0:0:0:
355,189,37945,1,0,0:0:0:0:
217,230,38117,1,8,0:3:0:0:
307,367,38289,5,8,0:0:0:0:
346,344,38375,1,0,0:0:0:0:
372,308,38461,1,0,0:0:0:0:
383,266,38547,1,0,0:0:0:0:
378,223,38634,6,0,P|410:279|465:323,1,100,8|0,0:3|0:0,0:0:0:0:
472,180,38978,2,0,L|464:56,1,100,8|0,0:0|0:0,0:0:0:0:
465,80,39237,1,0,0:0:0:0:
465,80,39323,1,0,0:0:0:0:
308,129,39495,1,8,0:3:0:0:
406,155,39668,1,8,0:0:0:0:
230,69,39840,1,0,0:0:0:0:
224,97,39926,1,0,0:0:0:0:
219,125,40012,6,0,L|227:249,1,100,8|0,0:3|0:0,0:0:0:0:
89,166,40357,2,0,L|97:42,1,100,8|0,0:0|0:0,0:0:0:0:
95,66,40615,1,0,0:0:0:0:
95,66,40701,1,0,0:0:0:0:
207,176,40874,1,8,0:3:0:0:
86,169,41046,1,8,0:0:0:0:
226,61,41219,1,0,0:0:0:0:
254,67,41305,1,0,0:0:0:0:
279,84,41391,6,0,P|337:114|407:122,1,100,8|0,0:3|0:0,0:0:0:0:
475,0,41735,2,0,P|410:14|351:53,1,100,8|0,0:0|0:0,0:0:0:0:
380,30,41994,1,0,0:0:0:0:
380,30,42080,1,0,0:0:0:0:
467,153,42252,1,8,0:3:0:0:
486,59,42424,1,8,0:0:0:0:
329,130,42597,1,0,0:0:0:0:
510,219,42769,5,8,0:3:0:0:
335,228,42941,1,8,0:3:0:0:
470,147,43114,2,0,L|462:271,1,100,8|0,0:0|0:0,0:0:0:0:
463,246,43372,1,0,0:0:0:0:
463,246,43458,5,0,0:0:0:0:
325,156,43631,1,8,0:3:0:0:
450,377,43803,5,8,3:2:0:0:
438,333,43889,1,0,3:0:0:0:
410,298,43975,1,0,3:0:0:0:
373,275,44061,1,0,3:0:0:0:
330,268,44148,6,0,P|270:244|218:195,1,100,12|0,0:3|0:0,0:0:0:0:
270,55,44492,2,0,P|300:111|308:181,1,100,8|0,0:0|0:0,0:0:0:0:
199,262,44837,1,0,0:0:0:0:
211,135,45009,1,8,0:3:0:0:
302,237,45181,1,8,0:0:0:0:
135,182,45354,1,0,0:0:0:0:
129,153,45440,1,0,0:0:0:0:
124,126,45526,6,0,L|132:1,1,100,8|0,0:3|0:0,0:0:0:0:
282,88,45871,2,0,L|290:212,1,100,8|0,0:0|0:0,0:0:0:0:
194,309,46215,6,0,L|199:231,1,50,0|0,0:0|0:0,0:0:0:0:
95,197,46388,2,0,L|100:274,1,50,8|0,0:3|0:0,0:0:0:0:
16,328,46560,1,8,0:0:0:0:
18,143,46732,1,0,0:0:0:0:
36,121,46818,1,0,0:0:0:0:
63,107,46904,6,0,P|117:69|157:11,1,100,8|0,0:3|0:0,0:0:0:0:
123,179,47249,2,0,L|131:303,1,100,8|0,0:0|0:0,0:0:0:0:
129,278,47507,1,0,0:0:0:0:
129,278,47594,1,0,0:0:0:0:
241,208,47766,1,8,0:3:0:0:
73,216,47938,1,8,0:0:0:0:
200,302,48111,1,0,0:0:0:0:
229,308,48197,1,0,0:0:0:0:
256,313,48283,6,0,L|380:305,1,100,8|8,0:3|0:3,0:0:0:0:
279,166,48627,2,0,L|154:158,1,100,8|0,0:0|0:0,0:0:0:0:
179,159,48886,1,0,0:0:0:0:
179,159,48972,1,0,0:0:0:0:
81,273,49144,1,8,0:3:0:0:
233,356,49317,1,8,0:0:0:0:
231,332,49402,1,0,0:0:0:0:
229,308,49488,1,0,0:0:0:0:
227,284,49575,1,0,0:0:0:0:
225,260,49661,6,0,L|233:135,1,100,8|0,0:3|0:0,0:0:0:0:
385,87,50006,2,0,P|368:151|329:209,1,100,8|0,0:0|0:0,0:0:0:0:
352,180,50264,1,0,0:0:0:0:
352,180,50351,1,0,0:0:0:0:
189,142,50523,1,8,0:3:0:0:
306,98,50695,1,8,0:0:0:0:
254,269,50867,1,0,0:0:0:0:
225,275,50953,1,0,0:0:0:0:
198,280,51039,6,0,L|74:272,1,100,8|0,0:3|0:0,0:0:0:0:
0,136,51384,2,0,L|124:128,1,100,8|0,0:0|0:0,0:0:0:0:
142,129,51643,1,0,0:0:0:0:
115,141,51729,1,0,0:0:0:0:
95,161,51815,1,0,0:0:0:0:
82,189,51901,1,8,0:3:0:0:
123,345,52074,1,8,0:0:0:0:
177,218,52246,1,0,0:0:0:0:
0,294,52418,5,8,0:3:0:0:
154,267,52590,1,8,0:3:0:0:
20,207,52763,5,8,0:0:0:0:
112,361,52935,1,0,0:0:0:0:
253,256,53107,5,8,0:3:0:0:
69,265,53280,1,8,0:3:0:0:
211,368,53452,5,8,0:0:0:0:
170,185,53624,1,0,0:0:0:0:
90,351,53797,5,8,3:3:0:0:
131,335,53883,1,0,3:0:0:0:
163,305,53969,1,0,3:0:0:0:
182,265,54055,1,0,3:0:0:0:
186,223,54141,5,8,3:2:0:0:
223,194,54228,1,0,3:0:0:0:
270,181,54314,1,0,3:0:0:0:
319,186,54400,1,0,3:0:0:0:
360,207,54486,5,8,3:3:0:0:
308,213,54572,1,0,3:0:0:0:
256,199,54658,1,0,3:0:0:0:
213,168,54744,1,0,3:0:0:0:
185,125,54830,5,8,3:2:0:0:
241,144,54917,1,0,3:0:0:0:
299,120,55003,1,0,3:0:0:0:
321,61,55089,1,0,3:0:0:0:
294,3,55175,5,12,0:3:0:0:
234,63,55347,1,0,0:0:0:0:
338,167,55520,1,8,0:0:0:0:
316,85,55692,1,0,0:0:0:0:
174,123,55864,1,0,0:0:0:0:
256,145,56037,1,8,0:3:0:0:
152,41,56209,1,8,0:0:0:0:
114,184,56381,1,0,0:0:0:0:
283,198,56553,6,0,P|260:151|250:138,1,59.9999981689454,8|0,0:3|0:0,0:0:0:0:
230,278,56898,2,0,P|277:299|293:302,1,59.9999981689454,8|0,0:0|0:0,0:0:0:0:
285,300,57157,1,0,0:0:0:0:
285,300,57243,1,0,0:0:0:0:
381,278,57415,1,8,0:3:0:0:
294,205,57587,1,8,0:0:0:0:
360,365,57760,1,0,0:0:0:0:
467,290,57932,6,0,L|461:208,1,59.9999981689454,8|0,0:3|0:0,0:0:0:0:
350,155,58277,2,0,L|344:236,1,59.9999981689454,8|0,0:0|0:0,0:0:0:0:
346,214,58535,1,0,0:0:0:0:
346,214,58621,1,0,0:0:0:0:
346,214,58707,1,0,0:0:0:0:
346,214,58793,1,8,0:3:0:0:
456,192,58966,1,8,0:0:0:0:
318,113,59138,1,0,0:0:0:0:
476,74,59310,6,0,P|453:121|443:133,1,59.9999981689454,8|8,0:3|0:3,0:0:0:0:
323,104,59655,2,0,P|370:82|386:79,1,59.9999981689454,8|0,0:0|0:0,0:0:0:0:
268,196,60000,2,0,P|217:181|203:173,1,59.9999981689454,0|8,0:0|0:3,0:0:0:0:
182,38,60344,2,0,P|211:81|217:96,1,59.9999981689454,8|0,0:0|0:0,0:0:0:0:
109,210,60689,5,8,0:3:0:0:
137,125,60861,1,0,0:0:0:0:
196,191,61033,1,8,0:0:0:0:
50,144,61206,1,0,0:0:0:0:
224,106,61378,5,0,0:0:0:0:
224,106,61464,1,0,0:0:0:0:
224,106,61550,1,8,0:3:0:0:
269,215,61723,1,8,0:0:0:0:
123,167,61895,1,0,0:0:0:0:
312,126,62067,6,0,P|345:165|359:174,1,59.9999981689454,8|0,0:3|0:0,0:0:0:0:
479,103,62412,2,0,P|427:94|411:96,1,59.9999981689454,8|0,0:0|0:0,0:0:0:0:
419,95,62670,1,0,0:0:0:0:
419,95,62756,1,0,0:0:0:0:
388,206,62929,1,8,0:3:0:0:
512,177,63101,1,8,0:0:0:0:
325,126,63273,1,0,0:0:0:0:
400,291,63446,6,0,L|406:209,1,59.9999981689454,8|0,0:3|0:0,0:0:0:0:
277,291,63791,2,0,L|283:373,1,59.9999981689454,8|0,0:0|0:0,0:0:0:0:
281,350,64049,1,0,0:0:0:0:
281,350,64135,1,0,0:0:0:0:
281,350,64221,1,0,0:0:0:0:
281,350,64307,1,8,0:3:0:0:
395,282,64480,1,8,0:0:0:0:
226,207,64652,1,0,0:0:0:0:
283,351,64824,5,8,0:3:0:0:
343,161,64996,1,8,0:3:0:0:
379,317,65169,2,0,P|349:274|343:259,1,59.9999981689454,8|0,0:0|0:0,0:0:0:0:
346,267,65427,1,0,0:0:0:0:
346,267,65513,1,0,0:0:0:0:
429,148,65686,1,8,0:3:0:0:
429,148,65772,1,0,0:0:0:0:
429,148,65858,1,8,0:0:0:0:
460,251,66030,1,0,0:0:0:0:
323,158,66203,6,0,L|326:110,1,40,6|0,0:3|0:0,0:0:0:0:
230,66,66547,2,0,L|233:112,1,40,2|0,0:0|0:0,0:0:0:0:
199,208,66892,5,0,0:0:0:0:
139,125,67064,1,2,0:3:0:0:
111,229,67236,1,2,0:0:0:0:
216,105,67409,1,0,0:0:0:0:
228,257,67581,6,0,P|217:229|200:207,1,40,2|0,0:3|0:0,0:0:0:0:
98,245,67926,2,0,P|123:259|151:265,1,40,2|0,0:0|0:0,0:0:0:0:
115,126,68270,5,0,0:0:0:0:
41,201,68443,1,2,0:3:0:0:
151,188,68615,1,2,0:0:0:0:
21,107,68787,1,0,0:0:0:0:
40,294,68959,6,0,L|88:291,1,40,2|0,0:3|0:0,0:0:0:0:
173,200,69304,2,0,L|125:197,1,40,2|0,0:0|0:0,0:0:0:0:
221,308,69649,2,0,P|249:297|271:280,1,40,0|2,0:0|0:3,0:0:0:0:
268,152,69993,2,0,P|253:178|246:205,1,40,2|0,0:0|0:0,0:0:0:0:
346,277,70338,2,0,L|343:229,1,40,2|0,0:3|0:0,0:0:0:0:
447,158,70682,2,0,L|444:206,1,40,2|0,0:0|0:0,0:0:0:0:
359,81,71027,2,0,P|377:57|399:40,1,40,0|2,0:0|0:3,0:0:0:0:
364,177,71372,6,0,P|334:183|306:181,1,40,2|0,0:0|0:0,0:0:0:0:
235,40,71716,6,0,L|238:88,1,40,2|0,0:3|0:0,0:0:0:0:
134,95,72061,2,0,L|137:143,1,40,2|0,0:0|0:0,0:0:0:0:
110,217,72406,1,0,0:0:0:0:
214,128,72578,1,2,0:3:0:0:
33,150,72750,2,0,L|36:198,1,40,2|0,0:0|0:0,0:0:0:0:
165,271,73095,6,0,P|151:244|132:223,2,40,2|0|2,0:3|0:0|0:0,0:0:0:0:
156,367,73612,1,0,0:0:0:0:
225,217,73784,6,0,P|248:198|274:188,1,40,0|2,0:0|0:3,0:0:0:0:
347,281,74129,2,0,P|316:279|290:270,1,40,2|0,0:0|0:0,0:0:0:0:
342,117,74473,6,0,L|345:165,1,40,2|0,0:3|0:0,0:0:0:0:
462,226,74818,2,0,L|465:178,1,40,2|0,0:0|0:0,0:0:0:0:
398,53,75162,2,0,L|350:50,1,40,0|2,0:0|0:3,0:0:0:0:
243,145,75507,2,0,L|291:142,1,40,2|0,0:0|0:0,0:0:0:0:
185,45,75852,6,0,L|137:42,1,40,2|0,0:3|0:0,0:0:0:0:
243,145,76196,2,0,L|195:147,1,40,2|0,0:0|0:0,0:0:0:0:
363,83,76541,2,0,L|315:80,1,40,0|2,0:0|0:3,0:0:0:0:
478,158,76885,6,0,L|400:153,1,60,2|0,0:0|0:0,0:0:0:0:
375,155,77230,5,12,0:3:0:0:
424,240,77402,1,0,0:0:0:0:
459,83,77575,1,8,0:0:0:0:
459,83,77661,1,0,0:0:0:0:
459,83,77747,1,0,0:0:0:0:
329,185,77919,5,0,0:0:0:0:
444,159,78092,1,8,0:3:0:0:
318,86,78264,1,8,0:0:0:0:
299,87,78350,1,0,0:0:0:0:
280,88,78436,1,0,0:0:0:0:
261,89,78522,1,0,0:0:0:0:
242,90,78609,5,8,0:3:0:0:
127,200,78781,1,0,0:0:0:0:
240,177,78953,1,8,0:0:0:0:
240,177,79039,1,0,0:0:0:0:
240,177,79125,1,0,0:0:0:0:
93,82,79298,5,0,0:0:0:0:
210,38,79470,1,8,0:3:0:0:
125,162,79642,1,8,0:0:0:0:
126,181,79728,1,0,0:0:0:0:
127,200,79814,1,0,0:0:0:0:
128,219,79900,1,0,0:0:0:0:
129,237,79987,5,8,0:3:0:0:
216,190,80159,1,0,0:0:0:0:
49,138,80332,1,8,0:0:0:0:
49,138,80418,1,0,0:0:0:0:
49,138,80504,1,0,0:0:0:0:
146,97,80676,5,0,0:0:0:0:
31,218,80848,1,8,0:3:0:0:
150,265,81021,1,8,0:0:0:0:
169,264,81107,1,0,0:0:0:0:
188,263,81193,1,0,0:0:0:0:
207,262,81279,1,0,0:0:0:0:
225,261,81366,5,8,0:3:0:0:
311,154,81538,1,8,0:3:0:0:
180,181,81710,1,8,0:0:0:0:
180,181,81796,1,0,0:0:0:0:
180,181,81882,1,0,0:0:0:0:
330,232,82055,5,0,0:0:0:0:
237,127,82227,1,8,0:3:0:0:
225,265,82399,5,8,0:0:0:0:
246,302,82485,1,0,0:0:0:0:
278,329,82572,1,0,0:0:0:0:
317,342,82658,1,0,0:0:0:0:
358,340,82744,5,8,0:3:0:0:
432,192,82916,1,8,0:3:0:0:
330,232,83088,5,8,0:0:0:0:
333,237,83605,5,8,0:3:0:0:
273,45,83778,5,8,0:0:0:0:
312,59,83864,1,0,0:0:0:0:
344,87,83951,1,0,0:0:0:0:
363,123,84037,1,0,0:0:0:0:
367,164,84123,5,8,0:3:0:0:
233,260,84295,1,8,0:3:0:0:
256,153,84467,5,8,0:0:0:0:
253,148,84984,5,8,0:3:0:0:
242,308,85156,5,8,0:0:0:0:
280,291,85242,1,0,0:0:0:0:
306,260,85328,1,0,0:0:0:0:
315,220,85415,1,0,0:0:0:0:
340,188,85501,5,8,0:3:0:0:
477,217,85673,1,8,0:3:0:0:
413,300,85845,5,8,0:0:0:0:
416,169,86018,1,0,0:0:0:0:
507,293,86190,5,8,0:3:0:0:
345,234,86362,1,8,0:3:0:0:
499,142,86535,5,8,0:0:0:0:
305,132,86707,1,0,0:0:0:0:
431,282,86879,5,0,3:3:0:0:
432,249,86965,1,0,3:0:0:0:
422,217,87051,1,0,3:0:0:0:
400,190,87138,1,0,3:0:0:0:
370,173,87224,5,8,3:2:0:0:
340,202,87310,1,0,3:0:0:0:
299,210,87396,1,0,3:0:0:0:
259,194,87482,1,0,3:0:0:0:
234,159,87568,5,8,3:3:0:0:
286,165,87655,1,0,3:0:0:0:
319,204,87741,1,0,3:0:0:0:
314,255,87827,1,0,3:0:0:0:
276,288,87913,5,10,3:2:0:0:
272,275,87999,1,0,3:0:0:0:
269,262,88085,1,0,3:0:0:0:
265,249,88171,1,0,3:0:0:0:
262,236,88258,6,0,P|314:274|389:290,1,129.999994049073,12|0,0:3|0:0,0:0:0:0:
499,156,88602,2,0,P|433:160|366:196,1,129.999994049073,8|0,0:0|0:0,0:0:0:0:
376,188,88861,1,0,0:0:0:0:
376,188,88947,1,0,0:0:0:0:
484,262,89119,1,8,0:3:0:0:
437,80,89291,1,8,0:0:0:0:
283,136,89464,1,0,0:0:0:0:
278,164,89550,1,0,0:0:0:0:
273,192,89636,6,0,L|282:332,1,129.999994049073,8|0,0:3|0:0,0:0:0:0:
127,234,89981,2,0,L|136:93,1,129.999994049073,8|0,0:0|0:0,0:0:0:0:
135,104,90239,1,0,0:0:0:0:
135,104,90325,1,0,0:0:0:0:
235,189,90498,1,8,0:3:0:0:
47,216,90670,1,8,0:0:0:0:
42,188,90756,1,0,0:0:0:0:
37,160,90842,1,0,0:0:0:0:
32,132,90928,1,0,0:0:0:0:
27,104,91014,6,0,P|70:151|141:181,1,129.999994049073,8|0,0:3|0:0,0:0:0:0:
289,73,91359,2,0,P|225:64|151:87,1,129.999994049073,8|0,0:0|0:0,0:0:0:0:
162,81,91618,1,0,0:0:0:0:
162,81,91704,1,0,0:0:0:0:
276,214,91876,1,8,0:3:0:0:
361,121,92048,1,8,0:0:0:0:
366,93,92134,1,0,0:0:0:0:
371,65,92220,1,0,0:0:0:0:
376,37,92306,1,0,0:0:0:0:
381,9,92393,5,8,0:3:0:0:
461,95,92565,1,8,0:3:0:0:
271,161,92738,6,0,L|280:20,1,129.999994049073,8|0,0:0|0:0,0:0:0:0:
353,147,93082,1,0,0:0:0:0:
201,33,93254,1,8,0:3:0:0:
120,173,93427,5,8,0:0:0:0:
150,183,93513,1,0,0:0:0:0:
174,203,93599,1,0,0:0:0:0:
187,231,93685,1,0,0:0:0:0:
190,261,93771,6,0,P|248:234|325:234,1,129.999994049073,8|0,0:3|0:0,0:0:0:0:
410,384,94116,2,0,P|348:367|289:317,1,129.999994049073,8|0,0:0|0:0,0:0:0:0:
296,327,94374,1,0,0:0:0:0:
296,327,94461,1,0,0:0:0:0:
426,259,94633,1,8,0:3:0:0:
216,328,94805,5,8,0:0:0:0:
222,297,94891,1,0,0:0:0:0:
240,271,94977,1,0,0:0:0:0:
267,255,95064,1,0,0:0:0:0:
284,228,95150,6,0,P|307:168|303:91,1,129.999994049073,8|0,0:3|0:0,0:0:0:0:
165,2,95494,2,0,L|174:143,1,129.999994049073,8|0,0:0|0:0,0:0:0:0:
209,229,95753,1,0,0:0:0:0:
209,229,95839,2,0,P|168:227|110:207,1,64.9999970245363,0|0,0:0|0:0,0:0:0:0:
116,47,96011,2,0,P|146:74|177:127,1,64.9999970245363,8|0,0:3|0:0,0:0:0:0:
132,218,96184,6,0,P|179:175|253:152,1,129.999994049073,8|0,0:0|0:0,0:0:0:0:
241,153,96442,1,0,0:0:0:0:
241,153,96528,1,8,0:3:0:0:
324,264,96701,1,0,0:0:0:0:
292,262,96787,1,0,0:0:0:0:
260,260,96873,1,8,0:0:0:0:
340,160,97045,1,0,0:0:0:0:
343,339,97217,5,0,0:0:0:0:
253,165,97390,1,8,0:3:0:0:
426,84,97562,2,0,P|406:144|353:201,1,129.999994049073,8|0,0:0|0:0,0:0:0:0:
158,177,97907,5,8,0:3:0:0:
316,90,98079,1,8,0:3:0:0:
276,208,98251,2,0,L|285:349,1,129.999994049073,8|0,0:0|0:0,0:0:0:0:
180,350,98596,5,8,0:3:0:0:
352,240,98768,1,8,0:3:0:0:
235,109,98940,5,8,3:2:0:0:
238,117,99027,1,0,3:0:0:0:
241,125,99113,1,0,3:0:0:0:
244,133,99199,1,0,3:0:0:0:
247,141,99285,6,0,P|183:131|109:152,1,129.999994049073,12|0,0:3|0:0,0:0:0:0:
78,319,99630,2,0,P|132:286|175:222,1,129.999994049073,8|0,0:0|0:0,0:0:0:0:
171,233,99888,1,0,0:0:0:0:
171,233,99974,1,0,0:0:0:0:
63,227,100147,1,8,0:3:0:0:
254,331,100319,1,8,0:0:0:0:
259,303,100405,1,0,0:0:0:0:
264,275,100492,1,0,0:0:0:0:
269,247,100578,1,0,0:0:0:0:
274,219,100664,6,0,L|265:79,1,129.999994049073,8|0,0:3|0:0,0:0:0:0:
411,4,101008,2,0,L|402:144,1,129.999994049073,8|0,0:0|0:0,0:0:0:0:
402,133,101267,1,0,0:0:0:0:
402,133,101353,1,0,0:0:0:0:
490,57,101525,1,8,0:3:0:0:
326,78,101697,1,8,0:0:0:0:
483,220,101870,1,0,0:0:0:0:
455,215,101956,1,0,0:0:0:0:
427,210,102042,6,0,L|287:219,1,129.999994049073,8|0,0:3|0:0,0:0:0:0:
422,318,102387,1,8,0:0:0:0:
283,132,102559,1,0,0:0:0:0:
255,137,102645,1,0,0:0:0:0:
227,142,102731,1,0,0:0:0:0:
152,260,102904,1,8,0:3:0:0:
280,221,103076,1,8,0:0:0:0:
152,101,103248,1,0,0:0:0:0:
157,256,103420,6,0,P|122:309|56:350,1,129.999994049073,8|8,0:3|0:3,0:0:0:0:
97,165,103765,2,0,P|158:146|234:157,1,129.999994049073,8|0,0:0|0:0,0:0:0:0:
301,223,104023,1,0,0:0:0:0:
301,223,104110,2,0,L|310:83,1,129.999994049073,0|8,0:0|0:3,0:0:0:0:
408,251,104454,5,8,0:2:0:0:
404,278,104540,1,0,0:3:0:0:
390,301,104627,1,0,0:3:0:0:
368,318,104713,1,0,0:3:0:0:
343,326,104799,6,0,P|280:311|205:327,1,129.999994049073,8|0,0:3|0:0,0:0:0:0:
216,322,105057,1,0,0:0:0:0:
216,322,105143,1,8,0:0:0:0:
321,231,105316,1,0,0:0:0:0:
116,280,105488,2,0,P|172:250|220:190,1,129.999994049073,0|8,0:0|0:3,0:0:0:0:
134,57,105833,5,8,0:0:0:0:
130,84,105919,1,0,0:0:0:0:
126,111,106005,1,0,0:0:0:0:
122,138,106091,1,0,0:0:0:0:
118,165,106177,1,8,0:3:0:0:
221,102,106350,1,0,0:0:0:0:
30,142,106522,2,0,L|39:282,1,129.999994049073,8|0,0:0|0:0,0:0:0:0:
217,232,106867,5,0,0:0:0:0:
190,228,106953,1,0,0:0:0:0:
163,223,107039,1,8,0:3:0:0:
281,335,107211,1,8,0:0:0:0:
213,137,107383,1,0,0:0:0:0:
82,289,107556,6,0,P|145:294|218:268,1,129.999994049073,8|0,0:3|0:0,0:0:0:0:
258,92,107900,2,0,P|205:128|167:195,1,129.999994049073,8|0,0:0|0:0,0:0:0:0:
171,183,108159,1,0,0:0:0:0:
171,183,108245,1,0,0:0:0:0:
302,167,108417,1,8,0:3:0:0:
137,78,108590,1,8,0:0:0:0:
241,258,108762,1,0,0:0:0:0:
306,53,108934,5,8,0:3:0:0:
201,171,109106,1,8,0:3:0:0:
197,40,109279,5,8,0:0:0:0:
362,187,109451,1,0,0:0:0:0:
348,47,109623,5,0,3:0:0:0:
302,67,109710,1,0,3:0:0:0:
267,101,109796,1,8,3:3:0:0:
246,145,109882,1,0,3:0:0:0:
241,193,109968,1,8,3:2:0:0:
205,228,110054,1,0,3:0:0:0:
156,230,110140,1,0,3:0:0:0:
116,201,110226,1,0,3:0:0:0:
105,153,110313,1,4,3:2:0:0:
256,192,110399,12,0,113759,0:0:0:0:
