osu file format v14

[General]
AudioFilename: audio.mp3
AudioLeadIn: 0
PreviewTime: 64437
Countdown: 0
SampleSet: Soft
StackLeniency: 0.7
Mode: 0
LetterboxInBreaks: 0
SkinPreference:Default
EpilepsyWarning: 1
WidescreenStoryboard: 0

[Editor]
Bookmarks: 59820,61842
DistanceSpacing: 1.1
BeatDivisor: 4
GridSize: 4
TimelineZoom: 2.899999

[Metadata]
Title:Dango Dango Daikazoku (Drum and Bass Remix)
TitleUnicode:Dango Dango Daikazoku (Drum and Bass Remix)
Artist:DJ Genericname
ArtistUnicode:DJ Genericname
Creator:NekuMagetsu
Version:Easy
Source:CLANNAD
Tags:茶太 Chata クラナド 麻枝准 jun maeda 古河渚 furukawa nagisa 岡崎朋也 okazaki tomoya 岡崎汐 ushio key dnb visual novel vn electronic remix anime japanese jpop j-pop folk ending dora- doraemonelf erasome chaser01 cyril scarlet ninym
BeatmapID:3767532
BeatmapSetID:1501157

[Difficulty]
HPDrainRate:2
CircleSize:3
OverallDifficulty:1.5
ApproachRate:2
SliderMultiplier:0.899999999999999
SliderTickRate:1

[Events]
//Background and Video events
0,0,"BG-01.jpg",0,0
//Break Periods
2,22078,31104
//Storyboard Layer 0 (Background)
Sprite,Background,Centre,"BG-01.jpg",0,0 F,0,0,,0 S,0,0,,0.4444444 F,0,0,5698,0,1 M,0,0,11091,365,240,380,255 S,0,0,11091,0.4744444,0.5044444 F,0,10753,11091,1,0
Sprite,Background,Centre,"BG-02.jpg",0,0 F,0,0,,0 S,0,0,,0.333565 F,0,10753,11091,0,1 M,0,10753,21878,320,255,350,240 S,0,10753,21878,0.393565,0.363565 F,0,21540,21878,1,0
Sprite,Background,Centre,"BG-03.png",0,0 F,0,0,,0 S,0,0,,0.3944125 F,0,21540,21878,0,0.75 M,0,21540,32664,320,240,320,225 S,0,21540,32664,0.3944125,0.4244125 F,0,32326,32664,0.75,0
Sprite,Background,Centre,"BG-04.jpg",320,240 F,0,0,,0 S,0,0,,0.4571429 F,0,64855,65192,0,1 S,0,64855,86597,0.4571429,0.4971429 F,0,86259,86597,1,0
Sprite,Background,Centre,"BG-05.jpg",0,0 F,0,0,,0 S,0,0,,0.5369127 F,0,32326,32664,0,1 M,0,32326,43451,350,225,320,240 S,0,32326,43451,0.6069127,0.5769128 F,0,43113,43451,1,0
Sprite,Background,Centre,"SB\BG-06.jpg",0,0 F,0,0,,0 S,0,0,,0.3 S,0,43113,,0.31 F,0,43113,43451,0,1 M,0,43113,54237,305,240,395,240 F,0,53899,54237,1,0
Sprite,Background,Centre,"SB\BG-07.jpg",0,0 F,0,0,,0 S,0,0,,0.349345 F,0,53899,54237,0,1 M,0,53899,65192,305,225,335,255 S,0,53899,65192,0.379345,0.409345 F,0,64855,65192,1,0
Sprite,Background,Centre,"SB\BG-08.jpg",320,240 F,0,0,,0 S,0,0,,0.625 F,0,86259,86597,0,1 S,0,86259,97383,0.665,0.625 F,0,97045,97383,1,0
Sprite,Background,Centre,"SB\BG-09.jpg",320,240 F,0,0,,0 S,0,0,,0.4 F,0,97045,97383,0,1 S,0,97045,108170,0.5,0.45 R,0,97045,108170,0,-0.1 F,0,97383,107495,1,0.75 F,0,107495,108170,0.75,0
Sprite,Background,Centre,"SB\FINAL BG.jpg",320,240 F,0,0,,0 S,0,0,,0.4444444 F,0,106821,107832,0,0.8 F,0,110915,,1
Sprite,Background,Centre,"SB\white.png",320,240 F,0,0,,0 S,0,0,,0.4 F,0,63675,65024,0,0.8 F,0,65024,65698,0.8,0
Sprite,Background,Centre,"SB\Petal.png",0,0 F,0,70051,,0.8 S,0,70051,,0.2868043 C,0,70051,,255,192,203 P,0,70051,,A M,0,70051,79353,177.5208,-25,-162.6416,548.2227 R,0,70051,79353,2.424066,13.18839
Sprite,Background,Centre,"SB\Petal.png",0,0 F,0,74023,,0.8 S,0,74023,,0.4775449 C,0,74023,,255,192,203 P,0,74023,,A M,0,74023,86186,347.8586,-25,9.624324,487.1856 R,0,74023,86186,0.3181379,9.884006
Sprite,Background,Centre,"SB\Petal.png",0,0 F,0,65304,,0.8 S,0,65304,,0.228044 C,0,65304,,255,192,203 P,0,65304,,A M,0,65304,73725,273.6204,-25,-69.69136,567.0259 R,0,65304,73725,3.109445,14.24297
Sprite,Background,Centre,"SB\Petal.png",0,0 F,0,78814,,0.8 S,0,78814,,0.3461386 C,0,78814,,255,192,203 P,0,78814,,A M,0,78814,89006,297.9105,-25,-47.91952,529.2357 R,0,78814,89006,2.212471,12.60399
Sprite,Background,Centre,"SB\Petal.png",0,0 F,0,85176,,0.8 S,0,85176,,0.1643629 C,0,85176,,255,192,203 P,0,85176,,A M,0,85176,92642,165.3719,-25,-192.7654,587.4039 R,0,85176,92642,1.199998,12.73365
Sprite,Background,Centre,"SB\Petal.png",0,0 F,0,68342,,0.8 S,0,68342,,0.2228913 C,0,68342,,255,192,203 P,0,68342,,A M,0,68342,76686,655.6486,-25,286.1804,568.6748 R,0,68342,76686,2.58562,13.75152
Sprite,Background,Centre,"SB\Petal.png",0,0 F,0,76688,,0.8 S,0,76688,,0.3797183 C,0,76688,,255,192,203 P,0,76688,,A M,0,76688,87383,601.7138,-25,218.7537,518.4901 R,0,76688,87383,0.04277091,10.2233
Sprite,Background,Centre,"SB\Petal.png",0,0 F,0,82081,,0.8 S,0,82081,,0.1250013 C,0,82081,,255,192,203 P,0,82081,,A M,0,82081,88956,701.1205,-25,377.8875,599.9996 R,0,82081,88956,1.616016,13.39698
Sprite,Background,Centre,"SB\Petal.png",0,0 F,0,70572,,0.8 S,0,70572,,0.3764418 C,0,70572,,255,192,203 P,0,70572,,A M,0,70572,81219,795.6575,-25,484.0627,519.5386 R,0,70572,81219,1.214588,11.41571
Sprite,Background,Centre,"SB\Petal.png",0,0 F,0,79257,,0.8 S,0,79257,,0.2891499 C,0,79257,,255,192,203 P,0,79257,,A M,0,79257,88594,574.1672,-25,272.9212,547.472 R,0,79257,88594,0.7681783,11.51777
Sprite,Background,Centre,"SB\Petal.png",0,0 F,0,76039,,0.8 S,0,76039,,0.2386351 C,0,76039,,255,192,203 P,0,76039,,A M,0,76039,84619,218.5991,-25,-87.97922,563.6368 R,0,76039,84619,2.173024,13.24001
Sprite,Background,Centre,"SB\Petal.png",0,0 F,0,68036,,0.8 S,0,68036,,0.1340158 C,0,68036,,255,192,203 P,0,68036,,A M,0,68036,75047,764.8857,-25,446.4151,597.1149 R,0,68036,75047,3.058832,14.78316
Sprite,Background,Centre,"SB\Petal.png",0,0 F,0,78472,,0.8 S,0,78472,,0.1483335 C,0,78472,,255,192,203 P,0,78472,,A M,0,78472,85697,132.7989,-25,-134.2287,592.5333 R,0,78472,85697,0.6748044,12.30917
Sprite,Background,Centre,"SB\Petal.png",0,0 F,0,71415,,0.8 S,0,71415,,0.2225983 C,0,71415,,255,192,203 P,0,71415,,A M,0,71415,79754,484.1133,-25,116.0082,568.7686 R,0,71415,79754,3.134967,14.30271
Sprite,Background,Centre,"SB\Petal.png",0,0 F,0,81862,,0.8 S,0,81862,,0.1403811 C,0,81862,,255,192,203 P,0,81862,,A M,0,81862,88967,254.1581,-25,-56.75023,595.0781 R,0,81862,88967,0.562324,12.24665
Sprite,Background,Centre,"SB\Petal.png",0,0 F,0,85310,,0.8 S,0,85310,,0.4097167 C,0,85310,,255,192,203 P,0,85310,,A M,0,85310,96456,381.5988,-25,109.9134,508.8907 R,0,85310,96456,2.97709,12.96913
Sprite,Background,Centre,"SB\Petal.png",0,0 F,0,75302,,0.8 S,0,75302,,0.1250838 C,0,75302,,255,192,203 P,0,75302,,A M,0,75302,82179,324.6363,-25,22.5285,599.9732 R,0,75302,82179,1.475117,13.25556
Sprite,Background,Centre,"SB\Petal.png",0,0 F,0,73033,,0.8 S,0,73033,,0.1030403 C,0,73033,,255,192,203 P,0,73033,,A M,0,73033,79578,359.1023,-25,-3.981951,607.0271 R,0,73033,79578,1.942985,13.86193
Sprite,Background,Centre,"SB\Petal.png",0,0 F,0,83163,,0.8 S,0,83163,,0.1355388 C,0,83163,,255,192,203 P,0,83163,,A M,0,83163,90196,641.5928,-25,272.1516,596.6276 R,0,83163,90196,0.08275587,11.79751
Sprite,Background,Centre,"SB\Petal.png",0,0 F,0,69561,,0.8 S,0,69561,,0.290523 C,0,69561,,255,192,203 P,0,69561,,A M,0,69561,78919,711.0737,-25,439.4026,547.0327 R,0,69561,78919,0.94393,11.68489
Sprite,Background,Centre,"SB\Petal.png",0,0 F,0,67419,,0.8 S,0,67419,,0.2899935 C,0,67419,,255,192,203 P,0,67419,,A M,0,67419,76769,359.6201,-25,32.28066,547.2021 R,0,67419,76769,1.158297,11.90258
Sprite,Background,Centre,"SB\Petal.png",0,0 F,0,71288,,0.8 S,0,71288,,0.1670378 C,0,71288,,255,192,203 P,0,71288,,A M,0,71288,78794,147.9322,-25,-164.2804,586.5479 R,0,71288,78794,0.8253701,12.34221
Sprite,Background,Centre,"SB\Petal.png",0,0 F,0,80931,,0.8 S,0,80931,,0.154961 C,0,80931,,255,192,203 P,0,80931,,A M,0,80931,88255,222.8816,-25,-160.6021,590.4125 R,0,80931,88255,2.673854,14.26658
Sprite,Background,Centre,"SB\Petal.png",0,0 F,0,71549,,0.8 S,0,71549,,0.3605158 C,0,71549,,255,192,203 P,0,71549,,A M,0,71549,81956,788.9022,-25,443.3946,524.6349 R,0,71549,81956,2.684742,12.98593
Sprite,Background,Centre,"SB\Petal.png",0,0 F,0,85003,,0.8 S,0,85003,,0.3752098 C,0,85003,,255,192,203 P,0,85003,,A M,0,85003,95631,478.7927,-25,220.315,519.9329 R,0,85003,95631,0.5067233,10.71558
Sprite,Background,Centre,"SB\Petal.png",0,0 F,0,65171,,0.8 S,0,65171,,0.1298443 C,0,65171,,255,192,203 P,0,65171,,A M,0,65171,72118,191.9653,-25,-90.01894,598.4498 R,0,65171,72118,0.9196511,12.67019
Sprite,Background,Centre,"SB\Petal.png",0,0 F,0,66477,,0.8 S,0,66477,,0.2895318 C,0,66477,,255,192,203 P,0,66477,,A M,0,66477,75820,748.1836,-25,364.7122,547.3499 R,0,66477,75820,2.592461,13.33965
Sprite,Background,Centre,"SB\Petal.png",0,0 F,0,67301,,0.8 S,0,67301,,0.3776049 C,0,67301,,255,192,203 P,0,67301,,A M,0,67301,77965,692.1477,-25,429.2114,519.1664 R,0,67301,77965,2.865775,13.05958
Sprite,Background,Centre,"SB\Petal.png",0,0 F,0,71555,,0.8 S,0,71555,,0.397951 C,0,71555,,255,192,203 P,0,71555,,A M,0,71555,82525,241.7862,-25,-24.91462,512.6557 R,0,71555,82525,0.5633199,10.62929
Sprite,Background,Centre,"SB\Petal.png",0,0 F,0,79376,,0.8 S,0,79376,,0.1950931 C,0,79376,,255,192,203 P,0,79376,,A M,0,79376,87302,545.4111,-25,216.6854,577.5703 R,0,79376,87302,0.09542824,11.43599
Sprite,Background,Centre,"SB\Petal.png",0,0 F,0,69903,,0.8 S,0,69903,,0.348691 C,0,69903,,255,192,203 P,0,69903,,A M,0,69903,80134,255.1711,-25,-23.95525,528.4189 R,0,69903,80134,1.888675,12.26416
Sprite,Background,Centre,"SB\Petal.png",0,0 F,0,77318,,0.8 S,0,77318,,0.2254754 C,0,77318,,255,192,203 P,0,77318,,A M,0,77318,85700,578.0031,-25,253.5359,567.8478 R,0,77318,85700,1.097486,12.24715
Sprite,Background,Centre,"SB\Petal.png",0,0 F,0,68454,,0.8 S,0,68454,,0.4499442 C,0,68454,,255,192,203 P,0,68454,,A M,0,68454,80203,795.7048,-25,494.1187,496.0179 R,0,68454,80203,0.1876208,9.926908
Sprite,Background,Centre,"SB\Petal.png",0,0 F,0,82528,,0.8 S,0,82528,,0.2248786 C,0,82528,,255,192,203 P,0,82528,,A M,0,82528,90901,591.2009,-25,223.2308,568.0389 R,0,82528,90901,2.686829,13.84025
Sprite,Background,Centre,"SB\Petal.png",0,0 F,0,74873,,0.8 S,0,74873,,0.395634 C,0,74873,,255,192,203 P,0,74873,,A M,0,74873,85807,303.0936,-25,-1.65872,513.3971 R,0,74873,85807,2.514499,12.59503
Sprite,Background,Centre,"SB\Petal.png",0,0 F,0,80633,,0.8 S,0,80633,,0.3034857 C,0,80633,,255,192,203 P,0,80633,,A M,0,80633,90186,657.3785,-25,358.0586,542.8846 R,0,80633,90186,0.2440864,10.9036
Sprite,Background,Centre,"SB\Petal.png",0,0 F,0,73017,,0.8 S,0,73017,,0.117694 C,0,73017,,255,192,203 P,0,73017,,A M,0,73017,79782,725.5524,-25,346.5216,602.338 R,0,73017,79782,2.276288,14.10316
Sprite,Background,Centre,"SB\Petal.png",0,0 F,0,83268,,0.8 S,0,83268,,0.4490582 C,0,83268,,255,192,203 P,0,83268,,A M,0,83268,95004,312.9743,-25,4.452066,496.3014 R,0,83268,95004,2.024855,11.76971
Sprite,Background,Centre,"SB\Petal.png",0,0 F,0,74143,,0.8 S,0,74143,,0.2378687 C,0,74143,,255,192,203 P,0,74143,,A M,0,74143,82711,472.5657,-25,103.9843,563.882 R,0,74143,82711,1.185338,12.25714
Sprite,Background,Centre,"SB\Petal.png",0,0 F,0,71688,,0.8 S,0,71688,,0.3740623 C,0,71688,,255,192,203 P,0,71688,,A M,0,71688,82299,329.3838,-25,40.54153,520.3 R,0,71688,82299,2.586061,12.80213
Sprite,Background,Centre,"SB\Petal.png",0,0 F,0,85811,,0.8 S,0,85811,,0.2529953 C,0,85811,,255,192,203 P,0,85811,,A M,0,85811,94606,326.8736,-25,58.58501,559.0415 R,0,85811,94606,0.4888602,11.46561
Sprite,Background,Centre,"SB\Petal.png",0,0 F,0,85217,,0.8 S,0,85217,,0.428535 C,0,85217,,255,192,203 P,0,85217,,A M,0,85217,96645,437.8116,-25,125.3035,502.8688 R,0,85217,96645,0.6921124,10.56592
Sprite,Background,Centre,"SB\Petal.png",0,0 F,0,81714,,0.8 S,0,81714,,0.1943974 C,0,81714,,255,192,203 P,0,81714,,A M,0,81714,89630,221.9032,-25,-53.13821,577.7928 R,0,81714,89630,0.03425454,11.37919
Sprite,Background,Centre,"SB\Petal.png",0,0 F,0,70749,,0.8 S,0,70749,,0.1601183 C,0,70749,,255,192,203 P,0,70749,,A M,0,70749,78150,764.7404,-25,445.4066,588.7621 R,0,70749,78150,0.3095829,11.8699
Sprite,Background,Centre,"SB\Petal.png",0,0 F,0,75964,,0.8 S,0,75964,,0.367066 C,0,75964,,255,192,203 P,0,75964,,A M,0,75964,86470,680.3491,-25,368.4863,522.5389 R,0,75964,86470,1.397739,11.65777
Sprite,Background,Centre,"SB\Petal.png",0,0 F,0,84964,,0.8 S,0,84964,,0.244712 C,0,84964,,255,192,203 P,0,84964,,A M,0,84964,93634,761.8234,-25,498.6117,561.6921 R,0,84964,93634,2.892928,13.92173
Sprite,Background,Centre,"SB\Petal.png",0,0 F,0,73564,,0.8 S,0,73564,,0.3742181 C,0,73564,,255,192,203 P,0,73564,,A M,0,73564,84177,177.7694,-25,-124.2124,520.2502 R,0,73564,84177,2.579608,12.7947
Sprite,Background,Centre,"SB\Petal.png",0,0 F,0,66025,,0.8 S,0,66025,,0.4554504 C,0,66025,,255,192,203 P,0,66025,,A M,0,66025,77857,457.8106,-25,200.5961,494.2559 R,0,66025,77857,1.97468,11.67937
Sprite,Background,Centre,"SB\Petal.png",0,0 F,0,72857,,0.8 S,0,72857,,0.3609357 C,0,72857,,255,192,203 P,0,72857,,A M,0,72857,83271,438.038,-25,102.5442,524.5006 R,0,72857,83271,0.6379379,10.93648
Sprite,Background,Centre,"SB\Petal.png",0,0 F,0,70386,,0.8 S,0,70386,,0.2335073 C,0,70386,,255,192,203 P,0,70386,,A M,0,70386,78888,307.3703,-25,-25.24295,565.2776 R,0,70386,78888,0.7179927,11.81719
Sprite,Background,Centre,"SB\Petal.png",0,0 F,0,72774,,0.8 S,0,72774,,0.334645 C,0,72774,,255,192,203 P,0,72774,,A M,0,72774,82794,224.1768,-25,-125.7508,532.9136 R,0,72774,82794,1.031618,11.49535
Sprite,Background,Centre,"SB\Petal.png",0,0 F,0,67925,,0.8 S,0,67925,,0.4750297 C,0,67925,,255,192,203 P,0,67925,,A M,0,67925,80051,559.5082,-25,283.5304,487.9905 R,0,67925,80051,2.259372,11.84104
Sprite,Background,Centre,"SB\Petal.png",0,0 F,0,64821,,0.8 S,0,64821,,0.460196 C,0,64821,,255,192,203 P,0,64821,,A M,0,64821,76724,184.5655,-25,-75.26882,492.7373 R,0,64821,76724,0.5151107,10.18998
Sprite,Background,Centre,"SB\Petal.png",0,0 F,0,79317,,0.8 S,0,79317,,0.2659515 C,0,79317,,255,192,203 P,0,79317,,A M,0,79317,88306,442.0215,-25,174.9204,554.8955 R,0,79317,88306,2.047284,12.94263
Sprite,Background,Centre,"SB\Petal.png",0,0 F,0,81294,,0.8 S,0,81294,,0.3086942 C,0,81294,,255,192,203 P,0,81294,,A M,0,81294,90925,142.7023,-25,-128.1504,541.2179 R,0,81294,90925,0.2797741,10.90656
Sprite,Background,Centre,"SB\Petal.png",0,0 F,0,65546,,0.8 S,0,65546,,0.2858412 C,0,65546,,255,192,203 P,0,65546,,A M,0,65546,74834,223.7117,-25,-54.33477,548.5308 R,0,65546,74834,2.58826,13.35864
Sprite,Background,Centre,"SB\Petal.png",0,0 F,0,78573,,0.8 S,0,78573,,0.1532944 C,0,78573,,255,192,203 P,0,78573,,A M,0,78573,85872,528.1857,-25,184.9622,590.9458 R,0,78573,85872,1.012556,12.61575
Sprite,Background,Centre,"SB\Petal.png",0,0 F,0,69737,,0.8 S,0,69737,,0.2428685 C,0,69737,,255,192,203 P,0,69737,,A M,0,69737,78380,467.1406,-25,184.376,562.2821 R,0,69737,78380,0.2742759,11.31466
Sprite,Background,Centre,"SB\Petal.png",0,0 F,0,73436,,0.8 S,0,73436,,0.1677782 C,0,73436,,255,192,203 P,0,73436,,A M,0,73436,80953,501.5087,-25,245.0913,586.311 R,0,73436,80953,1.484352,12.99654
Sprite,Background,Centre,"SB\Petal.png",0,0 F,0,70251,,0.8 S,0,70251,,0.2953497 C,0,70251,,255,192,203 P,0,70251,,A M,0,70251,79682,507.6949,-25,131.0088,545.4881 R,0,70251,79682,0.5438289,11.25446
Sprite,Background,Centre,"SB\Petal.png",0,0 F,0,81418,,0.8 S,0,81418,,0.372839 C,0,81418,,255,192,203 P,0,81418,,A M,0,81418,92011,716.9551,-25,354.8819,520.6915 R,0,81418,92011,0.4455313,10.66929
Sprite,Background,Centre,"SB\Petal.png",0,0 F,0,71458,,0.8 S,0,71458,,0.2990231 C,0,71458,,255,192,203 P,0,71458,,A M,0,71458,80944,558.962,-25,214.1363,544.3126 R,0,71458,80944,0.6670794,11.35463
Sprite,Background,Centre,"SB\Petal.png",0,0 F,0,85686,,0.8 S,0,85686,,0.1454822 C,0,85686,,255,192,203 P,0,85686,,A M,0,85686,92868,234.2861,-25,-87.30008,593.4457 R,0,85686,92868,1.71827,13.37055
Sprite,Background,Centre,"SB\Petal.png",0,0 F,0,73198,,0.8 S,0,73198,,0.3312735 C,0,73198,,255,192,203 P,0,73198,,A M,0,73198,83167,791.3004,-25,433.4332,533.9925 R,0,73198,83167,1.515915,12.00083
Sprite,Background,Centre,"SB\text1.png",0,0 P,0,21540,,A F,0,21540,21878,0,1 M,0,21540,24237,180,360,190,360 F,0,23900,24237,1,0
Sprite,Background,Centre,"SB\text2.png",0,0 P,0,24237,,A F,0,24237,24574,0,1 M,0,24237,26934,470,360,480,360 F,0,26597,26934,1,0
Sprite,Background,Centre,"SB\text3.png",0,0 P,0,26934,,A F,0,26934,27271,0,1 M,0,26934,29630,180,360,190,360 F,0,29293,29630,1,0
Sprite,Background,Centre,"SB\text4.png",0,0 P,0,29630,,A F,0,29630,29967,0,1 M,0,29630,32327,470,360,480,360 F,0,31990,32327,1,0
Sprite,Background,Centre,"SB\text5.png",0,0 M,0,108170,,180,360 C,0,108170,,148,0,211 F,0,108170,108507,0,1 F,0,110915,,1
//Storyboard Layer 1 (Fail)
//Storyboard Layer 2 (Pass)
//Storyboard Layer 3 (Foreground)
//Storyboard Layer 4 (Overlay)
//Storyboard Sound Samples

[TimingPoints]
305,337.078651685393,4,2,16,30,1,0
642,-100,4,2,1,30,0,0
810,-100,4,2,2,30,0,0
1147,-100,4,2,1,30,0,0
1316,-100,4,2,3,30,0,0
1484,-100,4,2,4,30,0,0
1653,-100,4,2,5,30,0,0
1821,-100,4,2,3,30,0,0
1990,-100,4,2,4,30,0,0
2327,-100,4,2,1,30,0,0
2496,-100,4,2,6,30,0,0
2664,-100,4,2,1,30,0,0
2833,-100,4,2,3,30,0,0
3001,-100,4,2,3,30,0,0
3338,-100,4,2,1,30,0,0
3507,-100,4,2,2,30,0,0
3844,-100,4,2,3,30,0,0
4012,-100,4,2,1,30,0,0
4181,-100,4,2,5,30,0,0
4349,-100,4,2,7,30,0,0
4687,-100,4,2,8,30,0,0
5024,-100,4,2,9,30,0,0
5192,-100,4,2,6,30,0,0
5361,-100,4,2,1,30,0,0
5529,-100,4,2,3,30,0,0
5698,-100,4,2,15,30,0,0
6035,-100,4,2,1,30,0,0
6203,-100,4,2,2,30,0,0
6540,-100,4,2,1,30,0,0
6709,-100,4,2,3,30,0,0
6878,-100,4,2,4,30,0,0
7046,-100,4,2,10,30,0,0
7215,-100,4,2,3,30,0,0
7383,-100,4,2,4,30,0,0
7720,-100,4,2,11,30,0,0
8057,-100,4,2,12,30,0,0
8394,-100,4,2,13,30,0,0
8731,-100,4,2,1,30,0,0
8900,-100,4,2,2,30,0,0
9069,-100,4,2,14,30,0,0
9237,-100,4,2,1,30,0,0
9574,-100,4,2,14,30,0,0
9743,-100,4,2,1,30,0,0
10417,-100,4,2,9,30,0,0
10585,-100,4,2,6,30,0,0
10754,-100,4,2,1,30,0,0
10922,-100,4,2,3,30,0,0
11091,-100,4,2,15,50,0,0
11428,-100,4,2,1,40,0,0
11597,-100,4,2,2,40,0,0
11934,-100,4,2,1,40,0,0
12102,-100,4,2,3,40,0,0
12271,-100,4,2,4,40,0,0
12439,-100,4,2,10,40,0,0
12608,-100,4,2,3,40,0,0
12776,-100,4,2,4,40,0,0
13113,-100,4,2,1,40,0,0
13282,-100,4,2,6,40,0,0
13451,-100,4,2,1,40,0,0
13619,-100,4,2,3,40,0,0
13788,-100,4,2,15,40,0,0
14125,-100,4,2,1,40,0,0
14293,-100,4,2,2,40,0,0
14630,-100,4,2,3,40,0,0
14799,-100,4,2,1,40,0,0
14967,-100,4,2,5,40,0,0
15136,-100,4,2,7,40,0,0
15473,-100,4,2,11,40,0,0
15642,-100,4,2,9,40,0,0
15810,-100,4,2,9,40,0,0
15979,-100,4,2,6,40,0,0
16147,-100,4,2,1,40,0,0
16316,-100,4,2,3,40,0,0
16484,-100,4,2,16,40,0,0
16821,-100,4,2,11,40,0,0
16990,-100,4,2,13,40,0,0
17074,-100,4,2,1,40,0,0
17158,-100,4,2,8,40,0,0
17243,-100,4,2,1,40,0,0
17327,-100,4,2,17,40,0,0
17496,-100,4,2,15,40,0,0
17664,-100,4,2,18,40,0,0
17748,-100,4,2,1,40,0,0
17833,-100,4,2,10,40,0,0
18001,-100,4,2,15,40,0,0
18170,-100,4,2,7,40,0,0
18338,-100,4,2,8,40,0,0
18422,-100,4,2,1,40,0,0
18507,-100,4,2,17,40,0,0
18591,-100,4,2,1,40,0,0
18675,-100,4,2,8,40,0,0
18844,-100,4,2,12,40,0,0
19012,-100,4,2,8,40,0,0
19097,-100,4,2,1,40,0,0
19181,-100,4,2,19,40,0,0
19518,-100,4,2,7,40,0,0
19687,-100,4,2,8,40,0,0
19771,-100,4,2,1,40,0,0
19855,-100,4,2,20,40,0,0
19939,-100,4,2,1,40,0,0
20024,-100,4,2,8,40,0,0
20192,-100,4,2,11,40,0,0
20361,-100,4,2,20,40,0,0
20445,-100,4,2,1,40,0,0
20529,-100,4,2,11,40,0,0
21035,-100,4,2,8,40,0,0
21119,-100,4,2,1,40,0,0
21203,-100,4,2,8,40,0,0
21288,-100,4,2,1,40,0,0
21372,-100,4,2,8,40,0,0
21878,-100,4,2,21,65,0,0
22046,-100,4,2,22,55,0,0
22215,-100,4,2,23,55,0,0
22383,-100,4,2,22,55,0,0
22552,-100,4,2,24,55,0,0
22720,-100,4,2,22,55,0,0
22889,-100,4,2,25,55,0,0
23057,-100,4,2,26,55,0,0
23226,-100,4,2,27,55,0,0
24574,-100,4,2,28,55,0,0
24743,-100,4,2,22,55,0,0
24911,-100,4,2,6,55,0,0
25080,-100,4,2,22,55,0,0
25248,-100,4,2,24,55,0,0
25417,-100,4,2,22,55,0,0
25585,-100,4,2,25,55,0,0
25754,-100,4,2,26,55,0,0
25922,-100,4,2,28,55,0,0
26597,-100,4,2,26,55,0,0
27271,-100,4,2,28,55,0,0
27439,-100,4,2,22,55,0,0
27608,-100,4,2,23,55,0,0
27776,-100,4,2,22,55,0,0
27945,-100,4,2,24,55,0,0
28113,-100,4,2,22,55,0,0
28282,-100,4,2,25,55,0,0
28451,-100,4,2,26,55,0,0
28619,-100,4,2,28,55,0,0
29293,-100,4,2,27,55,0,0
29630,-100,4,2,28,55,0,0
29967,-100,4,2,26,55,0,0
30304,-100,4,2,29,55,0,0
30642,-100,4,2,28,55,0,0
30979,-100,4,2,29,55,0,0
31316,-100,4,2,27,55,0,0
31653,-100,4,2,30,55,0,0
31990,-100,4,2,31,55,0,0
32327,-100,4,2,32,45,0,0
32664,-100,4,2,33,45,0,0
32833,-100,4,2,29,45,0,0
33675,-100,4,2,33,45,0,0
34012,-100,4,2,29,45,0,0
35361,-100,4,2,33,45,0,0
35529,-100,4,2,29,45,0,0
36372,-100,4,2,33,45,0,0
36709,-100,4,2,29,45,0,0
38057,-100,4,2,33,45,0,0
38226,-100,4,2,29,45,0,0
39069,-100,4,2,33,45,0,0
39406,-100,4,2,29,45,0,0
40754,-100,4,2,28,45,0,0
40922,-100,4,2,29,45,0,0
41428,-100,4,2,33,45,0,0
41597,-100,4,2,29,45,0,0
41765,-100,4,2,33,45,0,0
41934,-100,4,2,29,45,0,0
42102,-100,4,2,30,55,0,0
42776,-100,4,2,30,60,0,0
43113,-100,4,2,28,65,0,0
43282,-100,4,2,25,70,0,0
43451,-100,4,2,28,70,0,0
43619,-100,4,2,27,70,0,0
43788,-100,4,2,31,70,0,0
43956,-100,4,2,34,70,0,0
44040,-100,4,2,1,70,0,0
44125,-100,4,2,35,70,0,0
44209,-100,4,2,1,70,0,0
44293,-100,4,2,34,70,0,0
44462,-100,4,2,25,70,0,0
44630,-100,4,2,26,70,0,0
44799,-100,4,2,22,70,0,0
45304,-100,4,2,34,70,0,0
45389,-100,4,2,1,70,0,0
45473,-100,4,2,36,70,0,0
45557,-100,4,2,1,70,0,0
45642,-100,4,2,34,70,0,0
45726,-100,4,2,1,70,0,0
45810,-100,4,2,37,70,0,0
45979,-100,4,2,32,70,0,0
46147,-100,4,2,38,70,0,0
46316,-100,4,2,27,70,0,0
46484,-100,4,2,31,70,0,0
46653,-100,4,2,34,70,0,0
46737,-100,4,2,1,70,0,0
46821,-100,4,2,35,70,0,0
46906,-100,4,2,1,70,0,0
46990,-100,4,2,34,70,0,0
47074,-100,4,2,1,70,0,0
47158,-100,4,2,39,70,0,0
47327,-100,4,2,26,70,0,0
47496,-100,4,2,24,70,0,0
47664,-100,4,2,29,70,0,0
48001,-100,4,2,40,70,0,0
48085,-100,4,2,1,70,0,0
48170,-100,4,2,41,70,0,0
48254,-100,4,2,1,70,0,0
48338,-100,4,2,40,70,0,0
48422,-100,4,2,1,70,0,0
48507,-100,4,2,42,70,0,0
48675,-100,4,2,33,70,0,0
48844,-100,4,2,38,70,0,0
49012,-100,4,2,27,70,0,0
49181,-100,4,2,31,70,0,0
49349,-100,4,2,34,70,0,0
49434,-100,4,2,1,70,0,0
49518,-100,4,2,35,70,0,0
49602,-100,4,2,1,70,0,0
49687,-100,4,2,34,70,0,0
49771,-100,4,2,1,70,0,0
49855,-100,4,2,39,70,0,0
50024,-100,4,2,26,70,0,0
50192,-100,4,2,33,70,0,0
50698,-100,4,2,42,70,0,0
50782,-100,4,2,1,70,0,0
50866,-100,4,2,37,70,0,0
50951,-100,4,2,1,70,0,0
51035,-100,4,2,36,70,0,0
51119,-100,4,2,1,70,0,0
51203,-100,4,2,37,70,0,0
51372,-100,4,2,28,70,0,0
51540,-100,4,2,26,70,0,0
51878,-100,4,2,29,70,0,0
52215,-100,4,2,28,70,0,0
52552,-100,4,2,29,70,0,0
52889,-100,4,2,11,70,0,0
53057,-100,4,2,30,70,0,0
53563,-100,4,2,31,70,0,0
53900,-100,4,2,32,70,0,0
54237,-100,4,2,29,50,0,0
54743,-100,4,2,40,50,0,0
54827,-100,4,2,1,50,0,0
54911,-100,4,2,40,50,0,0
54996,-100,4,2,1,50,0,0
55080,-100,4,2,40,50,0,0
55164,-100,4,2,1,50,0,0
55248,-100,4,2,42,50,0,0
55417,-100,4,2,33,50,0,0
55585,-100,4,2,29,50,0,0
56091,-100,4,2,34,50,0,0
56175,-100,4,2,1,50,0,0
56260,-100,4,2,40,50,0,0
56344,-100,4,2,1,50,0,0
56428,-100,4,2,40,50,0,0
56512,-100,4,2,1,50,0,0
56597,-100,4,2,40,50,0,0
56765,-100,4,2,29,50,0,0
56934,-100,4,2,43,50,0,0
57271,-100,4,2,29,50,0,0
57439,-100,4,2,40,50,0,0
57524,-100,4,2,1,50,0,0
57608,-100,4,2,40,50,0,0
57692,-100,4,2,1,50,0,0
57776,-100,4,2,40,50,0,0
57861,-100,4,2,1,50,0,0
57945,-100,4,2,42,50,0,0
58113,-100,4,2,33,50,0,0
58282,-100,4,2,33,50,0,0
58788,-100,4,2,34,50,0,0
58872,-100,4,2,1,50,0,0
58956,-100,4,2,42,50,0,0
59040,-100,4,2,1,50,0,0
59125,-100,4,2,40,50,0,0
59209,-100,4,2,1,50,0,0
59293,-100,4,2,40,50,0,0
59462,-100,4,2,33,50,0,0
59630,-100,4,2,33,50,0,0
59799,-100,4,2,29,50,0,0
60136,-100,4,2,40,50,0,0
60220,-100,4,2,1,50,0,0
60304,-100,4,2,40,50,0,0
60389,-100,4,2,1,50,0,0
60473,-100,4,2,40,50,0,0
60557,-100,4,2,1,50,0,0
60642,-100,4,2,42,50,0,0
60810,-100,4,2,33,50,0,0
60979,-100,4,2,29,50,0,0
61484,-100,4,2,40,50,0,0
61569,-100,4,2,1,50,0,0
61653,-100,4,2,40,50,0,0
61737,-100,4,2,1,50,0,0
61821,-100,4,2,40,50,0,0
61906,-100,4,2,1,50,0,0
61990,-100,4,2,40,50,0,0
62158,-100,4,2,29,50,0,0
62327,-100,4,2,32,65,0,0
62496,-100,4,2,29,55,0,0
63001,-100,4,2,33,60,0,0
63170,-100,4,2,29,60,0,0
63338,-100,4,2,33,60,0,0
63507,-100,4,2,29,60,0,0
63675,-100,4,2,30,65,0,0
64349,-100,4,2,44,65,0,0
64518,-100,4,2,45,65,0,0
64687,-100,4,2,46,65,0,0
64855,-100,4,2,47,65,0,0
65024,-100,4,2,48,80,0,1
65192,-100,4,2,7,70,0,1
65361,-100,4,2,49,70,0,1
65529,-100,4,2,50,70,0,1
65613,-100,4,2,1,70,0,1
65698,-100,4,2,8,70,0,1
65782,-100,4,2,1,70,0,1
65866,-100,4,2,51,70,0,1
66035,-100,4,2,52,70,0,1
66203,-100,4,2,53,70,0,1
66288,-100,4,2,1,70,0,1
66372,-100,4,2,54,70,0,1
66540,-100,4,2,52,70,0,1
66709,-100,4,2,55,70,0,1
66878,-100,4,2,8,70,0,1
66962,-100,4,2,1,70,0,1
67046,-100,4,2,51,70,0,1
67130,-100,4,2,1,70,0,1
67215,-100,4,2,56,70,0,1
67383,-100,4,2,49,70,0,1
67552,-100,4,2,57,70,0,1
67636,-100,4,2,1,70,0,1
67720,-100,4,2,52,70,0,1
68057,-100,4,2,49,70,0,1
68226,-100,4,2,50,70,0,1
68310,-100,4,2,1,70,0,1
68394,-100,4,2,8,70,0,1
68479,-100,4,2,1,70,0,1
68563,-100,4,2,57,70,0,1
68731,-100,4,2,49,70,0,1
68900,-100,4,2,58,70,0,1
68984,-100,4,2,1,70,0,1
69069,-100,4,2,55,70,0,1
69574,-100,4,2,8,70,0,1
69658,-100,4,2,1,70,0,1
69743,-100,4,2,59,70,0,1
69827,-100,4,2,1,70,0,1
69911,-100,4,2,56,70,0,1
70080,-100,4,2,49,70,0,1
70248,-100,4,2,57,70,0,1
70333,-100,4,2,1,70,0,1
70417,-100,4,2,52,70,0,1
70754,-100,4,2,49,70,0,1
70922,-100,4,2,50,70,0,1
71007,-100,4,2,1,70,0,1
71091,-100,4,2,8,70,0,1
71175,-100,4,2,1,70,0,1
71260,-100,4,2,51,70,0,1
71428,-100,4,2,52,70,0,1
71597,-100,4,2,53,70,0,1
71681,-100,4,2,1,70,0,1
71765,-100,4,2,54,70,0,1
71934,-100,4,2,52,70,0,1
72102,-100,4,2,55,70,0,1
72271,-100,4,2,8,70,0,1
72355,-100,4,2,1,70,0,1
72439,-100,4,2,51,70,0,1
72524,-100,4,2,1,70,0,1
72608,-100,4,2,8,70,0,1
72776,-100,4,2,60,70,0,1
72945,-100,4,2,8,70,0,1
73029,-100,4,2,1,70,0,1
73113,-100,4,2,61,70,0,1
73451,-100,4,2,52,70,0,1
73619,-100,4,2,50,70,0,1
73703,-100,4,2,1,70,0,1
73788,-100,4,2,62,70,0,1
73872,-100,4,2,1,70,0,1
73956,-100,4,2,8,70,0,1
74125,-100,4,2,49,70,0,1
74293,-100,4,2,62,70,0,1
74378,-100,4,2,1,70,0,1
74462,-100,4,2,7,70,0,1
74630,-100,4,2,49,70,0,1
74967,-100,4,2,8,70,0,1
75052,-100,4,2,2,70,0,1
75136,-100,4,2,59,70,0,1
75220,-100,4,2,1,70,0,1
75304,-100,4,2,56,70,0,1
75473,-100,4,2,49,70,0,1
75642,-100,4,2,57,70,0,1
75726,-100,4,2,1,70,0,1
75810,-100,4,2,47,70,0,1
75979,-100,4,2,7,70,0,1
76147,-100,4,2,49,70,0,1
76316,-100,4,2,50,70,0,1
76400,-100,4,2,1,70,0,1
76484,-100,4,2,8,70,0,1
76569,-100,4,2,1,70,0,1
76653,-100,4,2,51,70,0,1
76821,-100,4,2,52,70,0,1
76990,-100,4,2,53,70,0,1
77074,-100,4,2,1,70,0,1
77158,-100,4,2,54,70,0,1
77327,-100,4,2,52,70,0,1
77496,-100,4,2,55,70,0,1
77664,-100,4,2,8,70,0,1
77748,-100,4,2,1,70,0,1
77833,-100,4,2,51,70,0,1
77917,-100,4,2,1,70,0,1
78001,-100,4,2,56,70,0,1
78170,-100,4,2,49,70,0,1
78338,-100,4,2,57,70,0,1
78422,-100,4,2,1,70,0,1
78507,-100,4,2,52,70,0,1
78844,-100,4,2,49,70,0,1
79012,-100,4,2,50,70,0,1
79097,-100,4,2,1,70,0,1
79181,-100,4,2,8,70,0,1
79265,-100,4,2,1,70,0,1
79349,-100,4,2,57,70,0,1
79518,-100,4,2,49,70,0,1
79687,-100,4,2,58,70,0,1
79771,-100,4,2,1,70,0,1
79855,-100,4,2,55,70,0,1
80361,-100,4,2,8,70,0,1
80445,-100,4,2,1,70,0,1
80529,-100,4,2,59,70,0,1
80613,-100,4,2,1,70,0,1
80698,-100,4,2,56,70,0,1
80866,-100,4,2,49,70,0,1
81035,-100,4,2,57,70,0,1
81119,-100,4,2,1,70,0,1
81203,-100,4,2,52,70,0,1
81540,-100,4,2,49,70,0,1
81709,-100,4,2,50,70,0,1
81793,-100,4,2,1,70,0,1
81878,-100,4,2,8,70,0,1
81962,-100,4,2,1,70,0,1
82046,-100,4,2,51,70,0,1
82215,-100,4,2,52,70,0,1
82383,-100,4,2,53,70,0,1
82467,-100,4,2,1,70,0,1
82552,-100,4,2,54,70,0,1
82720,-100,4,2,52,70,0,1
82889,-100,4,2,55,70,0,1
83057,-100,4,2,8,70,0,1
83142,-100,4,2,1,70,0,1
83226,-100,4,2,51,70,0,1
83310,-100,4,2,1,70,0,1
83394,-100,4,2,8,70,0,1
83563,-100,4,2,60,70,0,1
83731,-100,4,2,8,70,0,1
83816,-100,4,2,1,70,0,1
83900,-100,4,2,61,70,0,1
84237,-100,4,2,52,70,0,1
84406,-100,4,2,63,70,0,1
84490,-100,4,2,1,70,0,1
84574,-100,4,2,62,70,0,1
84658,-100,4,2,1,70,0,1
84743,-100,4,2,8,70,0,1
84911,-100,4,2,49,70,0,1
85080,-100,4,2,62,70,0,1
85164,-100,4,2,1,70,0,1
85248,-100,4,2,7,70,0,1
85417,-100,4,2,49,70,0,1
85754,-100,4,2,8,70,0,1
85838,-100,4,2,2,70,0,1
85922,-100,4,2,59,70,0,1
86007,-100,4,2,1,70,0,1
86091,-100,4,2,56,70,0,1
86260,-100,4,2,49,70,0,1
86428,-100,4,2,57,70,0,1
86512,-100,4,2,1,70,0,1
86597,-100,4,2,48,80,0,0
86765,-100,4,2,7,50,0,0
86934,-100,4,2,49,50,0,0
87102,-100,4,2,50,50,0,0
87187,-100,4,2,1,50,0,0
87271,-100,4,2,8,50,0,0
87355,-100,4,2,1,50,0,0
87439,-100,4,2,51,50,0,0
87608,-100,4,2,52,50,0,0
87776,-100,4,2,53,50,0,0
87861,-100,4,2,1,50,0,0
87945,-100,4,2,54,50,0,0
88113,-100,4,2,52,50,0,0
88282,-100,4,2,55,50,0,0
88451,-100,4,2,8,50,0,0
88535,-100,4,2,1,50,0,0
88619,-100,4,2,51,50,0,0
88703,-100,4,2,1,50,0,0
88788,-100,4,2,56,50,0,0
88956,-100,4,2,49,50,0,0
89125,-100,4,2,57,50,0,0
89209,-100,4,2,1,50,0,0
89293,-100,4,2,52,50,0,0
89630,-100,4,2,49,50,0,0
89799,-100,4,2,50,50,0,0
89883,-100,4,2,1,50,0,0
89967,-100,4,2,8,50,0,0
90052,-100,4,2,1,50,0,0
90136,-100,4,2,57,50,0,0
90304,-100,4,2,49,50,0,0
90473,-100,4,2,58,50,0,0
90557,-100,4,2,1,50,0,0
90642,-100,4,2,55,50,0,0
91147,-100,4,2,8,50,0,0
91231,-100,4,2,1,50,0,0
91316,-100,4,2,59,50,0,0
91400,-100,4,2,1,50,0,0
91484,-100,4,2,56,50,0,0
91653,-100,4,2,49,50,0,0
91821,-100,4,2,57,50,0,0
91906,-100,4,2,1,50,0,0
91990,-100,4,2,52,50,0,0
92327,-100,4,2,49,50,0,0
92496,-100,4,2,50,50,0,0
92580,-100,4,2,1,50,0,0
92664,-100,4,2,8,50,0,0
92748,-100,4,2,1,50,0,0
92833,-100,4,2,51,50,0,0
93001,-100,4,2,52,50,0,0
93170,-100,4,2,53,50,0,0
93254,-100,4,2,1,50,0,0
93338,-100,4,2,54,50,0,0
93507,-100,4,2,52,50,0,0
93675,-100,4,2,55,50,0,0
93844,-100,4,2,8,50,0,0
93928,-100,4,2,1,50,0,0
94012,-100,4,2,51,50,0,0
94097,-100,4,2,1,50,0,0
94181,-100,4,2,8,50,0,0
94349,-100,4,2,60,50,0,0
94518,-100,4,2,8,50,0,0
94602,-100,4,2,1,50,0,0
94687,-100,4,2,61,50,0,0
95024,-100,4,2,52,50,0,0
95192,-100,4,2,50,50,0,0
95276,-100,4,2,1,50,0,0
95361,-100,4,2,62,50,0,0
95445,-100,4,2,1,50,0,0
95529,-100,4,2,8,50,0,0
95698,-100,4,2,49,50,0,0
95866,-100,4,2,62,50,0,0
95951,-100,4,2,1,50,0,0
96035,-100,4,2,7,50,0,0
96203,-100,4,2,49,50,0,0
96540,-100,4,2,8,50,0,0
96625,-100,4,2,2,50,0,0
96709,-100,4,2,64,50,0,0
96793,-100,4,2,1,50,0,0
96878,-100,4,2,65,50,0,0
97046,-100,4,2,66,50,0,0
97215,-100,4,2,67,50,0,0
97299,-100,4,2,3,50,0,0
97383,-100,4,2,3,65,0,0
97720,-100,4,2,22,35,0,0
97889,-100,4,2,2,35,0,0
98057,-100,4,2,1,35,0,0
98394,-100,4,2,24,35,0,0
98563,-100,4,2,4,35,0,0
98731,-100,4,2,5,35,0,0
98900,-100,4,2,3,35,0,0
99069,-100,4,2,41,35,0,0
99237,-100,4,2,1,35,0,0
99574,-100,4,2,6,35,0,0
99743,-100,4,2,22,35,0,0
99911,-100,4,2,3,35,0,0
100080,-100,4,2,24,35,0,0
100417,-100,4,2,22,35,0,0
100585,-100,4,2,2,35,0,0
100922,-100,4,2,3,35,0,0
101091,-100,4,2,22,35,0,0
101260,-100,4,2,5,35,0,0
101428,-100,4,2,4,35,0,0
102102,-100,4,2,9,35,0,0
102271,-100,4,2,6,35,0,0
102439,-100,4,2,1,35,0,0
102608,-100,4,2,3,35,0,0
102776,-100,4,2,24,35,0,0
103113,-100,4,2,1,35,0,0
103282,-100,4,2,2,35,0,0
103619,-100,4,2,1,35,0,0
103788,-100,4,2,3,35,0,0
103956,-100,4,2,4,35,0,0
104125,-100,4,2,5,35,0,0
104293,-100,4,2,3,35,0,0
104462,-100,4,2,4,35,0,0
104799,-100,4,2,1,35,0,0
105136,-100,4,2,14,35,0,0
105473,-100,4,2,68,35,0,0
105810,-100,4,2,1,35,0,0
105979,-100,4,2,2,35,0,0
106147,-100,4,2,14,35,0,0
106316,-100,4,2,1,35,0,0
106653,-100,4,2,14,35,0,0
106821,-100,4,2,1,35,0,0
106990,-100,4,2,46,35,0,0
107158,-100,4,2,1,35,0,0
107496,-100,4,2,69,50,0,0
107664,-100,4,2,70,50,0,0
107833,-100,4,2,46,50,0,0

[Colours]
Combo1 : 255,47,255
Combo2 : 0,0,174
Combo3 : 151,75,0
Combo4 : 0,217,0

[HitObjects]
74,299,305,6,0,L|219:283,1,135,6|2,3:2|2:0,0:0:0:0:
340,332,1316,5,2,1:2:0:0:
400,253,1653,2,0,L|413:163,1,89.9999999999999,2|2,3:2|1:2,0:0:0:0:
314,174,2327,2,0,L|302:70,1,89.9999999999999,10|2,2:0|1:2,0:0:0:0:
231,16,3001,2,0,P|167:40|144:98,1,135,2|10,3:2|2:0,0:0:0:0:
184,241,4012,2,0,L|86:261,1,89.9999999999999,2|2,1:2|3:2,0:0:0:0:
332,290,5024,6,0,L|432:302,2,89.9999999999999,2|2|2,2:0|1:2|3:2,0:0:0:0:
208,356,6203,2,0,P|148:368|80:320,1,135,10|2,2:0|1:2,0:0:0:0:
48,252,7046,2,0,L|40:152,1,89.9999999999999,2|2,3:2|1:2,0:0:0:0:
128,148,7720,2,0,L|136:248,1,89.9999999999999,2|2,2:0|1:2,0:0:0:0:
217,291,8394,5,2,3:2:0:0:
361,183,9069,6,0,P|385:114|349:46,1,135,10|10,2:0|2:0,0:0:0:0:
293,116,9911,1,2,2:0:0:0:
173,52,10417,6,0,L|164:155,1,89.9999999999999,2|2,2:0|2:0,0:0:0:0:
96,200,11091,2,0,P|155:231|220:212,1,135,6|10,3:2|2:0,0:0:0:0:
298,105,12102,5,2,1:2:0:0:
374,167,12439,2,0,L|478:177,1,89.9999999999999,2|2,3:2|1:2,0:0:0:0:
488,271,13113,2,0,L|380:263,1,89.9999999999999,10|2,2:0|1:2,0:0:0:0:
300,282,13788,2,0,P|269:220|282:146,1,135,2|10,3:2|2:0,0:0:0:0:
407,83,14799,5,2,1:2:0:0:
330,20,15136,1,2,3:2:0:0:
143,79,15810,6,0,L|134:175,1,89.9999999999999,10|2,2:0|1:2,0:0:0:0:
68,242,16484,2,0,P|132:270|196:246,1,135,14|10,3:2|2:0,0:0:0:0:
313,334,17496,5,10,1:2:0:0:
393,277,17833,2,0,L|411:175,1,89.9999999999999,10|10,3:2|1:2,0:0:0:0:
309,192,18507,2,0,L|293:103,1,89.9999999999999,2|2,3:2|1:2,0:0:0:0:
374,46,19181,1,10,3:2:0:0:
256,192,19855,12,14,21878,2:0:0:0:
292,100,32664,6,0,L|388:108,1,89.9999999999999,10|10,2:0|2:0,0:0:0:0:
408,192,33338,2,0,L|312:184,1,89.9999999999999,10|10,2:0|2:0,0:0:0:0:
244,236,34012,1,10,2:0:0:0:
100,331,35361,6,0,P|84:287|104:239,1,89.9999999999999,10|10,2:0|2:0,0:0:0:0:
186,255,36035,2,0,P|198:212|182:171,1,89.9999999999999,10|10,2:0|2:0,0:0:0:0:
126,100,36709,1,10,2:0:0:0:
14,241,37383,1,10,2:0:0:0:
153,355,38057,6,0,L|262:341,1,89.9999999999999,10|10,2:0|2:0,0:0:0:0:
296,271,38731,2,0,L|186:255,1,89.9999999999999,10|10,2:0|2:0,0:0:0:0:
148,188,39406,1,10,2:0:0:0:
400,304,40754,6,0,P|436:228|388:140,1,180,10|10,2:0|2:0,0:0:0:0:
343,223,41765,1,10,2:0:0:0:
263,181,42102,2,0,L|67:189,1,180,10|10,2:0|2:0,0:0:0:0:
30,261,43113,1,10,2:0:0:0:
90,329,43451,6,0,P|154:369|250:325,1,180,14|10,3:2|2:0,0:0:0:0:
303,253,44462,1,10,1:2:0:0:
381,311,44799,2,0,L|473:319,1,89.9999999999999,10|8,3:2|1:2,0:0:0:0:
479,220,45473,2,0,L|387:212,1,89.9999999999999,10|10,2:0|1:2,0:0:0:0:
293,241,46147,6,0,P|225:237|162:141,1,180,14|10,3:2|2:0,0:0:0:0:
261,151,47158,1,10,1:2:0:0:
327,77,47496,2,0,L|431:81,1,89.9999999999999,10|10,3:2|1:2,0:0:0:0:
426,179,48170,2,0,B|369:201|369:246|369:246|312:252|298:311,1,180,10|14,2:0|3:2,0:0:0:0:
394,333,49181,5,10,1:2:0:0:
394,333,49518,2,0,L|498:345,2,89.9999999999999,10|10|10,2:0|1:2|3:2,0:0:0:0:
296,350,50529,1,10,1:2:0:0:
220,288,50866,2,0,L|116:300,1,89.9999999999999,10|10,2:0|1:2,0:0:0:0:
68,376,51540,2,0,P|24:312|68:216,2,180,14|10|6,3:2|2:0|3:2,0:0:0:0:
224,252,53563,2,0,L|232:144,1,89.9999999999999,10|10,3:2|1:2,0:0:0:0:
280,76,54237,6,0,L|380:88,1,89.9999999999999,14|10,3:2|1:2,0:0:0:0:
396,180,54911,2,0,L|492:192,1,89.9999999999999,10|10,2:0|1:2,0:0:0:0:
484,292,55585,2,0,B|439:319|396:292|396:292|351:320|300:289,1,180,10|10,3:2|2:0,0:0:0:0:
128,320,56934,6,0,L|112:224,1,89.9999999999999,14|10,3:2|1:2,0:0:0:0:
200,204,57608,2,0,L|208:100,1,89.9999999999999,10|10,2:0|1:2,0:0:0:0:
133,61,58282,2,0,P|213:21|289:69,1,180,10|10,3:2|2:0,0:0:0:0:
340,136,59293,1,10,1:2:0:0:
424,108,59630,6,0,L|432:204,1,89.9999999999999,14|10,3:2|1:2,0:0:0:0:
348,232,60304,2,0,L|344:336,1,89.9999999999999,10|10,2:0|1:2,0:0:0:0:
256,324,60979,2,0,B|164:312|172:376|72:352,1,180,10|10,3:2|2:0,0:0:0:0:
256,192,62327,12,14,63675,3:2:0:0:
150,183,65024,6,0,P|90:175|34:243,2,135,6|10|10,3:2|2:0|1:2,0:0:0:0:
121,277,66372,2,0,P|173:293|217:269,1,89.9999999999999,10|10,3:2|1:2,0:0:0:0:
280,217,67046,2,0,L|300:325,1,89.9999999999999,10|10,2:0|1:2,0:0:0:0:
379,359,67720,2,0,P|435:367|495:303,2,135,10|10|10,3:2|2:0|1:2,0:0:0:0:
403,262,69069,1,10,3:2:0:0:
439,127,69743,5,10,2:0:0:0:
370,68,70080,1,10,1:2:0:0:
306,131,70417,2,0,P|246:147|182:111,1,135,14|10,3:2|2:0,0:0:0:0:
66,179,71428,5,10,1:2:0:0:
119,251,71765,2,0,L|211:263,1,89.9999999999999,10|10,3:2|1:2,0:0:0:0:
244,345,72439,2,0,L|348:329,1,89.9999999999999,10|10,2:0|1:2,0:0:0:0:
398,269,73113,2,0,B|414:165|346:197|366:89,1,180,14|10,3:2|2:0,0:0:0:0:
237,50,74293,2,0,L|229:158,1,89.9999999999999,10|10,2:0|3:2,0:0:0:0:
182,265,75136,6,0,P|142:281|86:261,1,89.9999999999999,10|10,3:2|1:2,0:0:0:0:
52,192,75810,2,0,L|36:44,2,135,6|10|10,3:2|2:0|1:2,0:0:0:0:
124,248,77158,5,10,3:2:0:0:
188,184,77496,1,10,1:2:0:0:
274,231,77833,1,10,2:0:0:0:
330,159,78170,1,10,1:2:0:0:
384,245,78507,6,0,P|364:317|199:285,1,270,10|10,3:2|1:2,0:0:0:0:
289,248,79855,1,10,3:2:0:0:
98,209,80529,6,0,L|82:105,1,89.9999999999999,10|10,2:0|1:2,0:0:0:0:
74,21,81203,2,0,B|142:13|123:60|210:45,1,135,14|10,3:2|2:0,0:0:0:0:
332,120,82215,5,10,1:2:0:0:
416,68,82552,2,0,L|432:168,1,89.9999999999999,10|10,3:2|1:2,0:0:0:0:
360,212,83226,2,0,L|344:312,1,89.9999999999999,10|10,2:0|1:2,0:0:0:0:
255,340,83900,5,14,3:2:0:0:
162,225,84574,1,10,2:0:0:0:
282,115,85080,2,0,L|374:138,1,89.9999999999999,10|10,2:0|3:2,0:0:0:0:
159,319,86597,6,0,L|7:339,2,135,6|10|10,3:2|2:0|1:2,0:0:0:0:
259,346,87945,2,0,L|359:358,1,89.9999999999999,10|10,3:2|1:2,0:0:0:0:
412,272,88619,2,0,P|424:224|404:172,1,89.9999999999999,10|10,2:0|1:2,0:0:0:0:
328,212,89293,2,0,P|256:192|228:128,2,135,10|10|10,3:2|2:0|1:2,0:0:0:0:
316,124,90642,1,10,3:2:0:0:
148,88,91316,6,0,L|136:192,1,89.9999999999999,10|10,2:0|1:2,0:0:0:0:
68,240,91990,2,0,P|128:272|192:248,1,135,14|10,3:2|2:0,0:0:0:0:
304,184,93001,5,10,1:2:0:0:
387,237,93338,2,0,L|402:132,1,89.9999999999999,10|10,3:2|1:2,0:0:0:0:
485,98,94012,2,0,P|418:38|338:74,1,180,10|14,2:0|3:2,0:0:0:0:
256,192,95361,12,6,97383,3:2:0:0:
