osu file format v14

[General]
AudioFilename: audio.mp3
AudioLeadIn: 0
PreviewTime: 30199
Countdown: 0
SampleSet: Soft
StackLeniency: 0.3
Mode: 0
LetterboxInBreaks: 0
WidescreenStoryboard: 1

[Editor]
Bookmarks: 510,5475,8268,8785,13751,20372,26992,30303,43544,56785,70027,76647,83268,89889,103130,116372
DistanceSpacing: 1.3
BeatDivisor: 4
GridSize: 32
TimelineZoom: 1.5

[Metadata]
Title:ZETRAKORE XAOS DA JUMPING GARGOYLZ
TitleUnicode:ZETRAKORE XAOS DA JUMPING GARGOYLZ
Artist:DJ GYROTTA ZAO
ArtistUnicode:DJ 6YRథ్‌٣٣A ЗАО
Creator:Nytrocide_
Version:NORMAL
Source:
Tags:nytro ganyumymommy jayblue gygy hytaa jurme angry burak velamy yabujin electronic hardcore hardstyle jumpstyle instrumental mortal kombat iii 3 nocturnal atmospheric chaos gargoyles 1.6 the pistols of nature naturepistols2009 6YROTTA
BeatmapID:3988776
BeatmapSetID:1929434

[Difficulty]
HPDrainRate:4
CircleSize:3.4
OverallDifficulty:4.8
ApproachRate:5.4
SliderMultiplier:1.3
SliderTickRate:1

[Events]
//Background and Video events
0,0,"the zao.jpg",0,0
//Break Periods
2,5475,7129
2,27191,29164
2,70227,75508
//Storyboard Layer 0 (Background)
//Storyboard Layer 1 (Fail)
//Storyboard Layer 2 (Pass)
//Storyboard Layer 3 (Foreground)
//Storyboard Layer 4 (Overlay)
//Storyboard Sound Samples

[TimingPoints]
510,413.793103448276,4,2,2,69,1,0
510,-100,4,2,2,69,0,0
5475,-100,4,2,2,69,0,0
8268,-100,4,2,2,69,0,0
8785,-100,4,2,1,69,0,0
13751,-100,4,2,1,69,0,0
20372,-100,4,2,1,69,0,0
26992,-100,4,2,1,69,0,0
27406,-100,4,2,1,59,0,0
27820,-100,4,2,1,49,0,0
28234,-100,4,2,1,39,0,0
28647,-100,4,2,1,29,0,0
29061,-100,4,2,1,19,0,0
30303,-100,4,2,1,79,0,0
42044,-100,4,2,1,5,0,0
42096,-100,4,2,1,79,0,0
42458,-100,4,2,1,5,0,0
42510,-100,4,2,1,79,0,0
43544,-100,4,2,22,79,0,0
49337,-100,4,2,2,79,0,0
50165,-100,4,2,22,79,0,0
55285,-100,4,2,22,5,0,0
55337,-100,4,2,22,79,0,0
55699,-100,4,2,22,5,0,0
55751,-100,4,2,22,79,0,0
55958,-100,4,2,2,79,0,0
56785,-100,4,2,22,79,0,0
57768,-100,4,2,22,5,0,0
57820,-100,4,2,22,79,0,0
62578,-100,4,2,2,79,0,0
63406,-100,4,2,22,79,0,0
64389,-100,4,2,22,5,0,0
64441,-100,4,2,22,79,0,0
65061,-100,4,2,23,79,0,0
65268,-100,4,2,22,79,0,0
66716,-100,4,2,23,79,0,0
67027,-100,4,2,22,79,0,0
68372,-100,4,2,23,79,0,0
68527,-100,4,2,23,5,0,0
68578,-100,4,2,23,79,0,0
68785,-100,4,2,22,79,0,0
68941,-100,4,2,22,5,0,0
68992,-100,4,2,22,79,0,0
69199,-100,4,2,2,79,0,0
70027,-100,4,2,23,69,0,0
70337,-100,4,2,22,59,0,0
76647,-100,4,2,22,59,0,0
83268,-100,4,2,22,59,0,0
89889,-100,4,2,5,79,0,0
90716,-100,4,2,55,79,0,0
91544,-100,4,2,5,79,0,0
94027,-100,4,2,55,79,0,0
94855,-100,4,2,5,79,0,0
97337,-100,4,2,55,79,0,0
98165,-100,4,2,5,79,0,0
100647,-100,4,2,55,79,0,0
101475,-100,4,2,5,79,0,0
103130,-100,4,2,5,79,0,0
103958,-100,4,2,55,79,0,0
104786,-100,4,2,5,79,0,0
107268,-100,4,2,55,79,0,0
108096,-100,4,2,5,79,0,0
110578,-100,4,2,55,79,0,0
111406,-100,4,2,5,79,0,0
113889,-100,4,2,55,79,0,0
114717,-100,4,2,5,79,0,0
116372,-100,4,2,5,79,0,0
116785,-100,4,2,1,73,0,0
117096,-100,4,2,1,67,0,0
117406,-100,4,2,1,61,0,0
117716,-100,4,2,1,55,0,0
118027,-100,4,2,1,49,0,0
118337,-100,4,2,1,43,0,0
118647,-100,4,2,1,37,0,0
118958,-100,4,2,1,31,0,0
119268,-100,4,2,1,25,0,0
119578,-100,4,2,1,19,0,0
119889,-100,4,2,1,13,0,0
120199,-100,4,2,1,7,0,0

[Colours]
Combo1 : 85,85,85
Combo2 : 170,239,101
Combo3 : 170,170,170
Combo4 : 43,170,0

[HitObjects]
256,192,510,12,0,3820,0:0:0:0:
35,314,8268,5,0,0:0:0:0:
216,205,8785,6,0,L|185:107,2,97.5,2|2|2,0:0|0:0|0:0,0:0:0:0:
288,252,9613,2,0,P|322:238|312:153,1,130,2|2,0:0|0:0,0:0:0:0:
417,19,10441,6,0,L|521:-2,2,97.5,2|2|2,0:0|0:0|0:0,0:0:0:0:
133,200,11889,5,2,0:0:0:0:
133,200,12096,2,0,L|29:179,2,97.5,2|2|2,0:0|0:0|0:0,0:0:0:0:
325,364,13337,6,0,P|356:355|374:315,1,65,2|2,0:0|0:0,0:0:0:0:
424,261,13751,2,0,P|466:284|511:303,2,97.5,10|2|2,0:2|0:0|0:0,0:0:0:0:
388,184,14578,1,10,0:2:0:0:
222,216,14992,5,8,0:2:0:0:
264,52,15406,2,0,P|244:22|176:31,2,97.5,10|2|2,0:2|0:0|0:0,0:0:0:0:
347,68,16234,2,0,B|354:70|354:70|497:24,1,130,10|10,0:2|0:2,0:0:0:0:
480,201,17061,6,0,B|516:233|516:233|504:280,2,97.5,10|2|2,0:2|0:0|0:0,0:0:0:0:
158,304,18510,5,2,0:0:0:0:
158,304,18716,2,0,B|170:351|170:351|134:383,2,97.5,10|2|2,0:2|0:0|0:0,0:0:0:0:
11,96,19958,6,0,P|44:103|85:129,1,65,10|2,0:2|0:0,0:0:0:0:
136,171,20372,6,0,P|173:132|230:142,2,97.5,10|2|2,0:2|0:0|0:0,0:0:0:0:
151,254,21199,1,10,0:2:0:0:
364,115,21820,5,2,0:0:0:0:
364,115,22027,2,0,P|345:74|332:8,2,97.5,10|2|2,0:2|0:0|0:0,0:0:0:0:
447,128,22854,2,0,P|505:152|473:216,1,130,10|10,0:2|0:2,0:0:0:0:
345,293,23682,6,0,B|327:298|327:298|285:369,2,97.5,10|2|2,0:2|0:0|0:0,0:0:0:0:
27,192,25130,5,2,0:0:0:0:
27,192,25337,2,0,B|45:197|45:197|87:268,2,97.5,10|2|2,0:2|0:0|0:0,0:0:0:0:
206,12,26578,6,0,L|189:80,2,65,10|2|2,0:2|0:0|0:1,0:0:0:0:
287,201,30303,6,0,B|314:221|314:221|335:324,1,130,14|8,3:2|3:2,0:0:0:0:
284,384,30923,1,10,3:2:0:0:
284,384,31130,1,10,3:2:0:0:
155,274,31544,6,0,P|189:256|194:223,1,65,8|2,3:2|0:0,0:0:0:0:
127,180,31958,2,0,L|20:206,2,97.5,12|2|2,3:2|0:0|0:0,0:0:0:0:
179,113,32785,1,10,3:2:0:0:
136,39,32992,1,8,3:2:0:0:
211,0,33199,1,10,3:2:0:0:
349,97,33613,6,0,P|395:91|434:143,2,97.5,14|2|2,3:2|0:0|0:0,0:0:0:0:
306,170,34441,1,8,3:2:0:0:
439,281,34854,5,10,3:2:0:0:
439,281,35061,1,2,0:0:0:0:
382,343,35268,2,0,P|334:322|267:308,2,97.5,14|2|2,3:2|0:0|0:0,0:0:0:0:
457,384,36096,2,0,L|526:370,2,65,8|8|8,3:3|3:2|3:3,0:0:0:0:
358,245,36923,6,0,B|283:234|328:176|235:163,1,130,14|8,3:2|3:2,0:0:0:0:
184,201,37544,1,10,3:2:0:0:
184,201,37751,1,10,3:2:0:0:
156,34,38165,6,0,P|119:39|101:74,1,65,8|2,3:2|0:0,0:0:0:0:
65,135,38578,2,0,L|-38:93,2,97.5,12|2|2,3:2|0:0|0:0,0:0:0:0:
94,214,39406,1,8,3:2:0:0:
15,245,39613,1,8,3:2:0:0:
29,328,39820,1,10,3:2:0:0:
197,345,40234,6,0,P|243:361|286:385,2,97.5,14|2|2,3:2|0:0|0:0,0:0:0:0:
169,265,41061,1,8,3:2:0:0:
320,189,41475,5,10,3:2:0:0:
320,189,41682,1,2,0:0:0:0:
368,120,41889,2,0,L|350:50,2,65,14|2|12,3:2|3:2|3:2,0:0:0:0:
201,92,42716,2,0,B|142:74|142:74|135:77|135:77|119:136,1,130,8|8,3:3|3:3,0:0:0:0:
141,217,43337,1,4,3:3:0:0:
72,265,43544,6,0,B|61:286|61:286|111:354|111:354|137:351,1,130,14|8,3:3|3:3,0:0:0:0:
204,304,44165,1,10,3:3:0:0:
204,304,44372,1,10,3:3:0:0:
335,197,44785,5,10,3:3:0:0:
335,197,44992,1,2,2:3:0:0:
391,260,45199,2,0,L|463:247,1,65,12|0,3:3|0:0,0:0:0:0:
510,183,45613,2,0,B|524:149|524:149|463:49,1,130,8|10,3:3|3:3,0:0:0:0:
403,34,46234,1,2,3:3:0:0:
403,34,46441,1,10,3:3:0:0:
259,123,46854,6,0,B|184:110|222:58|143:46,1,130,14|10,3:3|3:3,0:0:0:0:
76,58,47475,1,2,2:3:0:0:
76,58,47682,2,0,P|61:39|56:-2,2,65,10|2|8,3:3|2:3|3:3,0:0:0:0:
166,201,48510,6,0,P|167:264|104:280,1,130,14|8,3:3|3:3,0:0:0:0:
50,224,49130,1,2,2:3:0:0:
50,224,49337,2,0,L|67:153,2,65,8|0|8,3:3|3:0|3:3,0:0:0:0:
129,373,50165,6,0,B|151:383|151:383|258:342,1,130,14|8,3:3|3:3,0:0:0:0:
285,270,50785,1,10,3:3:0:0:
285,270,50992,1,10,3:3:0:0:
206,126,51406,5,10,3:3:0:0:
206,126,51613,1,2,2:3:0:0:
242,49,51820,2,0,L|302:24,1,65,12|0,3:3|0:0,0:0:0:0:
383,49,52234,2,0,P|447:64|454:132,1,130,8|10,3:3|3:3,0:0:0:0:
400,181,52854,1,2,3:3:0:0:
400,181,53061,1,10,3:3:0:0:
502,315,53475,6,0,B|450:330|450:330|445:351|445:351|374:371,1,130,14|10,3:3|3:3,0:0:0:0:
325,322,54096,1,2,2:3:0:0:
325,322,54303,2,0,L|344:231,2,65,10|2|8,3:3|2:3|3:3,0:0:0:0:
159,355,55130,6,0,P|131:354|106:318,1,65,14|0,3:3|3:0,0:0:0:0:
27,299,55544,2,0,P|20:271|49:238,1,65,8|2,3:3|2:3,0:0:0:0:
114,201,55958,2,0,P|91:132|77:53,1,130,8|8,3:3|3:3,0:0:0:0:
119,0,56578,1,4,3:3:0:0:
199,25,56785,6,0,B|215:13|215:13|218:18|218:18|322:43,1,130,14|8,3:3|3:3,0:0:0:0:
377,111,57406,1,8,2:3:0:0:
377,111,57613,2,0,L|466:93,2,65,8|2|8,3:3|0:3|3:3,0:0:0:0:
266,239,58441,6,0,P|293:308|349:302,2,130,12|10|8,3:3|3:3|3:3,0:0:0:0:
210,183,59475,1,2,3:3:0:0:
210,183,59682,2,0,L|146:195,2,65,10|0|14,3:3|0:0|3:3,0:0:0:0:
287,32,60510,6,0,B|256:52|256:52|141:16,1,130,8|10,3:3|3:3,0:0:0:0:
95,66,61130,1,2,0:3:0:0:
95,66,61337,1,10,3:3:0:0:
16,215,61751,6,0,B|-2:263|-2:263|3:266|3:266|26:352,1,130,14|10,3:3|3:3,0:0:0:0:
99,384,62372,1,0,0:0:0:0:
99,384,62578,2,0,L|181:359,1,65,8|2,3:3|3:3,0:0:0:0:
206,293,62992,2,0,L|288:317,1,65,8|6,3:3|3:3,0:0:0:0:
341,354,63406,6,0,P|398:313|363:255,1,130,14|8,3:3|3:3,0:0:0:0:
328,206,64027,1,8,2:3:0:0:
328,206,64234,2,0,P|321:170|343:137,2,65,8|2|8,3:3|0:3|3:3,0:0:0:0:
472,117,65061,6,0,B|486:91|486:91|443:-8,2,130,14|10|8,3:3|3:3|3:3,0:0:0:0:
432,194,66096,1,2,3:3:0:0:
432,194,66303,2,0,L|466:265,1,65,10|0,3:3|0:0,0:0:0:0:
398,310,66716,2,0,P|401:350|481:372,2,130,14|8|10,3:3|3:3|3:3,0:0:0:0:
248,230,67958,1,10,3:3:0:0:
362,103,68372,6,0,B|336:83|336:83|289:94,1,65,14|0,3:3|0:0,0:0:0:0:
241,33,68785,2,0,B|209:25|209:25|183:45,1,65,10|2,3:3|0:2,0:0:0:0:
122,104,69199,2,0,B|141:131|141:131|121:191|121:191|79:204,1,130,8|8,3:3|3:3,0:0:0:0:
12,165,69820,1,6,3:3:0:0:
0,81,70027,5,6,0:2:0:0:
111,136,76647,6,0,B|185:125|228:197|190:211|231:284|321:263,2,260,10|12|14,0:2|0:2|0:2,0:0:0:0:
512,24,79958,6,0,B|437:13|394:85|432:99|391:172|301:151,2,260,10|12|14,0:2|0:2|0:2,0:0:0:0:
148,0,83268,6,0,P|201:114|276:370,1,390,10|8,0:2|0:2,0:0:0:0:
107,349,84923,6,0,P|98:304|173:278,1,130,14|8,0:2|0:2,0:0:0:0:
253,129,85751,2,0,P|294:108|338:174,1,130,8|8,0:2|0:2,0:0:0:0:
494,233,86578,6,0,P|308:296|135:385,1,390,10|8,0:2|0:2,0:0:0:0:
0,283,88234,5,0,0:0:0:0:
462,324,89889,6,0,L|427:168,1,130,6|12,3:1|3:1,0:0:0:0:
305,87,90716,2,0,L|333:213,1,130,6|12,3:1|3:1,0:0:0:0:
263,369,91544,2,0,L|228:212,1,130,6|12,3:1|3:1,0:0:0:0:
106,132,92372,2,0,L|134:258,1,130,4|12,3:1|3:1,0:0:0:0:
263,369,93199,5,6,3:1:0:0:
333,213,93613,2,0,B|390:234|390:234|394:242|394:242|455:264,2,130,12|6|12,3:1|3:1|3:1,0:0:0:0:
223,82,94854,2,0,B|165:103|165:103|161:111|161:111|100:133,2,130,6|12|4,3:1|3:1|3:1,0:0:0:0:
267,9,95889,1,2,0:3:0:0:
350,22,96096,1,12,3:1:0:0:
489,120,96510,6,0,P|469:176|456:263,1,130,6|12,3:1|3:1,0:0:0:0:
323,348,97337,2,0,P|343:292|356:205,1,130,6|12,3:1|3:1,0:0:0:0:
286,66,98165,2,0,P|264:127|253:191,1,130,6|12,3:1|3:1,0:0:0:0:
120,294,98992,2,0,P|141:232|152:168,1,130,4|12,3:1|3:1,0:0:0:0:
286,66,99820,5,6,3:1:0:0:
355,222,100234,2,0,P|402:237|460:179,2,130,12|6|12,3:1|3:1|3:1,0:0:0:0:
224,326,101475,2,0,P|176:341|118:283,2,130,6|12|4,3:1|3:1|3:1,0:0:0:0:
270,255,102510,1,2,0:3:0:0:
225,183,102716,1,12,3:1:0:0:
108,60,103130,6,0,L|45:76,2,65,6|0|12,3:1|0:0|3:1,0:0:0:0:
118,229,103958,2,0,P|93:285|77:356,1,130,6|12,3:1|3:1,0:0:0:0:
244,384,104785,2,0,P|289:377|290:294,1,130,6|12,3:1|3:1,0:0:0:0:
244,148,105613,5,4,3:1:0:0:
244,148,105820,1,10,0:3:0:0:
297,82,106027,2,0,L|376:95,1,65,12|8,3:1|2:3,0:0:0:0:
437,129,106441,6,0,P|484:92|449:18,1,130,6|12,3:1|3:1,0:0:0:0:
303,0,107268,1,6,3:1:0:0:
168,102,107682,1,12,3:1:0:0:
179,270,108096,2,0,B|235:287|235:287|242:284|242:284|323:310,1,130,6|12,3:1|3:1,0:0:0:0:
457,230,108923,5,4,3:1:0:0:
457,230,109130,1,10,0:3:0:0:
512,294,109337,2,0,P|496:321|486:361,1,65,12|8,3:1|2:3,0:0:0:0:
408,384,109751,6,0,P|376:365|330:354,1,65,6|0,3:1|0:0,0:0:0:0:
302,286,110165,1,12,3:1:0:0:
394,145,110578,2,0,P|381:92|306:64,1,130,6|12,3:1|3:1,0:0:0:0:
158,1,111406,2,0,P|179:44|203:131,1,130,6|12,3:1|3:1,0:0:0:0:
165,291,112234,5,4,3:1:0:0:
165,291,112441,1,10,0:3:0:0:
132,214,112647,2,0,L|70:193,1,65,12|8,3:1|2:3,0:0:0:0:
0,242,113061,6,0,B|-25:301|-25:301|26:359,1,130,6|12,3:1|3:1,0:0:0:0:
186,376,113889,1,6,3:1:0:0:
326,281,114303,1,12,3:1:0:0:
359,115,114716,2,0,B|348:120|348:120|249:83|249:83|237:87,1,130,6|12,3:1|3:1,0:0:0:0:
73,121,115544,5,4,3:1:0:0:
73,121,115751,1,10,0:3:0:0:
13,61,115958,2,0,B|16:55|16:55|-1:-2,2,65,12|8|4,3:1|2:3|0:0,0:0:0:0:
