osu file format v14

[General]
AudioFilename: audio.mp3
AudioLeadIn: 0
PreviewTime: 30199
Countdown: 0
SampleSet: Soft
StackLeniency: 0.3
Mode: 0
LetterboxInBreaks: 0
WidescreenStoryboard: 1

[Editor]
Bookmarks: 510,5475,8268,8785,13751,20372,26992,30303,43544,56785,70027,76647,83268,89889,103130,116372
DistanceSpacing: 0.2
BeatDivisor: 4
GridSize: 32
TimelineZoom: 1.5

[Metadata]
Title:ZETRAKORE XAOS DA JUMPING GARGOYLZ
TitleUnicode:ZETRAKORE XAOS DA JUMPING GARGOYLZ
Artist:DJ GYROTTA ZAO
ArtistUnicode:DJ 6YRథ్‌٣٣A ЗАО
Creator:Nytrocide_
Version:MOIRU
Source:
Tags:nytro ganyumymommy jayblue gygy hytaa jurme angry burak velamy yabujin electronic hardcore hardstyle jumpstyle instrumental mortal kombat iii 3 nocturnal atmospheric chaos gargoyles 1.6 the pistols of nature naturepistols2009 6YROTTA
BeatmapID:3988775
BeatmapSetID:1929434

[Difficulty]
HPDrainRate:6
CircleSize:4.2
OverallDifficulty:8.6
ApproachRate:9.4
SliderMultiplier:2.2
SliderTickRate:1

[Events]
//Background and Video events
0,0,"the zao.jpg",0,0
//Break Periods
2,5475,7728
2,70227,76107
//Storyboard Layer 0 (Background)
//Storyboard Layer 1 (Fail)
//Storyboard Layer 2 (Pass)
//Storyboard Layer 3 (Foreground)
//Storyboard Layer 4 (Overlay)
//Storyboard Sound Samples

[TimingPoints]
510,413.793103448276,4,2,2,69,1,0
510,-100,4,2,2,69,0,0
5475,-100,4,2,2,69,0,0
8268,-57.1428571428571,4,2,2,69,0,0
8785,-133.333333333333,4,2,1,69,0,0
13751,-133.333333333333,4,2,1,69,0,0
20372,-133.333333333333,4,2,1,69,0,0
26992,-200,4,2,1,69,0,0
27406,-200,4,2,1,59,0,0
27820,-200,4,2,1,49,0,0
28234,-200,4,2,1,39,0,0
28647,-200,4,2,1,29,0,0
29061,-200,4,2,1,19,0,0
30303,-50,4,2,1,79,0,0
31130,-45.4545454545455,4,2,1,79,0,0
31544,-60.6060606060606,4,2,1,79,0,0
31958,-50,4,2,1,79,0,0
33199,-222.222222222221,4,2,1,79,0,0
33613,-55.5555555555556,4,2,1,79,0,0
34027,-50,4,2,1,79,0,0
34234,-45.4545454545455,4,2,1,79,0,0
34441,-50,4,2,1,79,0,0
35268,-66.6666666666667,4,2,1,79,0,0
35889,-45.4545454545455,4,2,1,79,0,0
36716,-55.5555555555556,4,2,1,79,0,0
36923,-50,4,2,1,79,0,0
37751,-45.4545454545455,4,2,1,79,0,0
38165,-60.6060606060606,4,2,1,79,0,0
38578,-50,4,2,1,79,0,0
39820,-222.222222222221,4,2,1,79,0,0
40234,-55.5555555555556,4,2,1,79,0,0
40647,-50,4,2,1,79,0,0
40854,-45.4545454545455,4,2,1,79,0,0
41061,-50,4,2,1,79,0,0
41889,-41.6666666666667,4,2,1,79,0,0
42044,-41.6666666666667,4,2,1,5,0,0
42096,-100,4,2,1,79,0,0
42303,-41.6666666666667,4,2,1,79,0,0
42458,-41.6666666666667,4,2,1,5,0,0
42510,-100,4,2,1,79,0,0
43544,-30.3030303030303,4,2,22,79,0,0
43958,-50,4,2,22,79,0,0
44372,-41.6666666666667,4,2,22,79,0,0
44785,-66.6666666666667,4,2,22,79,0,0
44992,-100,4,2,22,79,0,0
45199,-38.4615384615385,4,2,22,79,0,0
45613,-66.6666666666667,4,2,22,79,0,0
46854,-38.4615384615385,4,2,22,79,0,0
47268,-55.5555555555556,4,2,22,79,0,0
47682,-41.6666666666667,4,2,22,79,0,0
48510,-66.6666666666667,4,2,22,79,0,0
49130,-45.4545454545455,4,2,22,79,0,0
49337,-45.4545454545455,4,2,2,79,0,0
49958,-55.5555555555556,4,2,2,79,0,0
50165,-30.3030303030303,4,2,22,79,0,0
50578,-50,4,2,22,79,0,0
50992,-41.6666666666667,4,2,22,79,0,0
51405,-66.6666666666667,4,2,22,79,0,0
51612,-100,4,2,22,79,0,0
51820,-38.4615384615385,4,2,22,79,0,0
52234,-66.6666666666667,4,2,22,79,0,0
53475,-38.4615384615385,4,2,22,79,0,0
53889,-55.5555555555556,4,2,22,79,0,0
54303,-41.6666666666667,4,2,22,79,0,0
55130,-41.6666666666667,4,2,22,79,0,0
55285,-41.6666666666667,4,2,22,5,0,0
55337,-100,4,2,22,79,0,0
55544,-41.6666666666667,4,2,22,79,0,0
55699,-41.6666666666667,4,2,22,5,0,0
55751,-100,4,2,22,79,0,0
55958,-100,4,2,2,79,0,0
56785,-30.3030303030303,4,2,22,79,0,0
57199,-50,4,2,22,79,0,0
57613,-35.7142857142857,4,2,22,79,0,0
57768,-35.7142857142857,4,2,22,5,0,0
57820,-100,4,2,22,79,0,0
58027,-66.6666666666667,4,2,22,79,0,0
58441,-34.4827586206897,4,2,22,79,0,0
58854,-57.1428571428571,4,2,22,79,0,0
59682,-222.222222222221,4,2,22,79,0,0
60096,-33.3333333333333,4,2,22,79,0,0
60510,-57.1428571428571,4,2,22,79,0,0
60923,-38.4615384615385,4,2,22,79,0,0
61751,-66.6666666666667,4,2,22,79,0,0
62372,-45.4545454545455,4,2,22,79,0,0
62578,-45.4545454545455,4,2,2,79,0,0
63199,-55.5555555555556,4,2,2,79,0,0
63406,-30.3030303030303,4,2,22,79,0,0
63820,-50,4,2,22,79,0,0
64234,-35.7142857142857,4,2,22,79,0,0
64389,-35.7142857142857,4,2,22,5,0,0
64441,-100,4,2,22,79,0,0
64647,-66.6666666666667,4,2,22,79,0,0
65061,-29.4117647058824,4,2,23,79,0,0
65268,-29.4117647058824,4,2,22,79,0,0
65475,-57.1428571428571,4,2,22,79,0,0
66303,-222.222222222222,4,2,22,79,0,0
66716,-33.3333333333333,4,2,23,79,0,0
67027,-33.3333333333333,4,2,22,79,0,0
67130,-57.1428571428571,4,2,22,79,0,0
67543,-38.4615384615385,4,2,22,79,0,0
68372,-41.6666666666667,4,2,23,79,0,0
68527,-41.6666666666667,4,2,23,5,0,0
68578,-100,4,2,23,79,0,0
68785,-41.6666666666667,4,2,22,79,0,0
68941,-41.6666666666667,4,2,22,5,0,0
68992,-100,4,2,22,79,0,0
69199,-100,4,2,2,79,0,0
70027,-1000,4,2,23,69,0,0
70337,-1000,4,2,22,59,0,0
76647,-200,4,2,22,59,0,0
83268,-133.333333333333,4,2,22,59,0,0
88234,-200,4,2,22,59,0,0
89889,-43.4782608695652,4,2,5,79,0,0
90716,-43.4782608695652,4,2,55,79,0,0
91544,-66.6666666666667,4,2,5,79,0,0
93199,-43.4782608695652,4,2,5,79,0,0
94027,-43.4782608695652,4,2,55,79,0,0
94854,-66.6666666666667,4,2,5,79,0,0
96510,-43.4782608695652,4,2,5,79,0,0
97337,-43.4782608695652,4,2,55,79,0,0
98165,-66.6666666666667,4,2,5,79,0,0
99820,-43.4782608695652,4,2,5,79,0,0
100647,-43.4782608695652,4,2,55,79,0,0
101475,-66.6666666666667,4,2,5,79,0,0
103130,-40,4,2,5,79,0,0
103958,-40,4,2,55,79,0,0
104785,-50,4,2,5,79,0,0
106441,-40,4,2,5,79,0,0
107061,-50,4,2,5,79,0,0
107268,-40,4,2,55,79,0,0
108096,-50,4,2,5,79,0,0
109751,-40,4,2,5,79,0,0
110578,-40,4,2,55,79,0,0
111406,-50,4,2,5,79,0,0
113061,-40,4,2,5,79,0,0
113682,-50,4,2,5,79,0,0
113889,-40,4,2,55,79,0,0
114716,-50,4,2,5,79,0,0
116165,-200,4,2,5,79,0,0
116372,-1000,4,2,5,79,0,0
116785,-1000,4,2,1,73,0,0
117096,-1000,4,2,1,67,0,0
117406,-1000,4,2,1,61,0,0
117716,-1000,4,2,1,55,0,0
118027,-1000,4,2,1,49,0,0
118337,-1000,4,2,1,43,0,0
118647,-1000,4,2,1,37,0,0
118958,-1000,4,2,1,31,0,0
119268,-1000,4,2,1,25,0,0
119578,-1000,4,2,1,19,0,0
119889,-1000,4,2,1,13,0,0
120199,-1000,4,2,1,7,0,0

[Colours]
Combo1 : 85,85,85
Combo2 : 170,239,101
Combo3 : 170,170,170
Combo4 : 43,170,0

[HitObjects]
256,192,510,5,4,0:0:0:0:
256,192,613,12,0,3820,0:0:0:0:
75,314,8268,6,0,B|8:295|8:295|-29:284|-40:239|-8:204|28:214|28:214|122:239|122:239|145:268|145:268|207:284,1,385.000003671646
204,275,8785,6,0,B|183:289|183:289|151:411,2,123.750004720688,2|2|2,0:0|0:0|0:0,0:0:0:0:
300,247,9613,1,2,0:0:0:0:
300,247,10027,1,2,0:0:0:0:
239,32,10441,5,2,0:0:0:0:
302,78,10647,1,2,0:0:0:0:
298,89,10751,1,2,0:0:0:0:
397,12,11061,1,2,0:0:0:0:
397,12,11889,5,2,0:0:0:0:
239,32,12096,5,2,0:0:0:0:
302,78,12302,1,2,0:0:0:0:
298,89,12406,1,2,0:0:0:0:
397,12,12716,1,2,0:0:0:0:
149,188,13234,5,2,0:0:0:0:
95,131,13337,2,0,B|65:160|65:160|72:203,1,82.5000031471254,2|2,0:0|0:0,0:0:0:0:
353,384,13751,5,10,0:2:0:0:
298,324,13958,1,0,0:3:0:0:
288,327,14062,1,2,0:0:0:0:
277,330,14165,1,8,0:2:0:0:
215,276,14372,1,2,0:0:0:0:
243,199,14578,1,10,0:2:0:0:
394,17,14992,6,0,B|383:53|383:53|385:60|385:60|367:124,1,82.5000031471254,8|2,0:2|0:0,0:0:0:0:
394,170,15406,6,0,P|365:122|283:137,2,123.750004720688,10|2|2,0:2|0:0|0:0,0:0:0:0:
477,168,16234,2,0,P|396:184|314:215,1,165.000006294251,10|10,0:2|0:2,0:0:0:0:
141,29,17061,5,10,0:2:0:0:
198,88,17268,1,2,0:0:0:0:
194,99,17372,1,2,0:0:0:0:
190,110,17475,1,8,0:2:0:0:
136,17,17682,5,2,0:0:0:0:
293,68,17889,1,8,0:2:0:0:
293,68,18303,5,8,0:2:0:0:
136,17,18510,1,2,0:0:0:0:
190,110,18716,5,10,0:2:0:0:
133,169,18923,1,2,0:0:0:0:
137,180,19027,1,2,0:0:0:0:
141,191,19130,1,8,0:2:0:0:
194,99,19337,5,2,0:0:0:0:
38,149,19544,1,8,0:2:0:0:
8,332,19854,5,2,0:0:0:0:
4,344,19958,2,0,P|30:325|80:310,1,82.5000031471254,10|2,0:2|0:0,0:0:0:0:
205,370,20372,5,10,0:2:0:0:
156,303,20578,1,0,0:3:0:0:
160,291,20682,1,2,0:0:0:0:
164,279,20785,1,8,0:2:0:0:
205,207,20992,1,2,0:0:0:0:
148,147,21199,1,10,0:2:0:0:
322,303,21613,6,0,B|333:307|333:307|412:284,1,82.5000031471254,8|2,0:2|0:0,0:0:0:0:
476,301,22027,6,0,P|424:270|432:210,2,123.750004720688,10|2|2,0:2|0:0|0:0,0:0:0:0:
512,222,22854,2,0,P|497:140|471:62,1,165.000006294251,10|10,0:2|0:2,0:0:0:0:
270,37,23682,5,10,0:2:0:0:
233,110,23889,1,2,0:0:0:0:
224,119,23992,1,2,0:0:0:0:
211,118,24096,1,8,0:2:0:0:
278,23,24303,5,2,0:0:0:0:
126,74,24510,1,8,0:2:0:0:
126,74,24923,5,8,0:2:0:0:
278,23,25130,1,2,0:0:0:0:
224,119,25337,5,10,0:2:0:0:
261,192,25544,1,2,0:0:0:0:
270,201,25647,1,2,0:0:0:0:
283,200,25751,1,8,0:2:0:0:
216,105,25958,5,2,0:0:0:0:
368,156,26165,1,8,0:2:0:0:
180,316,26475,5,2,0:0:0:0:
169,311,26578,2,0,P|188:337|202:397,1,82.5000031471254,10|2,0:2|0:0,0:0:0:0:
256,278,26992,5,2,0:1:0:0:
256,192,27096,12,0,30096,0:0:0:0:
56,239,30303,6,0,B|16:250|9:293|9:293|74:232|181:224,1,220,14|0,3:2|0:0,0:0:0:0:
261,143,30613,5,10,3:2:0:0:
232,73,30716,2,0,P|192:91|201:171,1,110,8|0,3:2|0:0,0:0:0:0:
290,213,30923,2,0,P|330:195|321:115,1,110,10|0,3:2|0:0,0:0:0:0:
205,1,31130,6,0,B|157:48|172:123|248:148|256:141|265:132|336:160|353:235|294:296,1,363.000011077881,10|0,3:2|0:0,0:0:0:0:
236,347,31544,5,8,3:2:0:0:
439,145,31751,2,0,B|445:131|445:131|428:104|428:104|425:137|425:137|439:145,1,90.7500008654595,2|0,0:0|0:0,0:0:0:0:
411,216,31958,6,0,B|390:240|390:240|248:216|145:315|145:315|115:305,1,330,12|2,3:2|0:0,0:0:0:0:
136,230,32372,6,0,B|134:217|119:212|119:212|153:205|179:232|174:278,1,110,8|0,3:2|0:0,0:0:0:0:
232,305,32578,2,0,B|243:299|244:283|244:283|260:314|241:347|195:354,1,110,2|0,0:0|0:0,0:0:0:0:
103,384,32785,5,10,3:2:0:0:
380,153,32992,1,8,3:2:0:0:
225,105,33199,2,0,P|193:95|178:59,1,74.2499977340699,10|0,3:2|0:0,0:0:0:0:
252,28,33613,6,0,B|198:-21|198:-21|232:98,1,197.99999395752,14|0,3:2|0:0,0:0:0:0:
309,278,33923,5,2,0:0:0:0:
232,305,34027,2,0,B|215:251|215:251|256:216,1,110,8|0,3:2|0:0,0:0:0:0:
299,148,34234,2,0,B|275:264|275:264|271:269|271:269|247:397,1,242.000007385254,2|8,0:0|3:2,0:0:0:0:
237,384,34854,5,10,3:2:0:0:
351,40,35061,1,2,0:0:0:0:
59,355,35268,6,0,P|34:355|3:297,1,82.5000031471254,14|0,3:2|0:0,0:0:0:0:
8,207,35475,5,0,0:0:0:0:
82,187,35578,1,2,0:0:0:0:
0,199,35682,2,0,P|-7:175|40:130,1,82.5000031471254,8|0,3:2|0:0,0:0:0:0:
208,167,35889,5,2,0:0:0:0:
246,99,35992,1,8,3:2:0:0:
178,59,36096,2,0,P|107:170|69:291,1,242.000007385254,8|8,3:3|3:2,0:0:0:0:
345,377,36406,5,8,2:3:0:0:
357,376,36510,2,0,P|394:360|354:369,1,121.000003692627,8|0,3:3|0:0,0:0:0:0:
291,319,36716,2,0,P|268:293|296:313,1,98.9999969787599,4|0,2:3|0:0,0:0:0:0:
237,384,36923,6,0,B|258:350|258:350|392:315|392:315|418:263,1,220,14|2,3:2|0:0,0:0:0:0:
431,118,37234,5,10,3:2:0:0:
350,110,37337,2,0,B|343:165|343:165|392:189,1,110,8|0,3:2|0:0,0:0:0:0:
511,125,37544,2,0,B|517:69|517:69|468:45,1,110,10|0,3:2|0:0,0:0:0:0:
382,0,37751,6,0,B|400:168|400:168|406:173|406:173|430:384,1,363.000011077881,10|0,3:2|0:0,0:0:0:0:
512,384,38165,5,8,3:2:0:0:
431,118,38372,2,0,B|419:109|423:97|423:97|426:84|438:82|438:82|448:89|446:102|446:102|444:115|431:118,1,90.7500008654595,2|0,0:0|0:0,0:0:0:0:
465,186,38578,6,0,B|475:164|514:157|514:157|411:150|324:219|324:219|338:172|394:151,1,330,12|2,3:2|0:0,0:0:0:0:
362,243,38992,6,0,B|366:258|366:258|310:271|298:214,1,110,8|0,3:2|0:0,0:0:0:0:
258,147,39199,2,0,B|244:155|244:155|217:104|269:78,1,110,2|0,0:0|0:0,0:0:0:0:
378,57,39406,5,8,3:2:0:0:
237,384,39613,1,8,3:2:0:0:
114,283,39820,2,0,P|90:310|54:310,1,74.2499977340699,10|0,3:2|0:0,0:0:0:0:
52,230,40234,6,0,B|19:267|19:267|39:364|39:364|84:384,1,197.99999395752,14|2,3:2|0:0,0:0:0:0:
295,313,40544,5,2,0:0:0:0:
368,279,40647,2,0,P|349:230|297:229,1,110,8|0,3:2|0:0,0:0:0:0:
213,311,40854,2,0,P|289:266|448:216,1,242.000007385254,2|8,0:0|3:2,0:0:0:0:
442,227,41475,5,10,3:2:0:0:
87,151,41682,1,2,0:0:0:0:
183,27,41889,6,0,B|184:-1|207:-16|207:-16|149:-26|102:22|124:89,1,197.99999395752,14|0,3:2|0:0,0:0:0:0:
129,78,42096,6,0,P|154:93|162:126,1,55,2|2,3:2|0:0,0:0:0:0:
407,81,42303,6,0,B|419:55|405:31|405:31|461:50|480:114|429:163,1,197.99999395752,12|0,3:2|0:0,0:0:0:0:
431,151,42510,6,0,P|401:157|384:185,1,55,2|8,3:2|3:2,0:0:0:0:
339,286,42716,5,8,3:3:0:0:
282,243,42820,1,0,3:2:0:0:
244,247,42923,1,0,3:2:0:0:
228,231,43027,5,8,3:3:0:0:
235,180,43130,5,8,3:3:0:0:
305,150,43234,1,0,3:2:0:0:
334,76,43337,5,4,3:3:0:0:
313,34,43441,1,0,3:2:0:0:
232,15,43544,6,0,B|272:171|272:171|278:175|278:175|331:375,1,363.000003461838,14|0,3:3|0:0,0:0:0:0:
375,189,43854,5,8,3:3:0:0:
335,257,43958,2,0,P|373:295|443:271,1,110,8|0,3:3|0:0,0:0:0:0:
353,67,44165,2,0,P|309:96|305:150,1,110,10|0,3:3|0:0,0:0:0:0:
385,194,44372,6,0,B|453:115|453:115|254:210|254:210|260:260|207:287,1,395.999987915039,10|0,3:3|0:0,0:0:0:0:
162,221,44785,6,0,P|147:197|166:218,1,82.5000031471254,10|0,3:3|0:0,0:0:0:0:
286,344,44992,2,0,P|297:328|283:342,1,55,2|0,2:3|0:0,0:0:0:0:
220,384,45199,6,0,B|278:317|278:317|179:-19,1,428.999980361939,12|0,3:3|0:0,0:0:0:0:
356,48,45613,5,8,3:3:0:0:
297,99,45716,1,0,0:0:0:0:
364,58,45820,2,0,P|399:70|433:105,1,82.5000031471254,2|0,2:3|0:0,0:0:0:0:
453,177,46027,5,10,3:3:0:0:
512,0,46234,1,2,3:3:0:0:
305,110,46441,5,10,3:3:0:0:
504,309,46647,1,2,2:3:0:0:
210,285,46854,6,0,B|193:232|193:232|293:256|293:256|290:260|290:260|333:323|333:323|206:368,1,285.99998690796,14|0,3:3|0:0,0:0:0:0:
203,369,47165,5,0,0:0:0:0:
278,333,47268,2,0,B|322:317|322:317|325:313|325:313|390:288,1,98.9999969787599,10|0,3:3|0:0,0:0:0:0:
195,379,47475,2,0,B|150:363|150:363|147:359|147:359|103:342,1,98.9999969787599,2|0,2:3|0:0,0:0:0:0:
57,278,47682,5,10,3:3:0:0:
305,110,47889,1,2,2:3:0:0:
256,0,48096,5,8,3:3:0:0:
200,270,48303,1,2,2:3:0:0:
384,374,48510,6,0,P|425:367|440:327,1,82.5000031471254,14|0,3:3|0:0,0:0:0:0:
406,239,48716,5,0,0:0:0:0:
332,219,48819,1,2,2:3:0:0:
414,231,48923,2,0,P|421:207|374:162,1,82.5000031471254,8|0,3:3|0:0,0:0:0:0:
226,196,49130,5,2,2:3:0:0:
200,270,49234,1,0,0:0:0:0:
268,307,49337,2,0,P|378:265|520:241,1,242.000007385254,8|0,3:3|3:0,0:0:0:0:
449,36,49647,5,8,2:3:0:0:
453,24,49751,2,0,B|435:-2|435:-2|463:-20|463:-20|479:6|479:6|453:24,1,121.000003692627,8|0,3:3|0:0,0:0:0:0:
374,89,49958,2,0,B|359:110|359:110|382:124|382:124|395:103|395:103|374:89,1,98.9999969787599,4|0,2:3|0:0,0:0:0:0:
512,83,50165,6,0,B|447:46|447:46|442:50|442:50|253:98|253:98|249:92|249:92|158:40,1,363.000003461838,14|0,3:3|0:0,0:0:0:0:
130,268,50475,5,8,3:3:0:0:
207,285,50578,2,0,B|230:275|230:275|245:216|245:216|229:198,1,110,8|0,3:3|0:0,0:0:0:0:
17,267,50785,2,0,B|13:291|13:291|57:334|57:334|80:330,1,110,10|0,3:3|0:0,0:0:0:0:
133,254,50992,6,0,B|101:147|101:147|275:44|275:44|235:74|242:121,1,395.999987915039,10|0,3:3|0:0,0:0:0:0:
328,107,51406,6,0,P|343:131|324:110,1,82.5000031471254,10|0,3:3|0:0,0:0:0:0:
180,52,51613,2,0,P|169:67|183:54,1,55,2|0,2:3|0:0,0:0:0:0:
245,0,51820,6,0,B|352:77|352:77|259:368,1,428.999980361939,12|0,3:3|0:0,0:0:0:0:
133,254,52234,5,8,3:3:0:0:
192,203,52337,1,0,0:0:0:0:
125,244,52441,2,0,B|86:230|86:230|72:191,1,82.5000031471254,2|0,2:3|0:0,0:0:0:0:
78,117,52647,5,10,3:3:0:0:
0,317,52854,1,2,3:3:0:0:
198,215,53061,5,10,3:3:0:0:
0,15,53268,1,2,2:3:0:0:
307,87,53475,6,0,B|354:110|354:110|348:117|348:117|265:125|265:125|260:130|260:130|197:78|197:78|195:70|195:70|267:41,1,285.99998690796,14|0,3:3|0:0,0:0:0:0:
312,8,53785,5,0,0:0:0:0:
241,44,53889,2,0,B|234:39|234:39|119:84,1,98.9999969787599,10|0,3:3|0:0,0:0:0:0:
321,0,54096,2,0,B|328:-3|328:-3|439:49,1,98.9999969787599,2|0,2:3|0:0,0:0:0:0:
450,105,54303,5,10,3:3:0:0:
176,338,54510,1,2,2:3:0:0:
254,146,54716,5,8,3:3:0:0:
438,370,54923,1,2,2:3:0:0:
450,105,55130,6,0,B|498:133|474:187|474:187|440:199|440:199|436:197|436:197|356:223,1,197.99999395752,14|0,3:3|0:0,0:0:0:0:
367,213,55337,6,0,P|351:201|351:164,1,55,0|2,3:0|2:3,0:0:0:0:
176,338,55544,6,0,B|195:390|252:375|252:375|270:344|270:344|269:340|269:340|308:265,1,197.99999395752,8|0,3:3|0:0,0:0:0:0:
296,273,55751,6,0,P|286:255|250:248,1,55,2|0,2:3|3:0,0:0:0:0:
75,130,55958,5,8,3:3:0:0:
32,187,56061,1,0,3:0:0:0:
49,222,56165,1,0,3:0:0:0:
69,231,56268,5,8,3:3:0:0:
120,210,56372,5,8,3:3:0:0:
178,262,56475,1,0,3:0:0:0:
164,341,56578,5,4,3:3:0:0:
120,357,56682,1,0,3:0:0:0:
48,320,56785,6,0,B|-9:267|-9:267|-11:259|-11:259|298:360,1,363.000003461838,14|0,3:3|0:0,0:0:0:0:
385,218,57096,5,8,3:3:0:0:
310,237,57199,2,0,B|262:264|262:264|331:248,1,110,8|0,3:3|0:0,0:0:0:0:
460,199,57406,2,0,B|508:172|508:172|439:188,1,110,8|2,2:3|0:3,0:0:0:0:
345,325,57613,6,0,L|426:108,1,230.99999295044,8|0,3:3|0:0,0:0:0:0:
437,105,57820,6,0,L|411:43,1,55,2|0,0:3|0:0,0:0:0:0:
202,21,58027,6,0,P|166:57|190:100,1,82.5000031471254,8|0,3:3|0:0,0:0:0:0:
111,134,58234,2,0,P|137:178|185:166,1,82.5000031471254,2|0,0:3|0:0,0:0:0:0:
248,86,58441,6,0,B|-6:225|-6:225|1:227|1:227|205:160,1,478.500014602662,12|0,3:3|0:0,0:0:0:0:
313,0,58854,5,10,3:3:0:0:
309,12,58958,2,0,L|348:106,1,96.2500009179115
512,304,59165,5,2,0:3:0:0:
444,281,59268,1,8,3:3:0:0:
256,384,59475,1,2,3:3:0:0:
68,281,59682,6,0,P|79:258|131:248,1,74.2499977340699,10|0,3:3|0:0,0:0:0:0:
132,324,60096,6,0,B|74:227|74:227|67:226|67:226|169:75|169:75|119:23|119:23|48:47|48:47|60:117,1,495.000018882752,14|0,3:3|0:0,0:0:0:0:
241,186,60510,5,8,3:3:0:0:
235,175,60613,2,0,L|62:117,1,96.2500009179115,2|0,0:3|0:0,0:0:0:0:
0,163,60820,5,2,0:3:0:0:
6,152,60923,2,0,L|289:57,2,285.99998690796,10|2|10,3:3|0:3|3:3,0:0:0:0:
341,7,61751,6,0,P|300:15|285:55,1,82.5000031471254,14|0,3:3|0:0,0:0:0:0:
319,142,61957,5,0,0:0:0:0:
393,162,62060,1,14,3:3:0:0:
311,150,62164,2,0,P|304:174|351:219,1,82.5000031471254,10|0,3:3|0:0,0:0:0:0:
459,287,62372,5,0,0:0:0:0:
512,230,62475,1,2,3:3:0:0:
470,164,62578,2,0,B|387:183|387:183|383:188|383:188|210:227,1,242.000007385254,8|2,3:3|3:3,0:0:0:0:
40,172,62889,5,8,3:3:0:0:
29,169,62992,2,0,B|1:139|1:139|-11:180|-11:180|29:169,1,121.000003692627,8|2,3:3|2:3,0:0:0:0:
80,89,63199,2,0,B|103:63|103:63|113:98|113:98|80:89,1,98.9999969787599,6|0,3:3|0:0,0:0:0:0:
74,246,63406,6,0,B|97:268|97:268|55:125|55:125|52:122|52:122|13:-18|13:-18|34:6,1,363.000003461838,14|0,3:3|0:0,0:0:0:0:
180,238,63716,5,8,3:3:0:0:
157,324,63820,2,0,B|161:332|161:332|137:370|137:370|136:326|136:326|145:319,1,110,8|0,3:3|0:0,0:0:0:0:
201,150,64027,2,0,B|196:141|196:141|220:103|220:103|221:147|221:147|212:154,1,110,8|2,2:3|0:3,0:0:0:0:
68,260,64234,6,0,L|294:215,1,230.99999295044,8|0,3:3|0:0,0:0:0:0:
302,207,64441,6,0,L|347:270,1,55,2|0,0:3|0:0,0:0:0:0:
362,0,64647,6,0,P|399:31|389:67,1,82.5000031471254,8|0,3:3|0:0,0:0:0:0:
463,98,64854,2,0,P|442:141|405:141,1,82.5000031471254,2|0,0:3|0:0,0:0:0:0:
307,60,65061,6,0,B|243:21|243:21|241:11|241:11|502:103|502:103|495:111|495:111|311:61,1,561.000010700226,14|2,3:3|0:2,0:0:0:0:
97,0,65475,5,10,3:3:0:0:
93,12,65579,2,0,L|132:106,1,96.2500009179115,0|2,0:0|0:2,0:0:0:0:
0,384,65785,5,2,0:3:0:0:
54,337,65888,1,8,3:3:0:0:
256,384,66095,1,2,3:3:0:0:
457,337,66303,6,0,P|444:370|411:384,1,74.2499977340699,10|0,3:3|0:0,0:0:0:0:
383,314,66716,6,0,B|412:279|412:279|451:292|451:292|515:388|515:388|216:285,1,495.000018882752,14|2,3:3|0:2,0:0:0:0:
113,130,67130,5,8,3:3:0:0:
102,136,67233,2,0,B|131:158|131:158|155:232,1,96.2500009179115,2|2,0:3|0:2,0:0:0:0:
157,361,67441,5,2,0:3:0:0:
168,355,67544,2,0,B|136:310|136:310|210:78,2,285.99998690796,10|2|10,3:3|0:3|3:3,0:0:0:0:
346,9,68372,6,0,B|374:-16|110:-87|519:81|309:95,1,197.99999395752,14|0,3:3|0:0,0:0:0:0:
346,89,68578,6,0,P|325:90|304:120,1,55,0|14,0:0|3:3,0:0:0:0:
502,155,68785,6,0,B|527:127|598:391|430:-18|416:192,1,197.99999395752,10|0,3:3|0:0,0:0:0:0:
423,156,68992,6,0,P|422:177|392:198,1,55,2|2,0:2|3:3,0:0:0:0:
264,250,69199,5,8,3:3:0:0:
231,332,69303,1,0,0:0:0:0:
289,380,69406,1,2,3:3:0:0:
326,368,69510,5,8,3:3:0:0:
337,354,69613,5,8,3:3:0:0:
274,239,69716,1,2,2:3:0:0:
213,191,69820,5,6,3:3:0:0:
306,125,69923,1,0,0:0:0:0:
256,0,70027,5,6,0:2:0:0:
0,106,76647,6,0,P|17:58|68:65,3,110,10|8|12|8,0:2|0:2|0:2|0:2,0:0:0:0:
121,163,78303,6,0,P|138:210|189:203,3,110,14|8|8|8,0:2|0:2|0:2|0:2,0:0:0:0:
237,40,79958,6,0,P|254:-7|305:0,3,110,10|8|12|8,0:2|0:2|0:2|0:2,0:0:0:0:
404,196,81613,6,0,P|421:243|472:236,3,110,14|8|8|8,0:2|0:2|0:2|0:2,0:0:0:0:
0,221,83268,6,0,B|35:170|35:170|106:179,1,123.750004720688,10|2,0:2|0:2,0:0:0:0:
109,186,83682,6,0,B|135:241|135:241|92:298,1,123.750004720688,8|0,0:2|0:0,0:0:0:0:
14,328,84096,5,12,0:2:0:0:
64,384,84303,1,0,0:0:0:0:
22,317,84510,1,8,0:2:0:0:
341,114,84923,6,0,P|401:153|382:207,1,123.750004720688,14|2,0:2|0:2,0:0:0:0:
382,206,85337,6,0,P|380:264|433:287,1,123.750004720688,8|2,0:2|0:3,0:0:0:0:
512,241,85751,5,8,0:2:0:0:
444,295,85958,1,2,0:3:0:0:
478,167,86165,1,8,0:2:0:0:
490,162,86268,1,2,0:3:0:0:
280,0,86578,6,0,B|267:35|267:35|259:37|259:37|246:78,1,82.5000031471254,10|0,0:2|0:0,0:0:0:0:
207,136,86889,5,2,0:2:0:0:
218,142,86992,2,0,B|228:177|228:177|236:179|236:179|249:214,1,82.5000031471254,8|2,0:2|0:2,0:0:0:0:
285,291,87303,5,0,0:0:0:0:
274,297,87406,1,12,0:2:0:0:
217,355,87613,5,0,0:0:0:0:
244,227,87820,1,8,0:2:0:0:
256,192,88234,12,0,89682,0:0:0:0:
271,117,89889,6,0,B|267:14|379:-9|379:-9|386:-13|386:-13|380:-6|380:-6|361:121|322:11|273:115,1,379.500007238388,6|2,3:1|0:1,0:0:0:0:
201,158,90303,6,0,B|98:161|74:49|74:49|70:42|70:42|77:48|77:48|205:67|95:106|199:155,1,379.500007238388,12|0,3:1|0:0,0:0:0:0:
242,227,90716,6,0,B|245:329|133:353|133:353|126:357|126:357|132:350|132:350|151:222|190:332|239:228,1,379.500007238388,6|0,3:1|0:0,0:0:0:0:
311,186,91130,6,0,B|413:182|437:294|437:294|441:301|441:301|434:295|434:295|306:276|416:237|312:188,1,379.500007238388,12|0,3:1|0:0,0:0:0:0:
271,117,91544,6,0,B|240:40|240:40|374:-8,1,165.000006294251,6|0,3:1|0:0,0:0:0:0:
505,115,91854,5,2,0:1:0:0:
497,128,91958,2,0,B|471:144|471:144|372:114|372:114|348:74,1,165.000006294251,12|2,3:1|0:1,0:0:0:0:
439,38,92268,5,2,0:3:0:0:
454,43,92372,1,4,3:1:0:0:
512,231,92578,1,2,0:3:0:0:
333,7,92785,5,12,3:1:0:0:
317,12,92889,2,0,B|239:39|239:39|270:116,1,165.000006294251,2|0,0:3|0:0,0:0:0:0:
232,231,93199,6,0,B|202:212|202:212|135:275|135:275|194:371|194:371|284:320|284:320|275:277,1,379.500007238388,6|2,3:1|0:1,0:0:0:0:
223,230,93613,6,0,B|242:200|242:200|178:133|178:133|83:191|83:191|134:282|134:282|177:273,1,379.500007238388,12|0,3:1|0:0,0:0:0:0:
224,221,94027,6,0,B|254:240|254:240|321:176|321:176|262:81|262:81|172:132|172:132|181:175,1,379.500007238388,6|0,3:1|0:0,0:0:0:0:
233,222,94441,6,0,B|213:252|213:252|277:319|277:319|373:260|373:260|322:170|322:170|279:178,1,379.500007238388,12|0,3:1|0:0,0:0:0:0:
232,231,94854,6,0,B|205:255|205:255|232:345|232:345|194:391,1,165.000006294251,6|0,3:1|0:0,0:0:0:0:
68,287,95165,1,2,0:1:0:0:
78,276,95268,2,0,B|28:285|28:285|164:333,1,165.000006294251,12|2,3:1|0:1,0:0:0:0:
322,342,95578,5,2,0:3:0:0:
312,331,95682,1,4,3:1:0:0:
53,380,95889,1,2,0:3:0:0:
200,383,96096,5,12,3:1:0:0:
209,372,96199,2,0,B|232:345|232:345|205:255|205:255|232:231,1,165.000006294251,2|0,0:3|0:0,0:0:0:0:
190,120,96510,6,0,B|260:32|150:-26|53:-9|-8:182|73:-73|186:121,1,379.500007238388,6|2,3:1|0:1,0:0:0:0:
267,154,96923,6,0,B|354:224|413:114|396:17|203:-43|460:37|265:150,1,379.500007238388,12|0,3:1|0:0,0:0:0:0:
231,231,97337,6,0,B|160:317|269:377|367:360|428:167|347:424|234:229,1,379.500007238388,6|0,3:1|0:0,0:0:0:0:
154,196,97751,6,0,B|67:125|7:234|24:332|217:393|-39:312|155:199,1,379.500007238388,12|0,3:1|0:0,0:0:0:0:
231,231,98165,6,0,B|288:207|288:207|320:230|320:230|313:303,1,165.000006294251,6|0,3:1|0:0,0:0:0:0:
71,324,98475,5,2,0:1:0:0:
67,338,98578,2,0,B|98:365|98:365|230:337,1,165.000006294251,12|2,3:1|0:1,0:0:0:0:
390,384,98889,5,2,0:3:0:0:
386,370,98992,1,4,3:1:0:0:
512,196,99199,1,2,0:3:0:0:
310,307,99406,5,12,3:1:0:0:
313,293,99510,2,0,B|320:230|320:230|288:207|288:207|231:231,1,165.000006294251,2|0,0:3|0:0,0:0:0:0:
148,181,99820,6,0,B|133:127|65:129|65:129|125:21|239:66|239:66|181:82|181:181,1,379.500007238388,6|2,3:1|0:1,0:0:0:0:
143,192,100234,6,0,B|89:207|91:275|91:275|-17:215|28:101|28:101|44:159|143:159,1,379.500007238388,12|0,3:1|0:0,0:0:0:0:
154,197,100647,6,0,B|169:251|237:249|237:249|177:357|63:312|63:312|121:296|121:197,1,379.500007238388,6|0,3:1|0:0,0:0:0:0:
159,186,101061,6,0,B|213:171|211:103|211:103|319:163|274:277|274:277|258:219|159:219,1,379.500007238388,12|0,3:1|0:0,0:0:0:0:
148,181,101475,6,0,B|97:159|108:104|108:104|115:102|115:102|157:22,1,165.000006294251,6|0,3:1|0:0,0:0:0:0:
274,0,101785,5,2,0:1:0:0:
286,9,101889,2,0,B|319:43|319:43|290:100|290:100|186:77,1,165.000006294251,12|2,3:1|0:1,0:0:0:0:
76,0,102199,5,2,0:3:0:0:
64,9,102303,1,4,3:1:0:0:
228,205,102510,1,2,0:3:0:0:
155,55,102716,5,12,3:1:0:0:
143,46,102820,2,0,B|115:102|115:102|108:104|108:104|97:159|148:181,1,165.000006294251,2|0,0:3|0:0,0:0:0:0:
230,192,103130,6,0,B|277:160|277:160|279:153|279:153|78:233,1,275,6|0,3:1|0:0,0:0:0:0:
33,302,103441,5,2,0:1:0:0:
69,225,103544,2,0,B|223:162|223:162|228:157|228:157|370:99|370:99|266:68,1,412.5,12|0,3:1|0:0,0:0:0:0:
245,0,103958,6,0,B|140:92|140:92|146:95|146:95|210:369,1,412.5,6|0,3:1|0:0,0:0:0:0:
288,384,104372,1,12,3:1:0:0:
288,384,104785,6,0,B|298:351|298:351|407:317|407:317|419:213|419:213|338:152,1,330,6|2,3:1|0:1,0:0:0:0:
352,321,105199,6,0,B|397:306|397:306|407:218|407:218|340:168,1,220,12|2,3:1|0:1,0:0:0:0:
288,74,105510,5,10,0:3:0:0:
210,87,105613,2,0,B|160:107|160:107|216:101,1,110,4|0,3:1|0:0,0:0:0:0:
363,58,105820,2,0,B|414:39|414:39|359:46,1,110,10|0,0:3|0:0,0:0:0:0:
157,29,106027,5,12,3:1:0:0:
476,132,106234,1,8,2:3:0:0:
69,225,106441,6,0,B|45:251|45:251|71:352|71:352|101:331|101:331|69:225,1,275,6|0,3:1|0:0,0:0:0:0:
78,138,106751,5,2,0:1:0:0:
73,127,106854,2,0,B|61:113|61:113|74:63|74:63|89:73|89:73|73:127,1,137.5,12|0,3:1|0:0,0:0:0:0:
147,189,107061,6,0,B|157:179|157:179|197:190|197:190|189:201|189:201|147:189,1,110,2|0,0:1|0:0,0:0:0:0:
78,138,107268,6,0,B|-16:193|-16:193|-16:201|-16:201|292:97,1,412.5,6|0,3:1|0:0,0:0:0:0:
317,38,107682,1,12,3:1:0:0:
317,38,108096,6,0,B|291:45|291:45|261:219|261:219|289:241|289:241|274:339,1,330,6|2,3:1|0:1,0:0:0:0:
289,123,108510,6,0,B|273:215|273:215|301:237|301:237|411:170,1,220,12|2,3:1|0:1,0:0:0:0:
477,101,108820,5,10,0:3:0:0:
457,27,108923,2,0,B|437:-16|437:-16|423:-9|423:-9|449:51,1,110,4|0,3:1|0:0,0:0:0:0:
497,175,109130,2,0,B|517:218|517:218|531:212|531:212|505:150,1,110,10|0,0:3|0:0,0:0:0:0:
344,48,109337,5,12,3:1:0:0:
317,38,109440,1,2,0:3:0:0:
351,64,109544,1,8,2:3:0:0:
177,126,109751,6,0,B|107:84|107:84|103:76|103:76|279:130,1,275,6|0,3:1|0:0,0:0:0:0:
328,200,110061,5,2,0:1:0:0:
289,123,110165,2,0,B|179:89|179:89|176:84|176:84|28:36|28:36|-14:75|-14:75|24:165,1,412.5,12|0,3:1|0:0,0:0:0:0:
97,175,110578,6,0,B|-2:204|-2:204|-8:200|-8:200|245:24,1,412.5,6|0,3:1|0:0,0:0:0:0:
322,0,110992,1,12,3:1:0:0:
322,0,111406,6,0,B|371:46|371:46|333:182|333:182|340:204|340:204|238:261,1,330,6|2,3:1|0:1,0:0:0:0:
366,100,111820,6,0,B|343:181|343:181|351:209|351:209|235:274,1,220,12|2,3:1|0:1,0:0:0:0:
132,331,112130,5,10,0:3:0:0:
59,305,112234,2,0,B|18:292|18:292|14:281|14:281|23:274|23:274|62:294,1,110,4|0,3:1|0:0,0:0:0:0:
205,357,112441,2,0,B|246:370|246:370|250:381|250:381|241:388|241:388|203:367,1,110,10|0,0:3|0:0,0:0:0:0:
17,373,112647,5,12,3:1:0:0:
320,322,112854,1,8,2:3:0:0:
430,110,113061,6,0,B|464:89|464:89|482:29|482:29|464:-3|464:-3|428:15|428:15|411:76|411:76|430:110,1,275,6|0,3:1|0:0,0:0:0:0:
446,192,113372,5,2,0:1:0:0:
453,201,113475,2,0,B|452:222|452:222|470:244|470:244|490:245|490:245|493:226|493:226|474:202|474:202|453:201,1,137.5,12|0,3:1|0:0,0:0:0:0:
370,167,113682,6,0,B|357:157|357:157|334:160|334:160|325:174|325:174|337:184|337:184|361:180|361:180|370:167,1,110,2|0,0:1|0:0,0:0:0:0:
446,192,113889,6,0,B|514:202|514:202|521:197|521:197|280:80|280:80|277:73|277:73|337:62,1,412.5,6|0,3:1|0:0,0:0:0:0:
394,0,114303,1,12,3:1:0:0:
394,0,114716,6,0,B|356:22|356:22|326:148|326:148|146:237,1,330,6|2,3:1|0:1,0:0:0:0:
349,94,115130,6,0,B|335:155|335:155|281:181|281:181|193:114,1,220,12|2,3:1|0:1,0:0:0:0:
59,129,115441,5,10,0:3:0:0:
71,53,115544,2,0,B|67:18|67:18|88:9|103:26|103:26|83:56,1,110,4|0,3:1|0:0,0:0:0:0:
45,206,115751,2,0,B|50:240|50:240|29:249|14:232|14:232|35:202,1,110,10|0,0:3|0:0,0:0:0:0:
233,11,115958,5,12,3:1:0:0:
207,19,116061,1,2,0:3:0:0:
215,30,116165,2,0,B|218:37|218:37|278:58,1,55,8|4,2:3|0:0,0:0:0:0:
