osu file format v14

[General]
AudioFilename: audio.mp3
AudioLeadIn: 0
PreviewTime: 30199
Countdown: 0
SampleSet: Soft
StackLeniency: 0.3
Mode: 0
LetterboxInBreaks: 0
WidescreenStoryboard: 1

[Editor]
Bookmarks: 510,5475,8268,8785,13751,20372,26992,30303,43544,56785,70027,76647,83268,89889,103130,116372
DistanceSpacing: 1
BeatDivisor: 4
GridSize: 32
TimelineZoom: 1.5

[Metadata]
Title:ZETRAKORE XAOS DA JUMPING GARGOYLZ
TitleUnicode:ZETRAKORE XAOS DA JUMPING GARGOYLZ
Artist:DJ GYROTTA ZAO
ArtistUnicode:DJ 6YRథ్‌٣٣A ЗАО
Creator:Nytrocide_
Version:GO AGNE COLLAB INSANE
Source:
Tags:nytro ganyumymommy jayblue gygy hytaa jurme angry burak velamy yabujin electronic hardcore hardstyle jumpstyle instrumental mortal kombat iii 3 nocturnal atmospheric chaos gargoyles 1.6 the pistols of nature naturepistols2009 6YROTTA
BeatmapID:3989136
BeatmapSetID:1929434

[Difficulty]
HPDrainRate:5
CircleSize:4
OverallDifficulty:8
ApproachRate:9
SliderMultiplier:1.72
SliderTickRate:1

[Events]
//Background and Video events
0,0,"the zao.jpg",0,0
//Break Periods
2,5475,7668
2,70226,76047
//Storyboard Layer 0 (Background)
//Storyboard Layer 1 (Fail)
//Storyboard Layer 2 (Pass)
//Storyboard Layer 3 (Foreground)
//Storyboard Layer 4 (Overlay)
//Storyboard Sound Samples

[TimingPoints]
510,413.793103448276,4,2,2,69,1,0
510,-100,4,2,2,69,0,0
5475,-100,4,2,2,69,0,0
8268,-80,4,2,2,69,0,0
8785,-133.333333333333,4,2,1,69,0,0
11249,-133.333333333333,4,2,1,69,0,0
11916,-133.333333333333,4,2,1,69,0,0
12249,-133.333333333333,4,2,1,69,0,0
13249,-133.333333333333,4,2,1,69,0,0
13416,-133.333333333333,4,2,1,69,0,0
13582,-133.333333333333,4,2,1,69,0,0
13751,-100,4,2,1,69,0,0
14582,-100,4,2,1,69,0,0
14916,-100,4,2,1,69,0,0
17249,-100,4,2,1,69,0,0
17582,-100,4,2,1,69,0,0
18582,-100,4,2,1,69,0,0
18749,-100,4,2,1,69,0,0
18916,-100,4,2,1,69,0,0
19082,-100,4,2,1,69,0,0
19916,-100,4,2,1,69,0,0
20372,-80,4,2,1,69,0,0
20416,-80,4,2,1,69,0,0
21916,-80,4,2,1,69,0,0
26992,-133.333333333333,4,2,1,69,0,0
27406,-133.333333333333,4,2,1,59,0,0
27820,-133.333333333333,4,2,1,49,0,0
28234,-133.333333333333,4,2,1,39,0,0
28647,-133.333333333333,4,2,1,29,0,0
29061,-133.333333333333,4,2,1,19,0,0
30303,-52.6315789473684,4,2,1,79,0,0
32582,-52.6315789473684,4,2,1,79,0,0
32916,-52.6315789473684,4,2,1,79,0,0
38582,-52.6315789473684,4,2,1,79,0,0
39249,-52.6315789473684,4,2,1,79,0,0
39820,-125,4,2,1,79,0,0
39916,-125,4,2,1,79,0,0
40234,-52.6315789473684,4,2,1,79,0,0
40582,-52.6315789473684,4,2,1,79,0,0
41889,-66.6666666666667,4,2,1,79,0,0
42044,-66.6666666666667,4,2,1,5,0,0
42096,-66.6666666666667,4,2,1,79,0,0
42458,-66.6666666666667,4,2,1,5,0,0
42510,-66.6666666666667,4,2,1,79,0,0
42582,-66.6666666666667,4,2,1,79,0,0
42916,-66.6666666666667,4,2,1,79,0,0
43082,-66.6666666666667,4,2,1,79,0,0
43249,-66.6666666666667,4,2,1,79,0,0
43544,-66.6666666666667,4,2,22,79,0,0
43582,-66.6666666666667,4,2,22,79,0,0
43916,-66.6666666666667,4,2,22,79,0,0
44249,-66.6666666666667,4,2,22,79,0,0
44372,-58.8235294117647,4,2,22,79,0,0
44582,-58.8235294117647,4,2,22,79,0,0
44916,-58.8235294117647,4,2,22,79,0,0
45199,-55.5555555555556,4,2,22,79,0,0
45249,-55.5555555555556,4,2,22,79,0,0
45582,-55.5555555555556,4,2,22,79,0,0
45613,-58.8235294117647,4,2,22,79,0,0
45916,-58.8235294117647,4,2,22,79,0,0
46249,-58.8235294117647,4,2,22,79,0,0
46441,-66.6666666666667,4,2,22,79,0,0
46582,-66.6666666666667,4,2,22,79,0,0
46916,-66.6666666666667,4,2,22,79,0,0
47249,-66.6666666666667,4,2,22,79,0,0
47582,-66.6666666666667,4,2,22,79,0,0
47916,-66.6666666666667,4,2,22,79,0,0
48249,-66.6666666666667,4,2,22,79,0,0
48582,-66.6666666666667,4,2,22,79,0,0
48916,-66.6666666666667,4,2,22,79,0,0
49249,-66.6666666666667,4,2,22,79,0,0
49337,-55.5555555555556,4,2,2,79,0,0
49582,-55.5555555555556,4,2,2,79,0,0
49916,-55.5555555555556,4,2,2,79,0,0
50165,-50,4,2,22,79,0,0
50249,-50,4,2,22,79,0,0
50578,-66.6666666666667,4,2,22,79,0,0
50582,-66.6666666666667,4,2,22,79,0,0
50916,-66.6666666666667,4,2,22,79,0,0
51249,-66.6666666666667,4,2,22,79,0,0
51582,-66.6666666666667,4,2,22,79,0,0
51820,-55.5555555555556,4,2,22,79,0,0
51916,-55.5555555555556,4,2,22,79,0,0
52582,-55.5555555555556,4,2,22,79,0,0
53475,-66.6666666666667,4,2,22,79,0,0
53916,-66.6666666666667,4,2,22,79,0,0
54249,-66.6666666666667,4,2,22,79,0,0
54416,-66.6666666666667,4,2,22,79,0,0
54916,-66.6666666666667,4,2,22,79,0,0
55082,-66.6666666666667,4,2,22,79,0,0
55285,-66.6666666666667,4,2,22,5,0,0
55337,-66.6666666666667,4,2,22,79,0,0
55582,-66.6666666666667,4,2,22,79,0,0
55699,-66.6666666666667,4,2,22,5,0,0
55751,-66.6666666666667,4,2,22,79,0,0
55958,-66.6666666666667,4,2,2,79,0,0
56249,-66.6666666666667,4,2,2,79,0,0
56416,-66.6666666666667,4,2,2,79,0,0
56785,-66.6666666666667,4,2,22,79,0,0
56916,-47.6190476190476,4,2,22,79,0,0
57082,-66.6666666666667,4,2,22,79,0,0
57582,-47.6190476190476,4,2,22,79,0,0
57749,-47.6190476190476,4,2,22,79,0,0
57768,-47.6190476190476,4,2,22,5,0,0
57820,-66.6666666666667,4,2,22,79,0,0
58499,-47.6190476190476,4,2,22,79,0,0
58582,-47.6190476190476,4,2,22,79,0,0
58749,-47.6190476190476,4,2,22,79,0,0
58916,-47.6190476190476,4,2,22,79,0,0
59082,-47.6190476190476,4,2,22,79,0,0
59249,-133.333333333333,4,2,22,79,0,0
59582,-133.333333333333,4,2,22,79,0,0
59749,-47.6190476190476,4,2,22,79,0,0
60249,-47.6190476190476,4,2,22,79,0,0
60416,-47.6190476190476,4,2,22,79,0,0
60916,-66.6666666666667,4,2,22,79,0,0
61082,-66.6666666666667,4,2,22,79,0,0
61582,-47.6190476190476,4,2,22,79,0,0
61749,-47.6190476190476,4,2,22,79,0,0
62249,-47.6190476190476,4,2,22,79,0,0
62416,-47.6190476190476,4,2,22,79,0,0
62578,-47.6190476190476,4,2,2,79,0,0
62916,-47.6190476190476,4,2,2,79,0,0
63082,-47.6190476190476,4,2,2,79,0,0
63406,-66.6666666666667,4,2,22,79,0,0
63832,-66.6666666666667,4,2,22,79,0,0
63916,-66.6666666666667,4,2,22,79,0,0
64082,-66.6666666666667,4,2,22,79,0,0
64249,-66.6666666666667,4,2,22,79,0,0
64389,-66.6666666666667,4,2,22,5,0,0
64416,-66.6666666666667,4,2,22,5,0,0
64441,-66.6666666666667,4,2,22,79,0,0
64582,-66.6666666666667,4,2,22,79,0,0
64916,-66.6666666666667,4,2,22,79,0,0
65061,-400,4,2,23,79,0,0
65082,-66.6666666666667,4,2,23,79,0,0
65268,-66.6666666666667,4,2,22,79,0,0
65582,-66.6666666666667,4,2,22,79,0,0
65749,-66.6666666666667,4,2,22,79,0,0
66249,-66.6666666666667,4,2,22,79,0,0
66416,-66.6666666666667,4,2,22,79,0,0
66716,-200,4,2,23,79,0,0
66916,-66.6666666666667,4,2,23,79,0,0
67027,-66.6666666666667,4,2,22,79,0,0
67082,-66.6666666666667,4,2,22,79,0,0
67582,-66.6666666666667,4,2,22,79,0,0
67749,-66.6666666666667,4,2,22,79,0,0
68249,-66.6666666666667,4,2,22,79,0,0
68372,-66.6666666666667,4,2,23,79,0,0
68416,-66.6666666666667,4,2,23,79,0,0
68527,-66.6666666666667,4,2,23,5,0,0
68578,-133.333333333333,4,2,23,79,0,0
68785,-66.6666666666667,4,2,22,79,0,0
68941,-66.6666666666667,4,2,22,5,0,0
68992,-133.333333333333,4,2,22,79,0,0
69166,-66.6666666666667,4,2,22,79,0,0
69199,-47.6190476190476,4,2,2,79,0,0
69249,-47.6190476190476,4,2,2,79,0,0
69416,-66.6666666666667,4,2,2,79,0,0
69582,-66.6666666666667,4,2,2,79,0,0
69749,-66.6666666666667,4,2,2,79,0,0
69916,-66.6666666666667,4,2,2,79,0,0
70027,-66.6666666666667,4,2,23,69,0,0
70249,-66.6666666666667,4,2,23,69,0,0
70337,-66.6666666666667,4,2,22,59,0,0
70416,-66.6666666666667,4,2,22,59,0,0
70916,-66.6666666666667,4,2,22,59,0,0
71082,-66.6666666666667,4,2,22,59,0,0
71582,-66.6666666666667,4,2,22,59,0,0
71749,-66.6666666666667,4,2,22,59,0,0
72249,-66.6666666666667,4,2,22,59,0,0
72416,-66.6666666666667,4,2,22,59,0,0
72582,-66.6666666666667,4,2,22,59,0,0
73749,-66.6666666666667,4,2,22,59,0,0
74499,-66.6666666666667,4,2,22,59,0,0
74582,-66.6666666666667,4,2,22,59,0,0
74749,-66.6666666666667,4,2,22,59,0,0
74916,-66.6666666666667,4,2,22,59,0,0
75082,-66.6666666666667,4,2,22,59,0,0
75249,-66.6666666666667,4,2,22,59,0,0
75916,-66.6666666666667,4,2,22,59,0,0
76249,-66.6666666666667,4,2,22,59,0,0
76647,-200,4,2,22,59,0,0
77249,-200,4,2,22,59,0,0
77749,-200,4,2,22,59,0,0
78582,-200,4,2,22,59,0,0
78916,-200,4,2,22,59,0,0
81249,-200,4,2,22,59,0,0
81582,-200,4,2,22,59,0,0
82582,-200,4,2,22,59,0,0
83082,-200,4,2,22,59,0,0
83268,-133.333333333333,4,2,22,59,0,0
83916,-133.333333333333,4,2,22,59,0,0
84416,-133.333333333333,4,2,22,59,0,0
85916,-133.333333333333,4,2,22,59,0,0
89889,-50,4,2,5,79,0,0
90199,-50,4,2,5,79,0,0
90303,-50,4,2,5,79,0,0
90613,-50,4,2,5,79,0,0
90716,-50,4,2,55,79,0,0
91027,-50,4,2,55,79,0,0
91130,-50,4,2,55,79,0,0
91544,-66.6666666666667,4,2,5,79,0,0
93199,-50,4,2,5,79,0,0
93510,-50,4,2,5,79,0,0
93613,-50,4,2,5,79,0,0
93923,-50,4,2,5,79,0,0
94027,-50,4,2,55,79,0,0
94337,-50,4,2,55,79,0,0
94441,-50,4,2,55,79,0,0
94751,-50,4,2,55,79,0,0
94854,-66.6666666666667,4,2,5,79,0,0
96510,-50,4,2,5,79,0,0
96820,-50,4,2,5,79,0,0
96923,-50,4,2,5,79,0,0
97234,-50,4,2,5,79,0,0
97337,-50,4,2,55,79,0,0
97647,-50,4,2,55,79,0,0
97751,-50,4,2,55,79,0,0
98165,-50,4,2,5,79,0,0
99820,-50,4,2,5,79,0,0
100130,-50,4,2,5,79,0,0
100234,-50,4,2,5,79,0,0
100544,-50,4,2,5,79,0,0
100647,-50,4,2,55,79,0,0
100958,-50,4,2,55,79,0,0
101061,-50,4,2,55,79,0,0
101475,-50,4,2,5,79,0,0
103130,-47.6190476190476,4,2,5,79,0,0
103958,-47.6190476190476,4,2,55,79,0,0
104786,-47.6190476190476,4,2,5,79,0,0
107268,-47.6190476190476,4,2,55,79,0,0
108096,-47.6190476190476,4,2,5,79,0,0
110578,-47.6190476190476,4,2,55,79,0,0
111406,-47.6190476190476,4,2,5,79,0,0
113889,-47.6190476190476,4,2,55,79,0,0
114717,-47.6190476190476,4,2,5,79,0,0
116785,-47.6190476190476,4,2,1,73,0,0
117096,-47.6190476190476,4,2,1,67,0,0
117406,-47.6190476190476,4,2,1,61,0,0
117716,-47.6190476190476,4,2,1,55,0,0
118027,-47.6190476190476,4,2,1,49,0,0
118337,-47.6190476190476,4,2,1,43,0,0
118647,-47.6190476190476,4,2,1,37,0,0
118958,-47.6190476190476,4,2,1,31,0,0
119268,-47.6190476190476,4,2,1,25,0,0
119578,-47.6190476190476,4,2,1,19,0,0
119889,-47.6190476190476,4,2,1,13,0,0
120199,-47.6190476190476,4,2,1,7,0,0

[Colours]
Combo1 : 85,85,85
Combo2 : 170,239,101
Combo3 : 170,170,170
Combo4 : 43,170,0

[HitObjects]
356,113,510,5,4,0:0:0:0:
256,192,613,12,0,3820,0:0:0:0:
129,30,8268,6,0,B|207:-3|207:-3|212:0|212:0|127:132,1,215
131,113,8785,6,0,B|128:108|128:108|23:80,2,96.7500036907198,2|2|2,0:0|0:0|0:0,0:0:0:0:
177,179,9613,1,2,0:0:0:0:
177,179,10027,1,2,0:0:0:0:
374,64,10441,6,0,P|395:38|429:41,1,64.5000024604798,2|2,0:0|0:0,0:0:0:0:
437,48,10751,2,0,L|414:158,1,96.7500036907198,2|2,0:0|0:0,0:0:0:0:
417,142,11889,5,2,0:0:0:0:
336,195,12096,2,0,P|315:169|281:172,1,64.5000024604798,2|2,0:0|0:0,0:0:0:0:
273,179,12406,2,0,L|296:289,1,96.7500036907198,2|2,0:0|0:0,0:0:0:0:
421,372,13234,5,2,0:0:0:0:
431,384,13337,2,0,L|449:297,1,64.5000024604798,2|2,0:0|0:0,0:0:0:0:
512,232,13751,6,0,B|497:225|497:225|476:143,1,86,10|0,0:2|0:3,0:0:0:0:
487,140,14061,1,2,0:0:0:0:
487,140,14165,1,8,0:2:0:0:
395,49,14372,1,2,0:0:0:0:
320,154,14578,2,0,B|244:141|244:141|225:144|225:144|152:131,1,172,10|8,0:2|0:2,0:0:0:0:
55,104,15199,1,2,0:0:0:0:
90,237,15406,6,0,L|96:194,1,43,10|0,0:2|0:0,0:0:0:0:
150,130,15613,1,0,0:0:0:0:
164,119,15716,2,0,P|206:118|239:144,1,86,2|0,0:0|0:0,0:0:0:0:
244,165,16027,1,2,0:0:0:0:
169,227,16234,1,10,0:2:0:0:
408,336,16647,5,10,0:2:0:0:
336,307,16854,1,0,0:0:0:0:
286,366,17061,5,10,0:2:0:0:
192,285,17268,1,2,0:0:0:0:
180,272,17371,2,0,B|136:264|136:264|100:284,1,86,2|0,0:0|0:0,0:0:0:0:
88,298,17682,1,2,0:0:0:0:
0,214,17889,2,0,B|13:138|13:138|10:119|10:119|23:46,1,172,8|8,0:2|0:2,0:0:0:0:
105,1,18510,1,2,0:0:0:0:
172,121,18716,6,0,L|214:114,1,43,10|0,0:2|0:0,0:0:0:0:
296,137,18923,1,2,0:0:0:0:
309,125,19026,2,0,P|316:82|296:45,1,86,2|0,0:0|0:0,0:0:0:0:
298,28,19337,2,0,P|264:0|222:0,1,86,2|8,0:0|0:2,0:0:0:0:
428,79,19854,5,2,0:0:0:0:
444,72,19958,1,10,0:2:0:0:
497,137,20165,1,2,0:0:0:0:
389,216,20372,6,0,L|397:268,1,53.75,10|0,0:2|0:0,0:0:0:0:
443,344,20578,1,0,0:3:0:0:
434,357,20681,2,0,P|381:367|334:341,1,107.5,2|0,0:0|0:0,0:0:0:0:
326,329,20992,1,2,0:0:0:0:
397,269,21199,1,10,0:2:0:0:
185,239,21612,5,8,0:2:0:0:
216,307,21819,1,2,0:0:0:0:
161,359,22027,6,0,L|108:350,1,53.75,10|0,0:2|0:0,0:0:0:0:
39,294,22234,1,0,0:0:0:0:
26,284,22337,2,0,P|15:231|41:184,1,107.5,2|0,0:0|0:0,0:0:0:0:
55,178,22648,1,2,0:0:0:0:
0,105,22855,1,10,0:2:0:0:
195,18,23268,5,10,0:2:0:0:
121,0,23475,1,0,0:0:0:0:
90,68,23682,5,10,0:2:0:0:
184,130,23889,1,2,0:0:0:0:
196,142,23992,2,0,B|252:152|252:152|298:126,1,107.5,2|0,0:0|0:0,0:0:0:0:
301,111,24303,1,2,0:0:0:0:
227,33,24510,1,8,0:2:0:0:
479,174,24923,5,8,0:2:0:0:
395,151,25131,1,2,0:0:0:0:
344,220,25337,6,0,L|353:272,1,53.75,10|0,0:2|0:0,0:0:0:0:
390,354,25544,1,2,0:0:0:0:
377,365,25647,2,0,P|324:373|278:348,1,107.5,2|0,0:0|0:0,0:0:0:0:
262,351,25958,2,0,P|237:303|245:252,1,107.5,2|8,0:0|0:2,0:0:0:0:
462,89,26475,5,2,0:0:0:0:
446,82,26579,1,10,0:2:0:0:
395,151,26786,1,2,0:0:0:0:
494,260,26992,5,2,0:1:0:0:
256,192,27096,12,0,30096,0:0:0:0:
18,276,30303,6,0,B|43:262|43:262|150:287|150:287|166:318,1,163.399995636749,14|0,3:2|0:0,0:0:0:0:
172,330,30613,1,10,3:2:0:0:
172,330,30716,2,0,L|84:307,1,81.6999978183747,8|0,3:2|0:0,0:0:0:0:
48,171,30923,1,10,3:2:0:0:
48,171,31027,1,0,0:0:0:0:
48,171,31130,2,0,B|148:364|148:364|300:293,1,326.799991273499,10|8,3:2|3:2,0:0:0:0:
417,252,31751,2,0,L|495:274,1,81.6999978183747,2|0,0:0|0:0,0:0:0:0:
454,384,31958,6,0,B|387:205|387:205|388:199|388:199|357:110,1,245.099993455124,12|2,3:2|0:0,0:0:0:0:
355,142,32372,1,8,3:2:0:0:
468,54,32578,1,2,0:0:0:0:
212,48,32785,5,10,3:2:0:0:
319,242,32992,1,8,3:2:0:0:
202,39,33199,2,0,B|319:5|319:5|309:22|309:22|242:40,1,163.399995636749,10|0,3:2|0:0,0:0:0:0:
181,137,33613,6,0,B|58:171|58:171|15:152,1,163.399995636749,14|0,3:2|0:0,0:0:0:0:
12,146,33923,1,2,0:0:0:0:
12,146,34027,2,0,L|132:117,1,81.6999978183747,8|0,3:2|0:0,0:0:0:0:
209,221,34234,1,2,0:0:0:0:
209,221,34337,1,0,0:0:0:0:
209,221,34441,2,0,L|467:302,1,245.099993455124,8|0,3:2|0:0,0:0:0:0:
476,294,34854,2,0,B|436:282|436:282|319:365,1,163.399995636749,10|2,3:2|0:0,0:0:0:0:
319,376,35165,1,0,0:0:0:0:
319,376,35268,6,0,L|295:116,1,245.099993455124,14|2,3:2|0:0,0:0:0:0:
279,114,35682,1,8,3:2:0:0:
438,14,35889,1,2,0:0:0:0:
483,41,35992,1,8,3:2:0:0:
467,87,36096,1,8,3:3:0:0:
354,238,36406,5,8,2:3:0:0:
350,226,36510,1,8,3:3:0:0:
467,87,36716,1,4,2:3:0:0:
221,148,36923,6,0,B|196:134|196:134|89:159|89:159|73:190,1,163.399995636749,14|2,3:2|0:0,0:0:0:0:
74,208,37234,1,10,3:2:0:0:
74,208,37337,2,0,L|187:178,1,81.6999978183747,8|0,3:2|0:0,0:0:0:0:
273,59,37544,2,0,L|175:48,1,81.6999978183747,10|0,3:2|0:0,0:0:0:0:
12,94,37751,6,0,L|258:398,1,326.799991273499,10|8,3:2|3:2,0:0:0:0:
29,345,38372,1,2,0:0:0:0:
29,345,38475,1,0,0:0:0:0:
29,345,38578,6,0,B|91:325|91:325|144:308|144:308|198:291|198:291|252:273|252:273|297:258|297:258|320:260|320:260|387:239|387:239,1,326.799991273499,12|8,3:2|3:2,0:0:0:0:
454,361,39199,2,0,L|363:296,1,81.6999978183747,2|0,0:0|0:0,0:0:0:0:
305,184,39406,1,8,3:2:0:0:
490,241,39613,1,8,3:2:0:0:
292,182,39820,6,0,L|257:270,1,68.8,10|0,3:2|0:0,0:0:0:0:
286,354,40234,6,0,L|187:55,1,245.099993455124,14|2,3:2|0:0,0:0:0:0:
191,103,40647,1,8,3:2:0:0:
16,145,40854,2,0,L|155:177,1,81.6999978183747,2|0,0:0|0:0,0:0:0:0:
270,59,41061,2,0,B|346:38|346:38|381:132,1,163.399995636749,8|0,3:2|0:0,0:0:0:0:
362,142,41372,1,0,0:0:0:0:
362,142,41475,2,0,L|434:348,1,163.399995636749,10|2,3:2|0:0,0:0:0:0:
482,231,41889,6,0,L|407:200,1,64.5000024604798,14|0,3:2|0:0,0:0:0:0:
347,348,42096,2,0,L|271:370,1,64.5000024604798,2|2,3:2|0:0,0:0:0:0:
205,311,42303,2,0,L|139:289,1,64.5000024604798,12|0,3:2|0:0,0:0:0:0:
26,374,42510,1,2,3:2:0:0:
26,374,42613,1,8,3:2:0:0:
26,374,42716,5,8,3:3:0:0:
35,329,42820,1,0,3:2:0:0:
43,284,42923,1,0,3:2:0:0:
52,239,43027,1,8,3:3:0:0:
67,231,43130,5,8,3:3:0:0:
76,186,43234,1,0,3:2:0:0:
84,141,43337,1,4,3:3:0:0:
93,96,43441,1,0,3:2:0:0:
108,91,43544,6,0,B|161:110|161:110|221:69,1,129.00000492096,14|0,3:3|0:0,0:0:0:0:
281,2,43854,1,8,3:3:0:0:
281,2,43958,2,0,B|307:22|307:22|351:23,1,64.5000024604798,8|0,3:3|0:0,0:0:0:0:
416,92,44165,2,0,B|446:79|446:79|469:41,1,64.5000024604798,10|0,3:3|0:0,0:0:0:0:
304,123,44372,6,0,B|277:154|277:154|309:247|309:247|280:333,1,219.300004182816,10|0,3:3|0:0,0:0:0:0:
264,339,44785,1,10,3:3:0:0:
414,282,44992,1,2,2:3:0:0:
134,222,45199,6,0,B|113:201|88:190|88:190|285:262|197:249,1,232.199992913819,12|0,3:3|0:0,0:0:0:0:
138,364,45613,1,8,3:3:0:0:
6,295,45820,1,2,2:3:0:0:
169,128,46027,5,10,3:3:0:0:
272,183,46234,1,2,3:3:0:0:
199,249,46441,2,0,B|168:265|139:267|139:267|120:227|75:211|75:211|55:225|11:230,1,193.50000738144,10|0,3:3|0:0,0:0:0:0:
6,295,46854,6,0,P|11:280|43:129,1,129.00000492096,14|0,3:3|0:0,0:0:0:0:
130,115,47268,1,10,3:3:0:0:
60,31,47475,1,2,2:3:0:0:
284,0,47682,2,0,P|240:23|228:111,1,129.00000492096,10|2,3:3|2:3,0:0:0:0:
272,183,48096,2,0,P|313:209|396:175,1,129.00000492096,8|2,3:3|2:3,0:0:0:0:
512,157,48510,5,14,3:3:0:0:
500,145,48613,1,0,0:0:0:0:
432,94,48820,1,2,2:3:0:0:
444,82,48923,1,8,3:3:0:0:
483,0,49130,1,2,2:3:0:0:
349,39,49337,6,0,B|262:56|262:56|226:117,1,154.799995275879,8|0,3:3|3:0,0:0:0:0:
163,202,49647,1,8,2:3:0:0:
151,208,49751,2,0,B|97:184|97:184|97:159,1,77.3999976379395,8|0,3:3|0:0,0:0:0:0:
0,107,49958,2,0,B|54:83|54:83|54:58,1,77.3999976379395,4|0,2:3|0:0,0:0:0:0:
114,3,50165,6,0,L|66:268,1,258,14|8,3:3|3:3,0:0:0:0:
134,336,50578,2,0,B|149:344|149:344|223:324,1,64.5000024604798,8|0,3:3|0:0,0:0:0:0:
260,254,50785,2,0,B|275:246|275:246|349:266,1,64.5000024604798,10|0,3:3|0:0,0:0:0:0:
512,314,50992,6,0,B|465:315|465:315|394:376,1,129.00000492096,10|0,3:3|0:0,0:0:0:0:
285,147,51406,2,0,B|366:161|366:161|403:209,1,129.00000492096,10|2,3:3|2:3,0:0:0:0:
468,30,51820,6,0,B|489:9|513:-1|513:-1|317:70|404:57,1,232.199992913819,12|0,3:3|0:0,0:0:0:0:
483,107,52234,1,8,3:3:0:0:
415,196,52441,1,2,2:3:0:0:
174,45,52647,5,10,3:3:0:0:
287,23,52854,1,2,3:3:0:0:
246,125,53061,2,0,B|223:157|186:161|186:161|149:119|95:100|95:100|78:119|43:123,1,232.199992913819,10|0,3:3|0:0,0:0:0:0:
26,113,53475,6,0,P|-10:170|15:238,1,129.00000492096,14|0,3:3|0:0,0:0:0:0:
87,291,53889,1,10,3:3:0:0:
28,375,54096,1,2,2:3:0:0:
168,241,54303,6,0,B|176:263|176:263|278:287,1,129.00000492096,10|2,3:3|2:3,0:0:0:0:
375,374,54716,2,0,B|351:378|351:378|279:302,1,129.00000492096,8|2,3:3|2:3,0:0:0:0:
391,234,55130,5,14,3:3:0:0:
403,238,55234,1,0,0:0:0:0:
415,242,55337,2,0,B|451:253|451:253|419:267,1,64.5000024604798,0|2,3:0|2:3,0:0:0:0:
461,139,55544,5,8,3:3:0:0:
473,135,55648,1,0,0:0:0:0:
485,131,55751,2,0,B|520:118|520:118|502:148,1,64.5000024604798,2|0,2:3|3:0,0:0:0:0:
384,35,55958,5,8,3:3:0:0:
352,41,56061,1,0,3:0:0:0:
320,47,56165,1,0,3:0:0:0:
288,53,56268,1,8,3:3:0:0:
256,59,56372,2,0,B|239:35|239:35|237:-9,1,64.5000024604798,8|0,3:3|3:0,0:0:0:0:
352,125,56578,2,0,B|349:160|349:160|333:184,1,64.5000024604798,4|0,3:3|3:0,0:0:0:0:
207,226,56785,6,0,B|165:226|154:195|154:195|188:183|221:234,1,129.00000492096,14|0,3:3|0:0,0:0:0:0:
303,301,57096,1,8,3:3:0:0:
296,312,57199,2,0,B|273:335|273:335|224:341,1,64.5000024604798,8|0,3:3|0:0,0:0:0:0:
163,360,57406,2,0,B|186:337|186:337|235:331,1,64.5000024604798,8|2,2:3|0:3,0:0:0:0:
354,384,57613,6,0,B|387:352|387:352|413:182|413:182|453:139,1,270.899991732788,8|0,3:3|0:0,0:0:0:0:
460,136,58027,1,8,3:3:0:0:
317,192,58234,1,2,0:3:0:0:
380,55,58441,6,0,B|429:19|482:46|482:46|432:14|380:28,1,193.50000738144,12|0,3:3|0:0,0:0:0:0:
388,28,58854,1,10,3:3:0:0:
221,101,59061,1,0,0:0:0:0:
287,293,59268,6,0,L|303:331,1,32.2500012302399,8|0,3:3|0:0,0:0:0:0:
173,192,59475,2,0,L|132:187,1,32.2500012302399,2|0,3:3|0:0,0:0:0:0:
317,143,59682,2,0,L|341:109,1,32.2500012302399,10|0,3:3|0:0,0:0:0:0:
260,203,59889,5,0,0:0:0:0:
260,203,59992,1,0,0:0:0:0:
260,203,60096,2,0,B|241:183|241:183|63:155,1,180.599994488526,14|0,3:3|0:0,0:0:0:0:
17,272,60510,5,8,3:3:0:0:
32,264,60613,1,2,0:3:0:0:
118,354,60820,1,2,0:3:0:0:
128,342,60923,2,0,B|136:324|136:324|121:263,1,64.5000024604798,10|0,3:3|0:0,0:0:0:0:
169,213,61130,2,0,L|184:140,1,64.5000024604798,2|0,0:3|0:0,0:0:0:0:
245,94,61337,6,0,B|210:60|219:5|219:5|205:60|141:77,1,193.50000738144,10|0,3:3|0:0,0:0:0:0:
145,84,61751,2,0,B|192:91|192:91|199:98|199:98|277:110|277:110|285:106|285:106|357:117,1,180.599994488526,14|0,3:3|0:0,0:0:0:0:
332,107,62061,1,14,3:3:0:0:
410,38,62165,2,0,B|478:97|478:97|446:217,1,180.599994488526,10|0,3:3|0:0,0:0:0:0:
492,371,62578,6,0,P|400:348|438:266,1,180.599994488526,8|2,3:3|3:3,0:0:0:0:
425,280,62889,1,8,3:3:0:0:
367,363,62992,2,0,B|343:379|343:379|272:375,1,90.2999972442628,8|2,3:3|2:3,0:0:0:0:
119,349,63199,2,0,B|143:365|143:365|224:370,1,90.2999972442628,6|0,3:3|0:0,0:0:0:0:
250,168,63406,6,0,B|258:199|258:199|251:315,1,129.00000492096,14|0,3:3|0:0,0:0:0:0:
261,303,63716,1,8,3:3:0:0:
327,189,63820,2,0,P|313:221|258:234,1,64.5000024604798,8|0,3:3|0:0,0:0:0:0:
174,145,64027,2,0,P|188:113|243:100,1,64.5000024604798,8|2,2:3|0:3,0:0:0:0:
299,78,64234,6,0,B|275:86|275:86|128:72|128:72|78:85,1,193.50000738144,8|0,3:3|0:0,0:0:0:0:
97,85,64647,1,8,3:3:0:0:
0,0,64854,1,2,0:3:0:0:
65,164,65061,6,0,P|51:172|35:174,2,32.25,14|2|2,3:3|0:2|0:2,0:0:0:0:
172,192,65889,6,0,P|182:222|205:243,1,64.5000024604798,8|0,3:3|0:0,0:0:0:0:
222,363,66096,2,0,P|244:339|250:308,1,64.5000024604798,2|0,3:3|0:0,0:0:0:0:
119,326,66303,2,0,P|186:301|298:227,1,193.50000738144,10|0,3:3|0:0,0:0:0:0:
400,48,66716,6,0,P|430:55|452:78,2,64.5000024604798,14|2|2,3:3|0:2|0:2,0:0:0:0:
202,91,67544,6,0,L|276:118,1,64.5000024604798,10|0,3:3|0:0,0:0:0:0:
383,134,67751,2,0,L|322:156,1,64.5000024604798,2|0,0:3|0:0,0:0:0:0:
288,235,67958,2,0,B|294:156|294:156|284:134|284:134|291:21,1,193.50000738144,10|0,3:3|0:0,0:0:0:0:
373,244,68372,5,14,3:3:0:0:
391,240,68475,1,0,0:0:0:0:
408,236,68578,2,0,L|376:227,1,32.2500012302399,0|14,0:0|3:3,0:0:0:0:
211,197,68785,5,10,3:3:0:0:
175,189,68888,1,0,0:0:0:0:
139,181,68992,2,0,L|188:169,1,32.2500012302399,2|2,0:2|3:3,0:0:0:0:
288,235,69199,6,0,P|299:276|267:305,1,90.2999972442628,8|0,3:3|0:0,0:0:0:0:
198,384,69406,2,0,P|168:352|182:311,1,90.2999972442628,2|8,3:3|3:3,0:0:0:0:
336,359,69613,5,8,3:3:0:0:
384,356,69716,1,2,2:3:0:0:
419,325,69819,1,6,3:3:0:0:
429,278,69923,1,0,0:0:0:0:
408,236,70026,1,6,0:2:0:0:
142,162,76647,6,0,P|161:132|213:205,2,172,10|12|14,0:2|0:2|0:2,0:0:0:0:
440,287,79958,6,0,P|421:257|369:330,2,172,10|12|14,0:2|0:2|0:2,0:0:0:0:
84,314,83268,6,0,P|50:286|-2:271,2,96.7500036907198,10|2|0,0:2|0:2|0:0,0:0:0:0:
125,384,84096,2,0,P|148:366|194:344,2,64.5000024604798,12|0|8,0:2|0:0|0:2,0:0:0:0:
263,144,84923,6,0,B|287:159|287:159|310:232,1,96.7500036907198,14|2,0:2|0:2,0:0:0:0:
299,233,85337,2,0,B|278:167|278:167|254:152,1,96.7500036907198,8|2,0:2|0:3,0:0:0:0:
203,84,85751,2,0,L|131:71,2,64.5000024604798,8|2|8,0:2|0:3|0:2,0:0:0:0:
217,76,86268,1,2,0:3:0:0:
410,0,86578,6,0,P|446:15|442:78,1,96.7500036907198,10|2,0:2|0:2,0:0:0:0:
438,78,86992,2,0,P|437:124|478:145,1,96.7500036907198,8|0,0:2|0:0,0:0:0:0:
494,140,87406,1,12,0:2:0:0:
419,211,87613,1,0,0:0:0:0:
430,234,87820,1,8,0:2:0:0:
256,192,88234,12,0,89682,0:0:0:0:
380,162,89889,6,0,B|390:154|390:154|355:19|355:19|289:121,1,258,6|2,3:1|0:1,0:0:0:0:
231,199,90303,2,0,B|220:206|220:206|255:341|255:341|321:239,1,258,12|0,3:1|0:0,0:0:0:0:
282,99,90716,2,0,B|274:88|274:88|139:123|139:123|241:189,1,258,6|0,3:1|0:0,0:0:0:0:
329,262,91130,2,0,B|336:272|336:272|471:237|471:237|369:171,1,258,12|0,3:1|0:0,0:0:0:0:
292,83,91544,6,0,B|264:76|264:76|112:115,1,129.00000492096,6|0,3:1|0:0,0:0:0:0:
24,169,91854,1,2,0:1:0:0:
24,169,91958,2,0,B|39:142|39:142|56:196|114:216,1,129.00000492096,12|2,3:1|0:1,0:0:0:0:
263,210,92268,5,2,0:3:0:0:
206,261,92372,1,4,3:1:0:0:
206,261,92578,6,0,B|189:249|189:249|175:165,1,64.5000024604798,2|0,0:3|0:0,0:0:0:0:
307,338,92785,1,12,3:1:0:0:
307,338,92889,2,0,B|324:326|324:326|340:219|340:219,1,129.00000492096,2|0,0:3|0:0,0:0:0:0:
491,129,93199,6,0,B|512:127|540:144|540:144|477:154|437:202|437:202|429:154|383:134,1,258,6|2,3:1|0:1,0:0:0:0:
316,83,93613,2,0,B|314:62|331:34|331:34|341:97|389:137|389:137|341:145|321:191,1,258,12|0,3:1|0:0,0:0:0:0:
270,258,94027,2,0,B|249:260|221:243|221:243|284:233|324:185|324:185|332:233|378:253,1,258,6|0,3:1|0:0,0:0:0:0:
446,304,94441,2,0,B|448:325|431:353|431:353|421:290|373:250|373:250|421:242|441:196,1,258,12|0,3:1|0:0,0:0:0:0:
509,91,94854,6,0,B|498:55|464:40|464:40|488:67|476:121,1,129.00000492096,6|0,3:1|0:0,0:0:0:0:
307,173,95165,1,2,0:1:0:0:
307,173,95268,2,0,B|293:144|293:144|318:91|389:97,1,129.00000492096,12|2,3:1|0:1,0:0:0:0:
461,26,95578,5,2,0:3:0:0:
386,15,95682,1,4,3:1:0:0:
386,15,95889,6,0,P|389:52|381:77,1,64.5000024604798,2|0,0:3|0:0,0:0:0:0:
370,266,96096,1,12,3:1:0:0:
370,266,96199,2,0,B|353:270|353:270|349:201|296:165,1,129.00000492096,2|0,0:3|0:0,0:0:0:0:
160,48,96510,6,0,B|183:24|224:22|224:22|228:30|228:30|251:33|275:54|275:54|218:92|225:162,1,258,6|2,3:1|0:1,0:0:0:0:
338,96,96923,2,0,B|362:119|364:160|364:160|356:164|356:164|353:187|332:211|332:211|294:154|224:161,1,258,12|0,3:1|0:0,0:0:0:0:
290,274,97337,2,0,B|267:298|226:300|226:300|222:292|222:292|199:289|175:268|175:268|232:230|225:160,1,258,6|0,3:1|0:0,0:0:0:0:
112,226,97751,2,0,B|88:203|86:162|86:162|94:158|94:158|97:135|118:111|118:111|156:168|226:161,1,258,12|0,3:1|0:0,0:0:0:0:
444,82,98165,6,0,B|432:41|432:41|372:36|372:36|333:106,1,172,6|0,3:1|0:0,0:0:0:0:
444,207,98475,1,2,0:1:0:0:
444,207,98578,2,0,B|464:182|464:182|420:31,1,172,12|2,3:1|0:1,0:0:0:0:
272,37,98889,5,2,0:3:0:0:
332,91,98992,1,4,3:1:0:0:
332,91,99199,6,0,B|319:109|319:109|277:125|277:125|230:110,1,86,2|0,0:3|0:0,0:0:0:0:
98,10,99406,1,12,3:1:0:0:
98,10,99510,2,0,B|73:35|73:35|117:88|113:168,1,172,2|0,0:3|0:0,0:0:0:0:
87,333,99820,6,0,B|25:290|25:290|121:213|237:271,1,258,6|2,3:1|0:1,0:0:0:0:
291,296,100234,2,0,B|248:358|248:358|171:262|229:146,1,258,12|0,3:1|0:0,0:0:0:0:
253,90,100647,2,0,B|315:133|315:133|219:210|103:152,1,258,6|0,3:1|0:0,0:0:0:0:
49,127,101061,2,0,B|92:65|92:65|169:161|111:277,1,258,12|0,3:1|0:0,0:0:0:0:
51,357,101475,6,0,B|73:331|73:331|278:310,1,172,6|0,3:1|0:0,0:0:0:0:
209,223,101785,1,2,0:1:0:0:
209,223,101889,2,0,B|242:220|242:220|331:292|331:292|409:286,1,172,12|2,3:1|0:1,0:0:0:0:
434,216,102199,5,2,0:3:0:0:
356,210,102303,1,4,3:1:0:0:
356,210,102510,6,0,B|357:175|357:175|455:85,1,86,2|0,0:3|0:0,0:0:0:0:
503,0,102716,1,12,3:1:0:0:
510,78,102820,2,0,B|485:89|485:89|429:37|340:47,1,172,2|0,0:3|0:0,0:0:0:0:
160,71,103130,6,0,B|118:37|118:37|246:63,1,180.599994488526,6|0,3:1|0:0,0:0:0:0:
307,112,103441,1,2,0:1:0:0:
269,179,103544,2,0,B|141:203|141:203|133:211|133:211|7:235,1,270.899991732788,12|0,3:1|0:0,0:0:0:0:
13,244,103958,2,0,B|139:219|139:219|147:211|147:211|275:187,1,270.899991732788,6|0,3:1|0:0,0:0:0:0:
282,196,104372,5,12,3:1:0:0:
282,196,104785,6,0,P|350:197|322:280,1,180.599994488526,6|0,3:1|0:0,0:0:0:0:
264,364,105096,1,2,0:1:0:0:
264,364,105199,2,0,L|85:336,1,180.599994488526,12|2,3:1|0:1,0:0:0:0:
7,311,105510,1,10,0:3:0:0:
10,230,105613,6,0,B|3:185|3:185|23:147,1,90.2999972442628,4|0,3:1|0:0,0:0:0:0:
121,4,105820,2,0,B|141:42|141:42|133:88,1,90.2999972442628,10|0,0:3|0:0,0:0:0:0:
0,230,106027,2,0,B|-7:185|-7:185|13:147,1,90.2999972442628,12|0,3:1|0:0,0:0:0:0:
112,4,106234,2,0,B|132:42|132:42|124:88,1,90.2999972442628,8|0,2:3|0:0,0:0:0:0:
101,254,106441,6,0,B|188:273|188:273|276:230,1,180.599994488526,6|0,3:1|0:0,0:0:0:0:
312,162,106752,1,2,0:1:0:0:
250,93,106854,2,0,B|377:68|377:68|385:60|385:60|512:36,1,270.899991732788,12|0,3:1|0:0,0:0:0:0:
506,28,107268,2,0,B|379:52|379:52|371:60|371:60|243:84,1,270.899991732788,6|0,3:1|0:0,0:0:0:0:
234,75,107683,5,12,3:1:0:0:
234,75,108096,6,0,P|166:63|178:150,1,180.599994488526,6|0,3:1|0:0,0:0:0:0:
265,177,108407,1,2,0:1:0:0:
265,177,108510,6,0,B|311:143|311:143|255:260,1,180.599994488526,12|2,3:1|0:1,0:0:0:0:
181,283,108820,1,10,0:3:0:0:
215,356,108923,6,0,B|255:376|255:376|297:369,1,90.2999972442628,4|0,3:1|0:0,0:0:0:0:
486,221,109130,2,0,B|445:200|445:200|403:207,1,90.2999972442628,10|0,0:3|0:0,0:0:0:0:
211,365,109337,2,0,B|251:385|251:385|293:378,1,90.2999972442628,12|2,3:1|0:3,0:0:0:0:
490,212,109543,2,0,B|449:191|449:191|407:198,1,90.2999972442628,8|0,2:3|0:0,0:0:0:0:
299,368,109751,6,0,B|314:282|314:282|311:275|311:275|326:190,1,180.599994488526,6|0,3:1|0:0,0:0:0:0:
284,120,110061,1,2,0:1:0:0:
326,50,110165,2,0,B|351:177|351:177|360:184|360:184|384:312,1,270.899991732788,12|0,3:1|0:0,0:0:0:0:
394,302,110578,2,0,B|370:174|370:174|361:166|361:166|337:39,1,270.899991732788,6|0,3:1|0:0,0:0:0:0:
348,30,110992,5,12,3:1:0:0:
348,30,111406,6,0,P|411:-14|434:59,1,180.599994488526,6|0,3:1|0:0,0:0:0:0:
365,118,111717,1,2,0:1:0:0:
365,118,111820,2,0,B|318:109|318:109|205:212,1,180.599994488526,12|2,3:1|0:1,0:0:0:0:
327,252,112130,5,10,0:3:0:0:
354,338,112234,2,0,B|308:347|308:347|272:324,1,90.2999972442628,4|0,3:1|0:0,0:0:0:0:
220,198,112441,1,10,0:3:0:0:
431,174,112647,6,0,B|477:183|477:183|513:158,1,90.2999972442628,12|0,3:1|0:0,0:0:0:0:
456,86,112854,1,8,2:3:0:0:
199,365,113061,6,0,B|110:342|110:342|65:258,1,180.599994488526,6|0,3:1|0:0,0:0:0:0:
106,190,113372,1,2,0:1:0:0:
82,113,113475,2,0,B|57:240|57:240|48:247|48:247|24:375,1,270.899991732788,12|0,3:1|0:0,0:0:0:0:
12,365,113889,2,0,B|36:237|36:237|45:230|45:230|69:102,1,270.899991732788,6|0,3:1|0:0,0:0:0:0:
61,94,114303,5,12,3:1:0:0:
61,94,114716,6,0,P|87:21|150:67,1,180.599994488526,6|0,3:1|0:0,0:0:0:0:
129,160,115027,1,2,0:1:0:0:
129,160,115130,2,0,B|152:143|152:143|306:180,1,180.599994488526,12|2,3:1|0:1,0:0:0:0:
403,270,115441,5,10,0:3:0:0:
403,350,115544,2,0,P|366:353|352:279,1,90.2999972442628,4|0,3:1|0:0,0:0:0:0:
300,178,115751,1,10,0:3:0:0:
448,137,115958,6,0,P|491:138|512:101,1,90.2999972442628,12|2,3:1|0:3,0:0:0:0:
445,55,116164,1,8,2:3:0:0:
256,262,116372,5,4,0:0:0:0:
