osu file format v14

[General]
AudioFilename: audio.mp3
AudioLeadIn: 0
PreviewTime: 132610
Countdown: 0
SampleSet: Normal
StackLeniency: 0.7
Mode: 1
LetterboxInBreaks: 0
WidescreenStoryboard: 1

[Editor]
Bookmarks: 1125,12096,17582,23067,28553,34039,45010,55982,61467,66953,72439,83410,94382,105353,110839,121810,127296,132782,143753,154725,165696
DistanceSpacing: 1.2
BeatDivisor: 2
GridSize: 32
TimelineZoom: 1.8

[Metadata]
Title:Hot Right Now (Radio Edit)
TitleUnicode:Hot Right Now (Radio Edit)
Artist:DJ Fresh feat. Rita Ora
ArtistUnicode:DJ Fresh feat. Rita Ora
Creator:gaston_2199
Version:Stingy's Oni
Source:
Tags:drum and bass dnb Nextlevelism Stingy electronic english
BeatmapID:2446994
BeatmapSetID:575072

[Difficulty]
HPDrainRate:5.5
CircleSize:2
OverallDifficulty:5.5
ApproachRate:10
SliderMultiplier:1.4
SliderTickRate:1

[Events]
//Background and Video events
0,0,"BG.jpg",0,111
//Break Periods
2,111039,121360
//Storyboard Layer 0 (Background)
//Storyboard Layer 1 (Fail)
//Storyboard Layer 2 (Pass)
//Storyboard Layer 3 (Foreground)
//Storyboard Layer 4 (Overlay)
//Storyboard Sound Samples

[TimingPoints]
1125,342.857142857143,4,1,0,60,1,0
1125,-133.333333333333,4,1,0,60,0,0
3865,-132.275132275132,4,1,0,61,0,0
4208,-131.233595800525,4,1,0,62,0,0
4380,-130.208333333333,4,1,0,62,0,0
4551,-129.198966408269,4,1,0,63,0,0
4894,-128.205128205128,4,1,0,64,0,0
5237,-127.226463104326,4,1,0,65,0,0
5580,-126.262626262626,4,1,0,66,0,0
5751,-125.31328320802,4,1,0,66,0,0
5923,-124.378109452736,4,1,0,67,0,0
6265,-123.456790123457,4,1,0,68,0,0
6951,-122.549019607843,4,1,0,69,0,0
7123,-121.654501216545,4,1,0,70,0,0
7294,-120.772946859903,4,1,0,70,0,0
7637,-119.904076738609,4,1,0,71,0,0
8323,-118.203309692671,4,1,0,73,0,0
8494,-117.370892018779,4,1,0,74,0,0
8665,-116.550116550117,4,1,0,74,0,0
9008,-115.740740740741,4,1,0,75,0,0
9351,-114.942528735632,4,1,0,76,0,0
9694,-114.155251141553,4,1,0,77,0,0
9865,-113.378684807256,4,1,0,78,0,0
10037,-112.612612612613,4,1,0,78,0,0
10380,-111.856823266219,4,1,0,79,0,0
10723,-111.111111111111,4,1,0,80,0,0
12094,-125,4,1,0,80,0,0
28894,-123.762376237624,4,1,0,80,0,0
29065,-122.549019607843,4,1,0,80,0,0
29237,-121.359223300971,4,1,0,80,0,0
29408,-120.192307692308,4,1,0,80,0,0
29580,-119.047619047619,4,1,0,80,0,0
29923,-117.924528301887,4,1,0,80,0,0
30265,-116.822429906542,4,1,0,80,0,0
30608,-115.740740740741,4,1,0,80,0,0
30951,-114.678899082569,4,1,0,80,0,0
31294,-113.636363636364,4,1,0,80,0,0
31980,-112.612612612613,4,1,0,80,0,0
32665,-111.607142857143,4,1,0,80,0,0
32751,-110.619469026549,4,1,0,80,0,0
32837,-109.649122807018,4,1,0,80,0,0
32923,-108.695652173913,4,1,0,80,0,0
33008,-107.758620689655,4,1,0,80,0,0
33180,-106.837606837607,4,1,0,80,0,0
33351,-105.042016806723,4,1,0,80,0,0
33437,-104.166666666667,4,1,0,80,0,0
33523,-103.305785123967,4,1,0,80,0,0
33608,-102.459016393443,4,1,0,80,0,0
33694,-101.626016260163,4,1,0,80,0,0
33865,-100.806451612903,4,1,0,80,0,0
34039,-100,4,1,0,90,0,1
55982,-100,4,1,0,80,0,0
77921,-125,4,1,0,80,0,0
78263,-123.655913978495,4,1,0,80,0,0
78606,-122.340425531915,4,1,0,80,0,0
78949,-121.052631578947,4,1,0,80,0,0
79292,-119.791666666667,4,1,0,80,0,0
79634,-118.556701030928,4,1,0,80,0,0
79977,-117.34693877551,4,1,0,80,0,0
80320,-116.161616161616,4,1,0,80,0,0
80663,-115,4,1,0,80,0,0
81351,-113.861386138614,4,1,0,80,0,0
82034,-112.745098039216,4,1,0,80,0,0
82120,-111.650485436893,4,1,0,80,0,0
82206,-110.576923076923,4,1,0,80,0,0
82292,-109.52380952381,4,1,0,80,0,0
82377,-108.490566037736,4,1,0,80,0,0
82549,-107.476635514019,4,1,0,80,0,0
82720,-105.504587155963,4,1,0,80,0,0
82806,-104.545454545455,4,1,0,80,0,0
82892,-103.603603603604,4,1,0,80,0,0
82977,-102.678571428571,4,1,0,80,0,0
83063,-101.769911504425,4,1,0,80,0,0
83234,-100.877192982456,4,1,0,80,0,0
83410,-100,4,1,0,90,0,1
105353,-100,4,1,0,60,0,0
106296,-102.040816326531,4,1,0,60,0,0
106639,-104.166666666667,4,1,0,60,0,0
107667,-106.382978723404,4,1,0,60,0,0
108010,-108.695652173913,4,1,0,60,0,0
109039,-111.111111111111,4,1,0,60,0,0
109382,-113.636363636364,4,1,0,60,0,0
109896,-116.279069767442,4,1,0,60,0,0
110835,-120.481927710843,4,1,0,80,0,0
121808,-125,4,1,0,80,0,0
127636,-123.655913978495,4,1,0,80,0,0
127979,-122.340425531915,4,1,0,80,0,0
128322,-121.052631578947,4,1,0,80,0,0
128665,-119.791666666667,4,1,0,80,0,0
129007,-118.556701030928,4,1,0,80,0,0
129350,-117.34693877551,4,1,0,80,0,0
129693,-116.161616161616,4,1,0,80,0,0
130036,-115,4,1,0,80,0,0
130724,-113.861386138614,4,1,0,80,0,0
131407,-112.745098039216,4,1,0,80,0,0
131493,-111.650485436893,4,1,0,80,0,0
131579,-110.576923076923,4,1,0,80,0,0
131665,-109.52380952381,4,1,0,80,0,0
131750,-108.490566037736,4,1,0,80,0,0
131922,-107.476635514019,4,1,0,80,0,0
132053,-106.382978723404,4,1,0,80,0,0
132139,-105.263157894737,4,1,0,80,0,0
132225,-104.166666666667,4,1,0,80,0,0
132310,-103.603603603604,4,1,0,80,0,0
132396,-101.769911504425,4,1,0,80,0,0
132567,-100.877192982456,4,1,0,80,0,0
132782,-100,4,1,0,90,0,1
154725,-100,4,1,0,80,0,0

[HitObjects]
256,192,1125,5,0,0:0:0:0:
256,192,1467,1,0,0:0:0:0:
256,192,1639,1,0,0:0:0:0:
256,192,1810,1,8,0:0:0:0:
256,192,2153,1,0,0:0:0:0:
256,192,2839,1,0,0:0:0:0:
256,192,3010,1,0,0:0:0:0:
256,192,3182,1,8,0:0:0:0:
256,192,3525,1,0,0:0:0:0:
256,192,3867,1,8,0:0:0:0:
256,192,4210,1,0,0:0:0:0:
256,192,4382,1,0,0:0:0:0:
256,192,4553,1,8,0:0:0:0:
256,192,4896,1,0,0:0:0:0:
256,192,5239,1,8,0:0:0:0:
256,192,5582,1,0,0:0:0:0:
256,192,5753,1,0,0:0:0:0:
256,192,5925,1,8,0:0:0:0:
256,192,6267,1,0,0:0:0:0:
256,192,6953,1,0,0:0:0:0:
256,192,7125,1,8,0:0:0:0:
256,192,7296,1,8,0:0:0:0:
256,192,7639,1,0,0:0:0:0:
256,192,8325,1,0,0:0:0:0:
256,192,8496,1,8,0:0:0:0:
256,192,8667,1,8,0:0:0:0:
256,192,9010,1,0,0:0:0:0:
256,192,9353,1,8,0:0:0:0:
256,192,9696,1,0,0:0:0:0:
256,192,9867,1,8,0:0:0:0:
256,192,10039,1,8,0:0:0:0:
256,192,10382,1,0,0:0:0:0:
256,192,10725,1,8,0:0:0:0:
256,192,11239,1,8,0:0:0:0:
256,192,12096,1,0,0:0:0:0:
256,192,12439,1,8,0:0:0:0:
256,192,12610,1,8,0:0:0:0:
256,192,12782,1,0,0:0:0:0:
256,192,12953,1,8,0:0:0:0:
256,192,13125,1,8,0:0:0:0:
256,192,13296,1,8,0:0:0:0:
256,192,13467,1,0,0:0:0:0:
256,192,13810,1,8,0:0:0:0:
256,192,14153,1,0,0:0:0:0:
256,192,14496,1,8,0:0:0:0:
256,192,15182,1,8,0:0:0:0:
256,192,15353,1,8,0:0:0:0:
256,192,15525,1,0,0:0:0:0:
256,192,15696,1,0,0:0:0:0:
256,192,15867,1,8,0:0:0:0:
256,192,16039,1,0,0:0:0:0:
256,192,16210,1,0,0:0:0:0:
256,192,16553,1,0,0:0:0:0:
256,192,16896,1,8,0:0:0:0:
256,192,17239,1,0,0:0:0:0:
256,192,17925,1,8,0:0:0:0:
256,192,18096,1,0,0:0:0:0:
256,192,18439,1,8,0:0:0:0:
256,192,18610,1,0,0:0:0:0:
256,192,19296,1,0,0:0:0:0:
256,192,19982,1,0,0:0:0:0:
256,192,20667,1,8,0:0:0:0:
256,192,20839,1,0,0:0:0:0:
256,192,21182,1,8,0:0:0:0:
256,192,21353,1,0,0:0:0:0:
256,192,22039,1,8,0:0:0:0:
256,192,22382,1,8,0:0:0:0:
256,192,22725,1,0,0:0:0:0:
256,192,23067,1,0,0:0:0:0:
256,192,23410,1,8,0:0:0:0:
256,192,23582,1,8,0:0:0:0:
256,192,23753,1,0,0:0:0:0:
256,192,23925,1,0,0:0:0:0:
256,192,24096,1,8,0:0:0:0:
256,192,24267,1,0,0:0:0:0:
256,192,24439,1,8,0:0:0:0:
256,192,24782,1,8,0:0:0:0:
256,192,25125,1,0,0:0:0:0:
256,192,25467,1,8,0:0:0:0:
256,192,26153,1,8,0:0:0:0:
256,192,26325,1,8,0:0:0:0:
256,192,26496,1,8,0:0:0:0:
256,192,26667,1,0,0:0:0:0:
256,192,26839,1,0,0:0:0:0:
256,192,27010,1,8,0:0:0:0:
256,192,27182,1,0,0:0:0:0:
256,192,27525,1,0,0:0:0:0:
256,192,27867,1,8,0:0:0:0:
256,192,28210,1,0,0:0:0:0:
256,192,28553,1,0,0:0:0:0:
256,192,28896,1,8,0:0:0:0:
256,192,29067,1,0,0:0:0:0:
256,192,29239,1,0,0:0:0:0:
256,192,29410,1,8,0:0:0:0:
256,192,29582,1,0,0:0:0:0:
256,192,29925,1,0,0:0:0:0:
256,192,30267,1,8,0:0:0:0:
256,192,30610,1,0,0:0:0:0:
256,192,30953,1,8,0:0:0:0:
256,192,31296,1,0,0:0:0:0:
256,192,31467,1,0,0:0:0:0:
256,192,31639,1,8,0:0:0:0:
256,192,31810,1,0,0:0:0:0:
256,192,31982,1,0,0:0:0:0:
256,192,32153,1,8,0:0:0:0:
256,192,32325,1,0,0:0:0:0:
256,192,32496,1,0,0:0:0:0:
256,192,32667,1,8,0:0:0:0:
256,192,32753,1,8,0:0:0:0:
256,192,32839,1,0,0:0:0:0:
256,192,32925,1,0,0:0:0:0:
256,192,33010,1,8,0:0:0:0:
256,192,33182,1,8,0:0:0:0:
256,192,33353,1,0,0:0:0:0:
256,192,33439,1,0,0:0:0:0:
256,192,33525,1,0,0:0:0:0:
256,192,33610,1,0,0:0:0:0:
256,192,33696,1,8,0:0:0:0:
256,192,33867,1,0,0:0:0:0:
256,192,34039,1,4,0:0:0:0:
256,192,34210,1,0,0:0:0:0:
256,192,34382,1,8,0:0:0:0:
256,192,34553,1,8,0:0:0:0:
256,192,34639,1,8,0:0:0:0:
256,192,34725,1,8,0:0:0:0:
256,192,34810,1,8,0:0:0:0:
256,192,34896,1,0,0:0:0:0:
256,192,35067,1,8,0:0:0:0:
256,192,35239,1,8,0:0:0:0:
256,192,35410,1,0,0:0:0:0:
256,192,35753,1,8,0:0:0:0:
256,192,35925,1,0,0:0:0:0:
256,192,36096,1,8,0:0:0:0:
256,192,36182,1,8,0:0:0:0:
256,192,36267,1,0,0:0:0:0:
256,192,36439,1,8,0:0:0:0:
256,192,36782,1,0,0:0:0:0:
256,192,37125,1,8,0:0:0:0:
256,192,37296,1,0,0:0:0:0:
256,192,37467,1,8,0:0:0:0:
256,192,37553,1,8,0:0:0:0:
256,192,37639,1,0,0:0:0:0:
256,192,37810,1,8,0:0:0:0:
256,192,37982,1,0,0:0:0:0:
256,192,38153,1,0,0:0:0:0:
256,192,38496,1,8,0:0:0:0:
256,192,38753,1,8,0:0:0:0:
256,192,38839,1,0,0:0:0:0:
256,192,39010,1,0,0:0:0:0:
256,192,39182,1,8,0:0:0:0:
256,192,39353,1,8,0:0:0:0:
256,192,39525,1,0,0:0:0:0:
256,192,39867,1,8,0:0:0:0:
256,192,40039,1,8,0:0:0:0:
256,192,40125,1,8,0:0:0:0:
256,192,40210,1,8,0:0:0:0:
256,192,40296,1,8,0:0:0:0:
256,192,40382,1,0,0:0:0:0:
256,192,40553,1,8,0:0:0:0:
256,192,40725,1,8,0:0:0:0:
256,192,40896,1,0,0:0:0:0:
256,192,41067,1,0,0:0:0:0:
256,192,41239,1,8,0:0:0:0:
256,192,41410,1,8,0:0:0:0:
256,192,41496,1,8,0:0:0:0:
256,192,41582,1,8,0:0:0:0:
256,192,41753,1,0,0:0:0:0:
256,192,41925,1,8,0:0:0:0:
256,192,42267,1,0,0:0:0:0:
256,192,42610,1,8,0:0:0:0:
256,192,42782,1,0,0:0:0:0:
256,192,43125,1,8,0:0:0:0:
256,192,43296,1,0,0:0:0:0:
256,192,43639,1,0,0:0:0:0:
256,192,43982,1,8,0:0:0:0:
256,192,44239,1,8,0:0:0:0:
256,192,44325,1,0,0:0:0:0:
256,192,44496,1,0,0:0:0:0:
256,192,44667,1,8,0:0:0:0:
256,192,44839,1,8,0:0:0:0:
256,192,45010,1,4,0:0:0:0:
256,192,45182,1,0,0:0:0:0:
256,192,45353,1,8,0:0:0:0:
256,192,45525,1,0,0:0:0:0:
256,192,45610,1,8,0:0:0:0:
256,192,45696,1,8,0:0:0:0:
256,192,45782,1,8,0:0:0:0:
256,192,45867,1,0,0:0:0:0:
256,192,46039,1,8,0:0:0:0:
256,192,46210,1,8,0:0:0:0:
256,192,46382,1,0,0:0:0:0:
256,192,46725,1,8,0:0:0:0:
256,192,46896,1,0,0:0:0:0:
256,192,47067,1,8,0:0:0:0:
256,192,47153,1,8,0:0:0:0:
256,192,47239,1,0,0:0:0:0:
256,192,47410,1,8,0:0:0:0:
256,192,47753,1,0,0:0:0:0:
256,192,48096,1,8,0:0:0:0:
256,192,48267,1,0,0:0:0:0:
256,192,48439,1,8,0:0:0:0:
256,192,48525,1,8,0:0:0:0:
256,192,48610,1,0,0:0:0:0:
256,192,48782,1,8,0:0:0:0:
256,192,48953,1,8,0:0:0:0:
256,192,49125,1,0,0:0:0:0:
256,192,49467,1,8,0:0:0:0:
256,192,49725,1,8,0:0:0:0:
256,192,49810,1,0,0:0:0:0:
256,192,49982,1,0,0:0:0:0:
256,192,50153,1,8,0:0:0:0:
256,192,50325,1,8,0:0:0:0:
256,192,50496,1,0,0:0:0:0:
256,192,50839,1,8,0:0:0:0:
256,192,51010,1,0,0:0:0:0:
256,192,51096,1,8,0:0:0:0:
256,192,51182,1,8,0:0:0:0:
256,192,51267,1,8,0:0:0:0:
256,192,51353,1,0,0:0:0:0:
256,192,51525,1,8,0:0:0:0:
256,192,51696,1,8,0:0:0:0:
256,192,51867,1,0,0:0:0:0:
256,192,52039,1,0,0:0:0:0:
256,192,52210,1,8,0:0:0:0:
256,192,52382,1,0,0:0:0:0:
256,192,52467,1,8,0:0:0:0:
256,192,52553,1,8,0:0:0:0:
256,192,52725,1,0,0:0:0:0:
256,192,52896,1,8,0:0:0:0:
256,192,53239,1,0,0:0:0:0:
256,192,53582,1,8,0:0:0:0:
256,192,53753,1,0,0:0:0:0:
256,192,54096,1,8,0:0:0:0:
256,192,54267,1,0,0:0:0:0:
256,192,54610,1,0,0:0:0:0:
256,192,54953,1,8,0:0:0:0:
256,192,55210,1,8,0:0:0:0:
256,192,55296,1,0,0:0:0:0:
256,192,55467,1,0,0:0:0:0:
256,192,55639,1,8,0:0:0:0:
256,192,55982,1,0,0:0:0:0:
256,192,56325,1,8,0:0:0:0:
256,192,56496,1,8,0:0:0:0:
256,192,56667,1,8,0:0:0:0:
256,192,56839,1,0,0:0:0:0:
256,192,57010,1,0,0:0:0:0:
256,192,57353,1,0,0:0:0:0:
256,192,57696,1,8,0:0:0:0:
256,192,57867,1,8,0:0:0:0:
256,192,58039,1,8,0:0:0:0:
256,192,58210,1,0,0:0:0:0:
256,192,58382,1,8,0:0:0:0:
256,192,58725,1,0,0:0:0:0:
256,192,59067,1,8,0:0:0:0:
256,192,59239,1,8,0:0:0:0:
256,192,59410,1,8,0:0:0:0:
256,192,59582,1,0,0:0:0:0:
256,192,59753,1,0,0:0:0:0:
256,192,60096,1,0,0:0:0:0:
256,192,60267,1,0,0:0:0:0:
256,192,60439,1,8,0:0:0:0:
256,192,60696,1,8,0:0:0:0:
256,192,60782,1,0,0:0:0:0:
256,192,60953,1,0,0:0:0:0:
256,192,61125,1,8,0:0:0:0:
256,192,61467,1,0,0:0:0:0:
256,192,61639,1,8,0:0:0:0:
256,192,61810,1,8,0:0:0:0:
256,192,61982,1,8,0:0:0:0:
256,192,62153,1,8,0:0:0:0:
256,192,62325,1,0,0:0:0:0:
256,192,62496,1,8,0:0:0:0:
256,192,62667,1,0,0:0:0:0:
256,192,62839,1,0,0:0:0:0:
256,192,63010,1,0,0:0:0:0:
256,192,63182,1,8,0:0:0:0:
256,192,63525,1,0,0:0:0:0:
256,192,63867,1,8,0:0:0:0:
256,192,64210,1,0,0:0:0:0:
256,192,64382,1,0,0:0:0:0:
256,192,64553,1,8,0:0:0:0:
256,192,64725,1,8,0:0:0:0:
256,192,64896,1,8,0:0:0:0:
256,192,65067,1,0,0:0:0:0:
256,192,65239,1,8,0:0:0:0:
256,192,65410,1,0,0:0:0:0:
256,192,65582,1,0,0:0:0:0:
256,192,65925,1,8,0:0:0:0:
256,192,66182,1,0,0:0:0:0:
256,192,66267,1,8,0:0:0:0:
256,192,66439,1,0,0:0:0:0:
256,192,66610,1,8,0:0:0:0:
256,192,66953,1,4,0:0:0:0:
256,192,67296,1,8,0:0:0:0:
256,192,67467,1,0,0:0:0:0:
256,192,67810,1,8,0:0:0:0:
256,192,67982,1,0,0:0:0:0:
256,192,68325,1,0,0:0:0:0:
256,192,68667,1,8,0:0:0:0:
256,192,69182,1,0,0:0:0:0:
256,192,69353,1,8,0:0:0:0:
256,192,69696,1,0,0:0:0:0:
256,192,70039,1,8,0:0:0:0:
256,192,70210,1,0,0:0:0:0:
256,192,70553,1,8,0:0:0:0:
256,192,70725,1,0,0:0:0:0:
256,192,71067,1,0,0:0:0:0:
256,192,71410,1,8,0:0:0:0:
256,192,71582,1,8,0:0:0:0:
256,192,71667,1,8,0:0:0:0:
256,192,71753,1,0,0:0:0:0:
256,192,71925,1,0,0:0:0:0:
256,192,72096,1,8,0:0:0:0:
256,192,72439,1,0,0:0:0:0:
256,192,72610,1,8,0:0:0:0:
256,192,72782,1,8,0:0:0:0:
256,192,72953,1,8,0:0:0:0:
256,192,73039,1,8,0:0:0:0:
256,192,73125,1,8,0:0:0:0:
256,192,73296,1,0,0:0:0:0:
256,192,73467,1,8,0:0:0:0:
256,192,73639,1,8,0:0:0:0:
256,192,73810,1,0,0:0:0:0:
256,192,73982,1,0,0:0:0:0:
256,192,74153,1,8,0:0:0:0:
256,192,74496,1,0,0:0:0:0:
256,192,74667,1,0,0:0:0:0:
256,192,74839,1,8,0:0:0:0:
256,192,75182,1,0,0:0:0:0:
256,192,75353,1,0,0:0:0:0:
256,192,75525,1,8,0:0:0:0:
256,192,75696,1,8,0:0:0:0:
256,192,75867,1,8,0:0:0:0:
256,192,76039,1,0,0:0:0:0:
256,192,76210,1,8,0:0:0:0:
256,192,76382,1,8,0:0:0:0:
256,192,76553,1,0,0:0:0:0:
256,192,76896,1,8,0:0:0:0:
256,192,77153,1,8,0:0:0:0:
256,192,77239,1,0,0:0:0:0:
256,192,77410,1,0,0:0:0:0:
256,192,77582,1,8,0:0:0:0:
256,192,77925,1,0,0:0:0:0:
256,192,78267,1,0,0:0:0:0:
256,192,78610,1,0,0:0:0:0:
256,192,78953,1,0,0:0:0:0:
256,192,79296,1,0,0:0:0:0:
256,192,79639,1,0,0:0:0:0:
256,192,79982,1,0,0:0:0:0:
256,192,80325,1,0,0:0:0:0:
256,192,80667,1,0,0:0:0:0:
256,192,80839,1,0,0:0:0:0:
256,192,81010,1,0,0:0:0:0:
256,192,81182,1,0,0:0:0:0:
256,192,81353,1,8,0:0:0:0:
256,192,81525,1,8,0:0:0:0:
256,192,81696,1,8,0:0:0:0:
256,192,81867,1,8,0:0:0:0:
256,192,82039,1,8,0:0:0:0:
256,192,82125,1,0,0:0:0:0:
256,192,82210,1,0,0:0:0:0:
256,192,82296,1,0,0:0:0:0:
256,192,82382,1,8,0:0:0:0:
256,192,82553,1,0,0:0:0:0:
256,192,82725,1,8,0:0:0:0:
256,192,82810,1,8,0:0:0:0:
256,192,82896,1,0,0:0:0:0:
256,192,82982,1,0,0:0:0:0:
256,192,83067,1,8,0:0:0:0:
256,192,83239,1,0,0:0:0:0:
256,192,83410,1,4,0:0:0:0:
256,192,83582,1,0,0:0:0:0:
256,192,83753,1,8,0:0:0:0:
256,192,83925,1,8,0:0:0:0:
256,192,84010,1,8,0:0:0:0:
256,192,84096,1,8,0:0:0:0:
256,192,84182,1,8,0:0:0:0:
256,192,84267,1,0,0:0:0:0:
256,192,84439,1,8,0:0:0:0:
256,192,84610,1,0,0:0:0:0:
256,192,84782,1,0,0:0:0:0:
256,192,85125,1,8,0:0:0:0:
256,192,85296,1,0,0:0:0:0:
256,192,85467,1,8,0:0:0:0:
256,192,85553,1,8,0:0:0:0:
256,192,85639,1,0,0:0:0:0:
256,192,85810,1,8,0:0:0:0:
256,192,86153,1,0,0:0:0:0:
256,192,86496,1,8,0:0:0:0:
256,192,86667,1,0,0:0:0:0:
256,192,86839,1,8,0:0:0:0:
256,192,86925,1,8,0:0:0:0:
256,192,87010,1,0,0:0:0:0:
256,192,87182,1,8,0:0:0:0:
256,192,87353,1,8,0:0:0:0:
256,192,87525,1,0,0:0:0:0:
256,192,87696,1,0,0:0:0:0:
256,192,87867,1,8,0:0:0:0:
256,192,88125,1,8,0:0:0:0:
256,192,88210,1,0,0:0:0:0:
256,192,88382,1,0,0:0:0:0:
256,192,88553,1,8,0:0:0:0:
256,192,88725,1,8,0:0:0:0:
256,192,88896,1,0,0:0:0:0:
256,192,89067,1,0,0:0:0:0:
256,192,89239,1,8,0:0:0:0:
256,192,89410,1,8,0:0:0:0:
256,192,89496,1,8,0:0:0:0:
256,192,89582,1,8,0:0:0:0:
256,192,89667,1,8,0:0:0:0:
256,192,89753,1,0,0:0:0:0:
256,192,89925,1,8,0:0:0:0:
256,192,90096,1,8,0:0:0:0:
256,192,90267,1,0,0:0:0:0:
256,192,90439,1,0,0:0:0:0:
256,192,90610,1,8,0:0:0:0:
256,192,90782,1,8,0:0:0:0:
256,192,90867,1,8,0:0:0:0:
256,192,90953,1,8,0:0:0:0:
256,192,91125,1,0,0:0:0:0:
256,192,91296,1,8,0:0:0:0:
256,192,91639,1,0,0:0:0:0:
256,192,91982,1,8,0:0:0:0:
256,192,92153,1,0,0:0:0:0:
256,192,92325,1,0,0:0:0:0:
256,192,92410,1,0,0:0:0:0:
256,192,92496,1,8,0:0:0:0:
256,192,92667,1,0,0:0:0:0:
256,192,93010,1,0,0:0:0:0:
256,192,93182,1,8,0:0:0:0:
256,192,93353,1,8,0:0:0:0:
256,192,93525,1,8,0:0:0:0:
256,192,93610,1,0,0:0:0:0:
256,192,93696,1,0,0:0:0:0:
256,192,93867,1,0,0:0:0:0:
256,192,94039,1,8,0:0:0:0:
256,192,94210,1,8,0:0:0:0:
256,192,94382,1,4,0:0:0:0:
256,192,94553,1,0,0:0:0:0:
256,192,94725,1,8,0:0:0:0:
256,192,94896,1,0,0:0:0:0:
256,192,94982,1,0,0:0:0:0:
256,192,95067,1,8,0:0:0:0:
256,192,95153,1,8,0:0:0:0:
256,192,95239,1,0,0:0:0:0:
256,192,95410,1,8,0:0:0:0:
256,192,95582,1,8,0:0:0:0:
256,192,95753,1,0,0:0:0:0:
256,192,96096,1,8,0:0:0:0:
256,192,96267,1,0,0:0:0:0:
256,192,96439,1,8,0:0:0:0:
256,192,96525,1,8,0:0:0:0:
256,192,96610,1,0,0:0:0:0:
256,192,96782,1,8,0:0:0:0:
256,192,96953,1,8,0:0:0:0:
256,192,97125,1,0,0:0:0:0:
256,192,97467,1,8,0:0:0:0:
256,192,97639,1,0,0:0:0:0:
256,192,97810,1,8,0:0:0:0:
256,192,97896,1,8,0:0:0:0:
256,192,97982,1,0,0:0:0:0:
256,192,98153,1,8,0:0:0:0:
256,192,98325,1,8,0:0:0:0:
256,192,98496,1,0,0:0:0:0:
256,192,98839,1,8,0:0:0:0:
256,192,99096,1,8,0:0:0:0:
256,192,99182,1,0,0:0:0:0:
256,192,99353,1,0,0:0:0:0:
256,192,99525,1,8,0:0:0:0:
256,192,99696,1,8,0:0:0:0:
256,192,99867,1,0,0:0:0:0:
256,192,100039,1,0,0:0:0:0:
256,192,100210,1,8,0:0:0:0:
256,192,100382,1,0,0:0:0:0:
256,192,100467,1,0,0:0:0:0:
256,192,100553,1,8,0:0:0:0:
256,192,100639,1,8,0:0:0:0:
256,192,100725,1,0,0:0:0:0:
256,192,100896,1,8,0:0:0:0:
256,192,101067,1,8,0:0:0:0:
256,192,101239,1,0,0:0:0:0:
256,192,101410,1,0,0:0:0:0:
256,192,101582,1,8,0:0:0:0:
256,192,101753,1,0,0:0:0:0:
256,192,101839,1,0,0:0:0:0:
256,192,101925,1,8,0:0:0:0:
256,192,102096,1,0,0:0:0:0:
256,192,102267,1,8,0:0:0:0:
256,192,102610,1,0,0:0:0:0:
256,192,102953,1,8,0:0:0:0:
256,192,103125,1,0,0:0:0:0:
256,192,103296,1,0,0:0:0:0:
256,192,103382,1,0,0:0:0:0:
256,192,103467,1,8,0:0:0:0:
256,192,103639,1,0,0:0:0:0:
256,192,103982,1,0,0:0:0:0:
256,192,104325,1,8,0:0:0:0:
256,192,104582,1,8,0:0:0:0:
256,192,104667,1,0,0:0:0:0:
256,192,104839,1,0,0:0:0:0:
256,192,105010,1,8,0:0:0:0:
256,192,105353,1,0,0:0:0:0:
256,192,106382,1,0,0:0:0:0:
256,192,106725,1,0,0:0:0:0:
256,192,107753,1,0,0:0:0:0:
256,192,108096,1,8,0:0:0:0:
256,192,109125,1,8,0:0:0:0:
256,192,109467,1,8,0:0:0:0:
256,192,109982,1,8,0:0:0:0:
256,192,110839,1,4,0:0:0:0:
256,192,121810,5,8,0:0:0:0:
256,192,122153,1,0,0:0:0:0:
256,192,122496,1,8,0:0:0:0:
256,192,122667,1,0,0:0:0:0:
256,192,123010,1,8,0:0:0:0:
256,192,123182,1,0,0:0:0:0:
256,192,123696,1,0,0:0:0:0:
256,192,123867,1,0,0:0:0:0:
256,192,124039,1,0,0:0:0:0:
256,192,124210,1,0,0:0:0:0:
256,192,124382,1,0,0:0:0:0:
256,192,124553,1,8,0:0:0:0:
256,192,124725,1,8,0:0:0:0:
256,192,124896,1,0,0:0:0:0:
256,192,125239,1,8,0:0:0:0:
256,192,125410,1,0,0:0:0:0:
256,192,125753,1,8,0:0:0:0:
256,192,125925,1,0,0:0:0:0:
256,192,126267,1,0,0:0:0:0:
256,192,126439,1,0,0:0:0:0:
256,192,126610,1,0,0:0:0:0:
256,192,126953,1,0,0:0:0:0:
256,192,127296,1,8,0:0:0:0:
256,192,127639,1,0,0:0:0:0:
256,192,127982,1,0,0:0:0:0:
256,192,128325,1,0,0:0:0:0:
256,192,128667,1,8,0:0:0:0:
256,192,129010,1,0,0:0:0:0:
256,192,129353,1,8,0:0:0:0:
256,192,129696,1,0,0:0:0:0:
256,192,130039,1,8,0:0:0:0:
256,192,130210,1,0,0:0:0:0:
256,192,130382,1,0,0:0:0:0:
256,192,130553,1,0,0:0:0:0:
256,192,130725,1,8,0:0:0:0:
256,192,130896,1,0,0:0:0:0:
256,192,131067,1,0,0:0:0:0:
256,192,131239,1,0,0:0:0:0:
256,192,131410,1,8,0:0:0:0:
256,192,131496,1,8,0:0:0:0:
256,192,131582,1,0,0:0:0:0:
256,192,131667,1,0,0:0:0:0:
256,192,131753,1,8,0:0:0:0:
256,192,131925,1,8,0:0:0:0:
256,192,132096,1,8,0:0:0:0:
256,192,132182,1,0,0:0:0:0:
256,192,132267,1,0,0:0:0:0:
256,192,132353,1,0,0:0:0:0:
256,192,132439,1,8,0:0:0:0:
256,192,132610,1,0,0:0:0:0:
256,192,132782,1,4,0:0:0:0:
256,192,132953,1,0,0:0:0:0:
256,192,133125,1,8,0:0:0:0:
256,192,133296,1,8,0:0:0:0:
256,192,133382,1,8,0:0:0:0:
256,192,133467,1,8,0:0:0:0:
256,192,133553,1,8,0:0:0:0:
256,192,133639,1,0,0:0:0:0:
256,192,133810,1,8,0:0:0:0:
256,192,133982,1,8,0:0:0:0:
256,192,134153,1,0,0:0:0:0:
256,192,134496,1,8,0:0:0:0:
256,192,134667,1,0,0:0:0:0:
256,192,134839,1,8,0:0:0:0:
256,192,134925,1,8,0:0:0:0:
256,192,135010,1,0,0:0:0:0:
256,192,135182,1,8,0:0:0:0:
256,192,135525,1,0,0:0:0:0:
256,192,135867,1,8,0:0:0:0:
256,192,136039,1,0,0:0:0:0:
256,192,136210,1,8,0:0:0:0:
256,192,136296,1,8,0:0:0:0:
256,192,136382,1,0,0:0:0:0:
256,192,136553,1,8,0:0:0:0:
256,192,136725,1,8,0:0:0:0:
256,192,136896,1,0,0:0:0:0:
256,192,137239,1,8,0:0:0:0:
256,192,137410,1,8,0:0:0:0:
256,192,137496,1,0,0:0:0:0:
256,192,137582,1,0,0:0:0:0:
256,192,137753,1,0,0:0:0:0:
256,192,137925,1,8,0:0:0:0:
256,192,138096,1,8,0:0:0:0:
256,192,138267,1,0,0:0:0:0:
256,192,138439,1,0,0:0:0:0:
256,192,138610,1,8,0:0:0:0:
256,192,138782,1,8,0:0:0:0:
256,192,138867,1,8,0:0:0:0:
256,192,138953,1,8,0:0:0:0:
256,192,139039,1,8,0:0:0:0:
256,192,139125,1,0,0:0:0:0:
256,192,139296,1,8,0:0:0:0:
256,192,139467,1,8,0:0:0:0:
256,192,139639,1,0,0:0:0:0:
256,192,139810,1,0,0:0:0:0:
256,192,139982,1,8,0:0:0:0:
256,192,140153,1,8,0:0:0:0:
256,192,140239,1,8,0:0:0:0:
256,192,140325,1,8,0:0:0:0:
256,192,140496,1,0,0:0:0:0:
256,192,140667,1,8,0:0:0:0:
256,192,141010,1,0,0:0:0:0:
256,192,141182,1,0,0:0:0:0:
256,192,141353,1,8,0:0:0:0:
256,192,141525,1,0,0:0:0:0:
256,192,141696,1,8,0:0:0:0:
256,192,141782,1,8,0:0:0:0:
256,192,141867,1,0,0:0:0:0:
256,192,142039,1,8,0:0:0:0:
256,192,142382,1,0,0:0:0:0:
256,192,142553,1,0,0:0:0:0:
256,192,142725,1,8,0:0:0:0:
256,192,142982,1,8,0:0:0:0:
256,192,143067,1,0,0:0:0:0:
256,192,143239,1,0,0:0:0:0:
256,192,143410,1,8,0:0:0:0:
256,192,143582,1,8,0:0:0:0:
256,192,143753,1,4,0:0:0:0:
256,192,143925,1,0,0:0:0:0:
256,192,144096,1,8,0:0:0:0:
256,192,144267,1,0,0:0:0:0:
256,192,144353,1,0,0:0:0:0:
256,192,144439,1,8,0:0:0:0:
256,192,144525,1,0,0:0:0:0:
256,192,144610,1,0,0:0:0:0:
256,192,144782,1,8,0:0:0:0:
256,192,144953,1,8,0:0:0:0:
256,192,145125,1,0,0:0:0:0:
256,192,145467,1,8,0:0:0:0:
256,192,145639,1,0,0:0:0:0:
256,192,145810,1,8,0:0:0:0:
256,192,145896,1,8,0:0:0:0:
256,192,145982,1,0,0:0:0:0:
256,192,146153,1,8,0:0:0:0:
256,192,146496,1,0,0:0:0:0:
256,192,146839,1,8,0:0:0:0:
256,192,147010,1,0,0:0:0:0:
256,192,147182,1,8,0:0:0:0:
256,192,147267,1,8,0:0:0:0:
256,192,147353,1,0,0:0:0:0:
256,192,147525,1,8,0:0:0:0:
256,192,147696,1,8,0:0:0:0:
256,192,147867,1,0,0:0:0:0:
256,192,148210,1,8,0:0:0:0:
256,192,148467,1,8,0:0:0:0:
256,192,148553,1,0,0:0:0:0:
256,192,148725,1,0,0:0:0:0:
256,192,148896,1,8,0:0:0:0:
256,192,149067,1,8,0:0:0:0:
256,192,149239,1,0,0:0:0:0:
256,192,149410,1,0,0:0:0:0:
256,192,149582,1,8,0:0:0:0:
256,192,149753,1,0,0:0:0:0:
256,192,149839,1,0,0:0:0:0:
256,192,149925,1,8,0:0:0:0:
256,192,150010,1,0,0:0:0:0:
256,192,150096,1,0,0:0:0:0:
256,192,150267,1,8,0:0:0:0:
256,192,150439,1,8,0:0:0:0:
256,192,150610,1,0,0:0:0:0:
256,192,150782,1,0,0:0:0:0:
256,192,150953,1,8,0:0:0:0:
256,192,151125,1,0,0:0:0:0:
256,192,151210,1,0,0:0:0:0:
256,192,151296,1,8,0:0:0:0:
256,192,151467,1,0,0:0:0:0:
256,192,151639,1,8,0:0:0:0:
256,192,151810,1,0,0:0:0:0:
256,192,151982,1,0,0:0:0:0:
256,192,152325,1,8,0:0:0:0:
256,192,152496,1,0,0:0:0:0:
256,192,152667,1,8,0:0:0:0:
256,192,152753,1,0,0:0:0:0:
256,192,152839,1,0,0:0:0:0:
256,192,153010,1,8,0:0:0:0:
256,192,153182,1,8,0:0:0:0:
256,192,153353,1,0,0:0:0:0:
256,192,153696,1,8,0:0:0:0:
256,192,153953,1,8,0:0:0:0:
256,192,154039,1,0,0:0:0:0:
256,192,154210,1,12,0:0:0:0:
256,192,154382,1,12,0:0:0:0:
256,192,154553,1,0,0:0:0:0:
256,192,154725,1,4,0:0:0:0:
256,192,155067,1,8,0:0:0:0:
256,192,155239,1,8,0:0:0:0:
256,192,155325,1,8,0:0:0:0:
256,192,155410,1,8,0:0:0:0:
256,192,155582,1,0,0:0:0:0:
256,192,155753,1,8,0:0:0:0:
256,192,156096,1,0,0:0:0:0:
256,192,156439,1,8,0:0:0:0:
256,192,156610,1,8,0:0:0:0:
256,192,156696,1,8,0:0:0:0:
256,192,156782,1,8,0:0:0:0:
256,192,156953,1,0,0:0:0:0:
256,192,157125,1,8,0:0:0:0:
256,192,157467,1,0,0:0:0:0:
256,192,157810,1,8,0:0:0:0:
256,192,157982,1,8,0:0:0:0:
256,192,158067,1,8,0:0:0:0:
256,192,158153,1,8,0:0:0:0:
256,192,158325,1,0,0:0:0:0:
256,192,158496,1,8,0:0:0:0:
256,192,158839,1,0,0:0:0:0:
256,192,159182,1,8,0:0:0:0:
256,192,159353,1,8,0:0:0:0:
256,192,159439,1,8,0:0:0:0:
256,192,159525,1,0,0:0:0:0:
256,192,159696,1,0,0:0:0:0:
256,192,159867,1,8,0:0:0:0:
256,192,160039,1,8,0:0:0:0:
256,192,160210,1,4,0:0:0:0:
256,192,160553,1,8,0:0:0:0:
256,192,160725,1,8,0:0:0:0:
256,192,160810,1,8,0:0:0:0:
256,192,160896,1,8,0:0:0:0:
256,192,161067,1,0,0:0:0:0:
256,192,161239,1,8,0:0:0:0:
256,192,161410,1,8,0:0:0:0:
256,192,161582,1,0,0:0:0:0:
256,192,161925,1,8,0:0:0:0:
256,192,162096,1,8,0:0:0:0:
256,192,162182,1,8,0:0:0:0:
256,192,162267,1,8,0:0:0:0:
256,192,162439,1,0,0:0:0:0:
256,192,162610,1,8,0:0:0:0:
256,192,162953,1,0,0:0:0:0:
256,192,163296,1,8,0:0:0:0:
256,192,163467,1,8,0:0:0:0:
256,192,163553,1,8,0:0:0:0:
256,192,163639,1,8,0:0:0:0:
256,192,163810,1,0,0:0:0:0:
256,192,163982,1,8,0:0:0:0:
256,192,164153,1,8,0:0:0:0:
256,192,164325,1,0,0:0:0:0:
256,192,164496,1,0,0:0:0:0:
256,192,164667,1,8,0:0:0:0:
256,192,164839,1,8,0:0:0:0:
256,192,164925,1,8,0:0:0:0:
256,192,165010,1,0,0:0:0:0:
256,192,165182,1,0,0:0:0:0:
256,192,165353,1,8,0:0:0:0:
256,192,165696,1,4,0:0:0:0:
256,192,166039,1,8,0:0:0:0:
256,192,166210,1,0,0:0:0:0:
256,192,166382,1,0,0:0:0:0:
256,192,166553,1,0,0:0:0:0:
256,192,166725,1,8,0:0:0:0:
256,192,167067,1,0,0:0:0:0:
256,192,167410,1,8,0:0:0:0:
256,192,167582,1,0,0:0:0:0:
256,192,167753,1,0,0:0:0:0:
256,192,167925,1,8,0:0:0:0:
256,192,168096,1,8,0:0:0:0:
256,192,168439,1,0,0:0:0:0:
256,192,168782,1,8,0:0:0:0:
256,192,168953,1,0,0:0:0:0:
256,192,169125,1,8,0:0:0:0:
256,192,169296,1,8,0:0:0:0:
256,192,169467,1,8,0:0:0:0:
256,192,169810,1,8,0:0:0:0:
256,192,169982,1,8,0:0:0:0:
256,192,170153,1,8,0:0:0:0:
256,192,170325,1,8,0:0:0:0:
256,192,170410,1,8,0:0:0:0:
256,192,170496,1,0,0:0:0:0:
256,192,170667,1,0,0:0:0:0:
256,192,170839,1,8,0:0:0:0:
256,192,171010,1,0,0:0:0:0:
256,192,171182,1,0,0:0:0:0:
256,192,171525,1,8,0:0:0:0:
256,192,171696,1,0,0:0:0:0:
256,192,171867,1,0,0:0:0:0:
256,192,171953,1,0,0:0:0:0:
256,192,172039,1,0,0:0:0:0:
256,192,172210,1,8,0:0:0:0:
256,192,172553,1,0,0:0:0:0:
256,192,172896,1,8,0:0:0:0:
256,192,173067,1,0,0:0:0:0:
256,192,173239,1,0,0:0:0:0:
256,192,173325,1,0,0:0:0:0:
256,192,173410,1,8,0:0:0:0:
256,192,173582,1,8,0:0:0:0:
256,192,173925,1,0,0:0:0:0:
256,192,174267,1,8,0:0:0:0:
256,192,174439,1,0,0:0:0:0:
256,192,174610,1,8,0:0:0:0:
256,192,174696,1,8,0:0:0:0:
256,192,174782,1,8,0:0:0:0:
256,192,174953,1,8,0:0:0:0:
256,192,175125,1,8,0:0:0:0:
256,192,175296,12,0,176325,0:0:0:0:
