osu file format v14

[General]
AudioFilename: DJ_Fresh_feat_RaVaughn_-_The_Feeling.mp3
AudioLeadIn: 0
PreviewTime: 22016
Countdown: 0
SampleSet: Soft
StackLeniency: 0.7
Mode: 0
LetterboxInBreaks: 1
WidescreenStoryboard: 0

[Editor]
Bookmarks: 165331
DistanceSpacing: 0.8
BeatDivisor: 4
GridSize: 4
TimelineZoom: 1

[Metadata]
Title:The Feeling (Radio Edit)
TitleUnicode:The Feeling (Radio Edit)
Artist:DJ Fresh feat. RaVaughn
ArtistUnicode:DJ Fresh feat. RaVaughn
Creator:haxsu
Version:Normal
Source:
Tags:
BeatmapID:725742
BeatmapSetID:317708

[Difficulty]
HPDrainRate:4
CircleSize:3.5
OverallDifficulty:4
ApproachRate:5
SliderMultiplier:1.1
SliderTickRate:1

[Events]
//Background and Video events
0,0,"BG.jpg",0,0
//Break Periods
2,93531,103102
2,118216,125045
//Storyboard Layer 0 (Background)
//Storyboard Layer 1 (Fail)
//Storyboard Layer 2 (Pass)
//Storyboard Layer 3 (Foreground)
//Storyboard Sound Samples

[TimingPoints]
74,342.857142857143,4,2,1,65,1,0
22016,-100,4,2,1,75,0,1
43959,-100,4,2,1,65,0,0
66931,-100,4,2,1,75,0,1
87845,-100,4,2,1,65,0,0
89216,-100,4,2,1,60,0,0
90588,-100,4,2,1,55,0,0
91959,-100,4,2,1,50,0,0
93331,-100,4,2,1,45,0,0
107045,-100,4,2,1,50,0,0
109788,-100,4,2,1,55,0,0
112531,-100,4,2,1,60,0,0
113902,-100,4,2,1,65,0,0
137216,-100,4,2,1,75,0,1
159159,-100,4,2,1,65,0,0
160188,-100,4,2,1,75,0,1
181102,-100,4,2,1,60,0,0
182131,-100,4,2,1,70,0,0
203045,-100,4,2,1,35,0,0

[HitObjects]
36,192,11045,6,0,P|92:184|132:220,1,110,10|0,0:0|1:2,0:0:0:0:
144,260,11559,1,2,0:0:0:0:
156,304,11731,2,0,L|112:336,2,55,0|8|0,0:0|0:0|1:2,0:0:0:0:
236,264,12416,2,0,L|344:280,1,110,8|0,0:0|1:2,0:0:0:0:
432,260,13102,2,0,P|432:300|412:336,2,82.5,2|2|2,0:0|0:0|0:0,0:0:0:0:
404,224,13788,6,0,P|400:164|420:120,1,110,10|0,0:0|1:2,0:0:0:0:
392,84,14302,2,0,P|332:88|288:68,1,110,2|8,0:0|0:0,0:0:0:0:
256,36,14816,2,0,L|144:48,1,110,0|8,1:2|0:0,0:0:0:0:
76,100,15502,1,0,1:2:0:0:
126,172,15845,2,0,P|72:188|48:184,2,82.5,2|2|2,0:0|0:0|0:0,0:0:0:0:
164,148,16531,6,0,L|192:256,1,110,10|0,0:0|1:2,0:0:0:0:
204,296,17045,2,0,P|256:284|304:308,1,110,2|8,0:0|0:0,0:0:0:0:
328,348,17559,2,0,L|436:324,1,110,0|8,1:2|0:0,0:0:0:0:
460,240,18245,1,0,1:2:0:0:
484,156,18588,2,0,P|444:152|404:172,2,82.5,2|2|2,0:0|0:0|0:0,0:0:0:0:
256,192,19274,12,0,20645,0:0:0:0:
428,64,22016,6,0,L|420:176,1,110,14|0,0:0|1:2,0:0:0:0:
384,196,22531,2,0,P|352:244|356:296,1,110,2|8,0:0|0:0,0:0:0:0:
380,332,23045,1,0,1:2:0:0:
436,264,23388,1,8,0:0:0:0:
384,196,23731,2,0,L|276:180,1,110,0|0,1:2|0:0,0:0:0:0:
248,212,24245,2,0,L|192:204,1,55,8|0,0:0|1:2,0:0:0:0:
128,264,24759,6,0,P|104:220|116:160,1,110,10|0,0:0|1:2,0:0:0:0:
132,124,25274,2,0,P|79:134|31:110,1,110,2|8,0:0|0:0,0:0:0:0:
8,72,25788,1,0,1:2:0:0:
92,48,26131,2,0,P|144:37|192:61,1,110,10|0,0:0|1:2,0:0:0:0:
216,100,26645,2,0,P|268:110|316:86,1,110,2|8,0:0|0:0,0:0:0:0:
340,48,27159,1,0,1:2:0:0:
428,48,27502,6,0,L|480:144,1,110,10|0,0:0|1:2,0:0:0:0:
496,184,28016,2,0,P|440:192|408:232,1,110,2|8,0:0|0:0,0:0:0:0:
396,276,28531,1,0,1:2:0:0:
420,360,28874,1,8,0:0:0:0:
336,340,29216,2,0,P|284:324|228:332,1,110,0|0,1:2|0:0,0:0:0:0:
188,348,29731,2,0,P|133:355|81:339,1,110,8|0,0:0|0:0,0:0:0:0:
56,304,30245,6,0,B|56:268|56:268|36:236|36:236|36:200,1,110,10|0,0:0|1:2,0:0:0:0:
40,156,30759,2,0,P|84:124|96:72,1,110,2|8,0:0|0:0,0:0:0:0:
132,44,31274,1,0,1:2:0:0:
216,28,31616,2,0,P|272:36|312:72,1,110,10|0,0:0|1:2,0:0:0:0:
320,112,32131,2,0,L|336:224,1,110,2|8,0:0|0:0,0:0:0:0:
368,252,32645,1,0,1:2:0:0:
452,272,32988,6,0,P|424:318|371:339,1,110,10|0,0:0|1:2,0:0:0:0:
332,332,33502,2,0,L|220:332,1,110,2|8,0:0|0:0,0:0:0:0:
180,316,34016,1,0,1:2:0:0:
112,372,34359,2,0,P|92:324|108:268,1,110,8|0,0:0|1:2,0:0:0:0:
48,204,35045,1,0,0:0:0:0:
84,180,35216,2,0,L|92:124,1,55,8|0,0:0|1:2,0:0:0:0:
100,36,35731,6,0,P|152:56|180:104,1,110,10|0,0:0|1:2,0:0:0:0:
204,140,36245,2,0,P|256:124|308:140,1,110,2|8,0:0|0:0,0:0:0:0:
332,176,36759,1,0,1:2:0:0:
256,216,37102,2,0,B|244:252|244:252|232:288|256:324,1,110,10|0,0:0|1:2,0:0:0:0:
280,356,37616,2,0,B|316:368|316:368|352:380|388:356,1,110,2|8,0:0|0:0,0:0:0:0:
412,324,38131,1,0,1:2:0:0:
468,256,38474,6,0,L|448:148,1,110,10|0,0:0|1:2,0:0:0:0:
412,124,38988,2,0,P|356:124|320:88,1,110,2|8,0:0|0:0,0:0:0:0:
304,48,39502,1,0,1:2:0:0:
220,76,39845,1,8,0:0:0:0:
136,104,40188,2,0,L|120:216,1,110,0|0,1:2|0:0,0:0:0:0:
80,228,40702,2,0,L|72:284,1,55,8|0,0:0|1:2,0:0:0:0:
12,344,41216,6,0,P|60:368|116:356,1,110,10|0,0:0|1:2,0:0:0:0:
144,324,41731,2,0,P|192:348|248:336,1,110,2|8,0:0|0:0,0:0:0:0:
276,304,42245,1,0,1:2:0:0:
216,240,42588,2,0,P|264:216|320:228,1,110,10|0,0:0|1:2,0:0:0:0:
348,260,43103,2,0,P|396:236|452:248,1,110,2|8,0:0|0:0,0:0:0:0:
480,280,43617,1,0,1:2:0:0:
408,328,43959,5,10,0:0:0:0:
348,260,44302,2,0,L|364:152,1,110,0|0,1:2|0:0,0:0:0:0:
332,120,44816,2,0,L|340:64,1,55,8|2,0:0|1:2,0:0:0:0:
256,40,45331,1,10,0:0:0:0:
192,100,45674,2,0,P|128:108|92:84,1,110,0|0,1:2|0:0,0:0:0:0:
80,44,46188,2,0,L|25:36,1,55,8|0,0:0|1:2,0:0:0:0:
0,124,46702,5,10,0:0:0:0:
56,192,47045,2,0,L|40:300,1,110,0|0,1:2|0:0,0:0:0:0:
64,336,47559,2,0,P|88:348|120:348,1,55,8|2,0:0|1:2,0:0:0:0:
192,304,48074,1,10,0:0:0:0:
264,252,48416,2,0,P|332:248|372:268,1,110,0|0,1:2|0:0,0:0:0:0:
396,300,48931,2,0,L|416:352,1,55,10|0,0:0|1:2,0:0:0:0:
500,324,49445,6,0,P|512:260|496:220,1,110,10|0,0:0|1:2,0:0:0:0:
428,160,50131,2,0,L|372:176,2,55,0|8|2,0:0|0:0|1:2,0:0:0:0:
440,116,50645,1,0,0:0:0:0:
452,72,50816,2,0,P|408:36|356:36,1,110,10|0,0:0|1:2,0:0:0:0:
288,92,51502,2,0,L|232:104,1,55,0|8,0:0|0:0,0:0:0:0:
204,72,51845,2,0,L|148:84,1,55,0|2,1:2|0:0,0:0:0:0:
120,48,52188,6,0,P|56:44|20:68,1,110,10|0,0:0|1:2,0:0:0:0:
36,156,52874,2,0,P|100:160|136:136,1,110,0|2,0:0|1:2,0:0:0:0:
172,164,53388,2,0,L|208:328,1,165,0|0,0:0|1:2,0:0:0:0:
244,352,54074,2,0,P|290:324|344:331,1,110,2|10,0:0|0:0,0:0:0:0:
384,352,54588,1,2,1:2:0:0:
452,296,54931,6,0,P|428:248|444:196,1,110,10|0,0:0|1:2,0:0:0:0:
492,124,55616,2,0,P|507:72|483:24,1,110,0|2,0:0|1:2,0:0:0:0:
416,80,56302,2,0,L|368:152,2,82.5,10|0|2,0:0|0:0|0:0,0:0:0:0:
396,40,56988,2,0,P|340:52|288:40,1,110,0|0,0:0|1:2,0:0:0:0:
268,80,57502,1,2,0:0:0:0:
248,120,57674,6,0,P|192:108|140:120,1,110,10|0,0:0|1:2,0:0:0:0:
84,188,58359,2,0,P|140:200|192:188,1,110,0|2,0:0|1:2,0:0:0:0:
276,204,59045,2,0,P|260:240|224:268,2,82.5,10|0|2,0:0|0:0|0:0,0:0:0:0:
308,172,59731,2,0,P|368:168|412:192,1,110,0|0,0:0|1:2,0:0:0:0:
469,254,60416,6,0,P|493:206|488:152,1,110,10|0,0:0|1:2,0:0:0:0:
448,76,61102,2,0,L|340:92,1,110,0|2,0:0|1:2,0:0:0:0:
256,113,61788,2,0,P|273:150|308:172,2,82.5,10|0|2,0:0|0:0|0:0,0:0:0:0:
228,80,62474,2,0,L|120:96,1,110,0|0,0:0|1:2,0:0:0:0:
256,192,63159,12,10,65902,0:0:0:0:
108,328,66759,5,8,0:0:0:0:
108,328,66931,2,0,P|120:280|88:232,1,110,0|8,1:2|0:0,0:0:0:0:
24,172,67616,1,0,1:2:0:0:
64,92,67959,1,0,0:0:0:0:
104,112,68131,2,0,L|160:104,1,55,8|0,0:0|1:2,0:0:0:0:
220,40,68645,6,0,P|248:88|240:140,1,110,10|0,0:0|1:2,0:0:0:0:
272,172,69159,2,0,P|320:144|372:152,1,110,2|8,0:0|0:0,0:0:0:0:
408,180,69674,1,0,1:2:0:0:
452,256,70016,2,0,L|408:356,1,110,10|0,0:0|1:2,0:0:0:0:
368,336,70531,2,0,P|320:308|268:320,1,110,2|8,0:0|0:0,0:0:0:0:
236,348,71045,2,0,L|180:352,1,55,0|0,1:2|0:0,0:0:0:0:
156,316,71388,6,0,L|100:312,1,55,10|0,0:0|0:0,0:0:0:0:
76,276,71731,2,0,L|20:280,2,55,0|2|0,1:2|0:0|0:0,0:0:0:0:
92,236,72245,1,8,0:0:0:0:
108,196,72416,2,0,P|120:140|100:92,1,110,0|8,1:2|0:0,0:0:0:0:
28,44,73102,2,0,P|76:8|128:12,1,110,0|0,1:2|0:0,0:0:0:0:
160,32,73616,2,0,L|216:24,1,55,8|0,0:0|1:2,0:0:0:0:
280,80,74131,6,0,L|388:96,1,110,10|0,0:0|1:2,0:0:0:0:
416,60,74645,2,0,P|468:64|504:108,1,110,2|8,0:0|0:0,0:0:0:0:
512,148,75159,1,0,1:2:0:0:
456,216,75502,2,0,P|420:260|428:312,1,110,10|0,0:0|1:2,0:0:0:0:
388,332,76016,2,0,P|344:296|292:304,1,110,2|8,0:0|0:0,0:0:0:0:
264,336,76531,2,0,L|208:344,1,55,0|0,1:2|0:0,0:0:0:0:
176,316,76874,6,0,L|120:324,2,55,10|0|0,0:0|0:0|1:2,0:0:0:0:
192,276,77388,1,2,0:0:0:0:
208,236,77559,2,0,L|240:128,1,110,0|0,0:0|1:2,0:0:0:0:
276,108,78074,1,0,0:0:0:0:
316,92,78245,2,0,P|368:76|420:92,1,110,8|0,0:0|1:2,0:0:0:0:
464,168,78931,2,0,L|452:224,1,55,0|8,0:0|0:0,0:0:0:0:
412,240,79274,1,0,1:2:0:0:
440,324,79616,6,0,P|385:326|341:295,1,110,10|0,0:0|1:2,0:0:0:0:
324,256,80131,2,0,P|279:224|225:227,1,110,2|8,0:0|0:0,0:0:0:0:
188,252,80645,1,0,1:2:0:0:
256,308,80988,2,0,P|212:336|156:332,1,110,10|0,0:0|1:2,0:0:0:0:
120,304,81502,2,0,P|100:252|116:200,1,110,2|8,0:0|0:0,0:0:0:0:
148,172,82016,2,0,L|124:120,1,55,0|0,1:2|0:0,0:0:0:0:
152,88,82359,6,0,L|128:36,2,55,10|0|0,0:0|0:0|1:2,0:0:0:0:
196,92,82874,1,2,0:0:0:0:
240,96,83045,2,0,P|296:96|340:68,1,110,0|0,0:0|1:2,0:0:0:0:
400,0,83731,1,8,0:0:0:0:
428,84,84074,2,0,L|464:188,1,110,0|0,1:2|0:0,0:0:0:0:
428,212,84588,2,0,L|448:268,1,55,8|0,0:0|1:2,0:0:0:0:
476,348,85102,6,0,P|416:348|376:320,1,110,10|0,0:0|1:2,0:0:0:0:
360,280,85616,2,0,P|314:250|260:252,1,110,2|8,0:0|0:0,0:0:0:0:
224,276,86131,1,0,1:2:0:0:
254,358,86474,2,0,P|194:358|154:330,1,110,10|0,0:0|1:2,0:0:0:0:
138,290,86988,2,0,P|92:260|38:262,1,110,2|8,0:0|0:0,0:0:0:0:
2,286,87503,1,0,1:2:0:0:
256,192,87845,12,8,93331,0:0:0:0:
44,72,104302,6,0,L|28:184,1,110,10|0,0:0|3:2,0:0:0:0:
60,212,104816,2,0,L|44:324,1,110,2|8,0:0|0:0,0:0:0:0:
76,352,105331,2,0,L|132:352,1,55,0|0,3:2|0:0,0:0:0:0:
164,320,105674,2,0,P|240:308|272:320,1,110,8|0,0:0|3:2,0:0:0:0:
352,344,106359,2,0,P|404:356|457:342,1,110,0|0,0:0|3:2,0:0:0:0:
512,272,107045,6,0,P|460:256|408:272,1,110,10|0,0:0|3:2,0:0:0:0:
368,252,107559,2,0,P|384:200|368:148,1,110,2|8,0:0|0:0,0:0:0:0:
324,148,108074,2,0,L|268:148,1,55,0|0,3:2|0:0,0:0:0:0:
224,148,108416,2,0,P|208:96|224:44,1,110,10|0,0:0|3:2,0:0:0:0:
184,24,108930,2,0,P|132:39|80:23,1,110,2|8,0:0|0:0,0:0:0:0:
40,44,109445,1,0,3:2:0:0:
8,128,109788,6,0,B|48:144|88:120|88:120|116:124,1,110,10|0,0:0|3:2,0:0:0:0:
140,160,110302,2,0,P|152:208|120:260,1,110,2|8,0:0|0:0,0:0:0:0:
80,272,110816,2,0,L|72:328,1,55,0|0,3:2|0:0,0:0:0:0:
100,360,111159,2,0,P|144:372|208:356,1,110,8|0,0:0|3:2,0:0:0:0:
268,296,111845,2,0,P|320:281|373:293,1,110,0|0,0:0|3:2,0:0:0:0:
448,344,112531,6,0,P|460:290|445:238,1,110,10|0,0:0|3:2,0:0:0:0:
408,216,113045,2,0,P|393:163|405:110,1,110,2|8,0:0|0:0,0:0:0:0:
444,88,113559,1,0,3:2:0:0:
380,28,113902,2,0,L|272:48,1,110,10|0,0:0|3:2,0:0:0:0:
252,88,114416,2,0,L|144:108,1,110,2|8,0:0|0:0,0:0:0:0:
124,148,114931,1,0,3:2:0:0:
256,192,115274,12,2,118016,0:0:0:0:
476,192,126245,6,0,P|420:200|380:164,1,110,10|0,0:0|1:2,0:0:0:0:
368,124,126759,1,2,0:0:0:0:
356,80,126931,2,0,L|400:48,2,55,0|8|0,0:0|0:0|1:2,0:0:0:0:
276,120,127616,2,0,L|168:104,1,110,8|0,0:0|1:2,0:0:0:0:
80,124,128302,2,0,P|80:84|100:48,2,82.5,2|2|2,0:0|0:0|0:0,0:0:0:0:
108,160,128988,6,0,P|112:220|92:264,1,110,10|0,0:0|1:2,0:0:0:0:
120,300,129502,2,0,P|180:296|224:316,1,110,2|8,0:0|0:0,0:0:0:0:
256,348,130016,2,0,L|368:336,1,110,0|8,1:2|0:0,0:0:0:0:
436,284,130702,1,0,1:2:0:0:
386,212,131045,2,0,P|440:196|464:200,2,82.5,2|2|2,0:0|0:0|0:0,0:0:0:0:
348,236,131731,6,0,L|320:128,1,110,10|0,0:0|1:2,0:0:0:0:
308,88,132245,2,0,P|256:100|208:76,1,110,2|8,0:0|0:0,0:0:0:0:
184,36,132759,2,0,L|76:60,1,110,0|8,1:2|0:0,0:0:0:0:
52,144,133445,1,0,1:2:0:0:
28,228,133788,2,0,P|68:232|108:212,2,82.5,2|2|2,0:0|0:0|0:0,0:0:0:0:
256,192,134474,12,0,136531,0:0:0:0:
84,320,137216,6,0,L|92:208,1,110,14|0,0:0|1:2,0:0:0:0:
128,188,137731,2,0,P|160:140|156:88,1,110,2|8,0:0|0:0,0:0:0:0:
132,52,138245,1,0,1:2:0:0:
76,120,138588,1,8,0:0:0:0:
128,188,138931,2,0,L|236:204,1,110,0|0,1:2|0:0,0:0:0:0:
264,172,139445,2,0,L|320:180,1,55,8|0,0:0|1:2,0:0:0:0:
384,120,139959,6,0,P|408:164|396:224,1,110,10|0,0:0|1:2,0:0:0:0:
380,260,140474,2,0,P|433:250|481:274,1,110,2|8,0:0|0:0,0:0:0:0:
504,312,140988,1,0,1:2:0:0:
420,336,141331,2,0,P|368:347|320:323,1,110,10|0,0:0|1:2,0:0:0:0:
296,284,141845,2,0,P|244:274|196:298,1,110,2|8,0:0|0:0,0:0:0:0:
172,336,142359,1,0,1:2:0:0:
84,336,142702,6,0,L|32:240,1,110,10|0,0:0|1:2,0:0:0:0:
16,200,143216,2,0,P|72:192|104:152,1,110,2|8,0:0|0:0,0:0:0:0:
116,108,143731,1,0,1:2:0:0:
92,24,144074,1,8,0:0:0:0:
176,44,144416,2,0,P|228:60|284:52,1,110,0|0,1:2|0:0,0:0:0:0:
324,36,144931,2,0,P|379:29|431:45,1,110,8|0,0:0|0:0,0:0:0:0:
456,80,145445,6,0,B|456:116|456:116|476:148|476:148|476:184,1,110,10|0,0:0|1:2,0:0:0:0:
472,228,145959,2,0,P|428:260|416:312,1,110,2|8,0:0|0:0,0:0:0:0:
380,340,146474,1,0,1:2:0:0:
296,356,146816,2,0,P|240:348|200:312,1,110,10|0,0:0|1:2,0:0:0:0:
192,272,147331,2,0,L|176:160,1,110,2|8,0:0|0:0,0:0:0:0:
144,132,147845,1,0,1:2:0:0:
60,112,148188,6,0,P|88:66|141:45,1,110,10|0,0:0|1:2,0:0:0:0:
180,52,148702,2,0,L|292:52,1,110,2|8,0:0|0:0,0:0:0:0:
332,68,149216,1,0,1:2:0:0:
400,12,149559,2,0,P|420:60|404:116,1,110,8|0,0:0|1:2,0:0:0:0:
464,180,150245,1,0,0:0:0:0:
428,204,150416,2,0,L|420:260,1,55,8|0,0:0|1:2,0:0:0:0:
412,348,150931,6,0,P|360:328|332:280,1,110,10|0,0:0|1:2,0:0:0:0:
308,244,151445,2,0,P|256:260|204:244,1,110,2|8,0:0|0:0,0:0:0:0:
180,208,151959,1,0,1:2:0:0:
256,168,152302,2,0,B|268:132|268:132|280:96|256:60,1,110,10|0,0:0|1:2,0:0:0:0:
232,28,152816,2,0,B|196:16|196:16|160:4|124:28,1,110,2|8,0:0|0:0,0:0:0:0:
100,60,153331,1,0,1:2:0:0:
44,128,153674,6,0,L|64:236,1,110,10|0,0:0|1:2,0:0:0:0:
100,260,154188,2,0,P|156:260|192:296,1,110,2|8,0:0|0:0,0:0:0:0:
208,336,154702,1,0,1:2:0:0:
292,308,155045,1,8,0:0:0:0:
376,280,155388,2,0,L|392:168,1,110,0|0,1:2|0:0,0:0:0:0:
432,156,155902,2,0,L|440:100,1,55,8|0,0:0|1:2,0:0:0:0:
500,40,156416,6,0,P|452:16|396:28,1,110,10|0,0:0|1:2,0:0:0:0:
368,60,156931,2,0,P|320:36|264:48,1,110,2|8,0:0|0:0,0:0:0:0:
236,80,157445,1,0,1:2:0:0:
296,144,157788,2,0,P|248:168|192:156,1,110,10|0,0:0|1:2,0:0:0:0:
164,124,158303,2,0,P|116:148|60:136,1,110,2|8,0:0|0:0,0:0:0:0:
32,104,158817,1,0,1:2:0:0:
104,56,159159,5,8,0:0:0:0:
324,56,160016,1,8,0:0:0:0:
324,56,160188,2,0,P|396:52|424:72,1,110,0|8,1:2|0:0,0:0:0:0:
488,136,160874,1,0,1:2:0:0:
416,188,161216,2,0,L|405:241,1,55,0|8,0:0|0:0,0:0:0:0:
428,280,161559,1,0,1:2:0:0:
496,336,161902,6,0,P|448:364|396:360,1,110,10|0,0:0|1:2,0:0:0:0:
356,336,162416,2,0,P|301:332|255:359,1,110,2|8,0:0|0:0,0:0:0:0:
212,360,162931,1,0,1:2:0:0:
132,324,163274,2,0,P|112:272|64:248,1,110,10|0,0:0|1:2,0:0:0:0:
32,220,163788,2,0,L|64:112,1,110,2|8,0:0|0:0,0:0:0:0:
104,104,164302,2,0,L|160:96,1,55,0|0,1:2|0:0,0:0:0:0:
188,64,164645,6,0,P|232:32|288:32,1,110,10|0,0:0|1:2,0:0:0:0:
328,40,165159,1,2,0:0:0:0:
372,32,165331,2,0,P|426:32|469:64,1,110,0|0,0:0|1:2,0:0:0:0:
500,148,166016,1,8,0:0:0:0:
472,232,166359,2,0,P|424:196|412:148,1,110,0|0,1:2|0:0,0:0:0:0:
368,160,166874,2,0,P|312:176|264:160,1,110,8|0,0:0|0:0,0:0:0:0:
220,148,167388,6,0,P|204:199|159:230,1,110,10|0,0:0|1:2,0:0:0:0:
116,232,167902,2,0,P|71:262|55:314,1,110,2|8,0:0|0:0,0:0:0:0:
72,356,168416,1,0,1:2:0:0:
148,316,168759,2,0,L|256:336,1,110,10|0,0:0|1:2,0:0:0:0:
284,304,169274,2,0,L|392:324,1,110,2|8,0:0|0:0,0:0:0:0:
420,292,169788,2,0,L|484:304,1,55,0|0,1:2|0:0,0:0:0:0:
504,272,170131,6,0,P|480:224|492:172,1,110,10|0,0:0|1:2,0:0:0:0:
504,128,170645,1,2,0:0:0:0:
512,84,170816,2,0,P|459:96|411:72,1,110,0|0,0:0|1:2,0:0:0:0:
372,56,171331,1,0,0:0:0:0:
332,72,171502,2,0,P|283:96|231:83,1,110,8|0,0:0|1:2,0:0:0:0:
148,52,172188,2,0,L|116:96,1,55,0|8,0:0|0:0,0:0:0:0:
88,128,172531,1,0,1:2:0:0:
40,200,172874,6,0,P|92:216|144:192,1,110,10|0,0:0|1:2,0:0:0:0:
176,220,173388,2,0,P|184:272|228:304,1,110,2|8,0:0|0:0,0:0:0:0:
272,308,173902,1,0,1:2:0:0:
344,356,174245,2,0,P|360:304|336:252,1,110,10|0,0:0|1:2,0:0:0:0:
364,220,174759,2,0,P|416:212|448:168,1,110,2|8,0:0|0:0,0:0:0:0:
448,124,175274,2,0,L|424:72,1,55,0|0,1:2|0:0,0:0:0:0:
400,36,175616,6,0,P|344:20|292:36,1,110,10|0,0:0|1:2,0:0:0:0:
256,56,176131,1,2,0:0:0:0:
216,33,176302,2,0,P|163:20|112:36,1,110,0|0,0:0|1:2,0:0:0:0:
164,108,176988,1,8,0:0:0:0:
256,192,177331,12,10,179731,0:0:0:0:
88,92,181102,5,10,0:0:0:0:
28,28,181445,2,0,P|76:4|168:56,1,165,8|8,0:0|0:0,0:0:0:0:
176,96,182131,1,0,1:2:0:0:
132,172,182474,2,0,P|184:184|236:160,1,110,8|0,0:0|1:2,0:0:0:0:
260,124,182988,2,0,P|309:101|362:113,1,110,0|8,0:0|0:0,0:0:0:0:
392,144,183502,1,0,1:2:0:0:
452,208,183845,5,8,0:0:0:0:
392,276,184188,2,0,B|336:276|336:276|300:316|300:316|244:316,1,165,0|8,1:2|0:0,0:0:0:0:
200,316,184874,1,0,1:2:0:0:
128,364,185216,2,0,P|112:308|136:260,1,110,8|0,0:0|1:2,0:0:0:0:
168,236,185731,2,0,P|189:186|172:135,1,110,0|8,0:0|0:0,0:0:0:0:
136,108,186245,1,0,1:2:0:0:
92,184,186588,5,8,0:0:0:0:
48,108,186931,2,0,P|80:40|172:28,1,165,0|8,1:2|0:0,0:0:0:0:
200,48,187616,1,0,1:2:0:0:
284,24,187959,2,0,L|396:24,1,110,8|0,0:0|1:2,0:0:0:0:
432,48,188474,1,0,0:0:0:0:
484,120,188816,2,0,L|464:172,1,55,8|0,0:0|1:2,0:0:0:0:
380,200,189331,6,0,P|416:248|476:256,1,110,8|0,0:0|1:2,0:0:0:0:
496,288,189845,2,0,P|482:340|437:370,1,110,0|8,0:0|0:0,0:0:0:0:
392,372,190359,1,0,1:2:0:0:
308,348,190702,2,0,P|256:332|204:348,1,110,8|0,0:0|1:2,0:0:0:0:
168,372,191216,2,0,L|56:372,1,110,0|8,0:0|0:0,0:0:0:0:
20,348,191731,1,0,1:2:0:0:
56,268,192074,6,0,L|168:268,1,110,8|0,0:0|1:2,0:0:0:0:
204,292,192589,1,0,0:0:0:0:
288,268,192931,2,0,L|344:268,1,55,8|0,0:0|1:2,0:0:0:0:
432,268,193445,2,0,P|452:216|432:168,1,110,8|0,0:0|1:2,0:0:0:0:
372,104,194131,2,0,P|408:84|452:84,2,82.5,0|0|0,0:0|0:0|0:0,0:0:0:0:
348,140,194816,6,0,P|316:160|244:160,1,110,8|0,0:0|1:2,0:0:0:0:
224,200,195331,2,0,P|192:220|120:220,1,110,0|8,0:0|0:0,0:0:0:0:
80,208,195845,1,0,1:2:0:0:
16,148,196188,2,0,P|48:128|120:128,1,110,8|0,0:0|1:2,0:0:0:0:
140,88,196703,2,0,P|172:68|244:68,1,110,0|8,0:0|0:0,0:0:0:0:
284,80,197217,1,0,1:2:0:0:
348,136,197559,6,0,L|372:244,1,110,8|0,0:0|1:2,0:0:0:0:
416,248,198074,2,0,P|460:276|472:332,1,110,0|8,0:0|0:0,0:0:0:0:
460,372,198588,1,0,1:2:0:0:
380,332,198931,1,8,0:0:0:0:
300,372,199274,2,0,L|188:372,1,110,0|0,1:2|0:0,0:0:0:0:
172,332,199788,2,0,L|116:332,1,55,8|0,0:0|1:0,0:0:0:0:
28,332,200302,6,0,P|48:276|88:248,1,110,8|0,0:0|1:2,0:0:0:0:
120,220,200816,2,0,L|120:108,1,110,0|8,0:0|0:0,0:0:0:0:
152,80,201331,1,0,1:0:0:0:
204,8,201674,2,0,L|316:8,1,110,8|0,0:0|1:2,0:0:0:0:
336,48,202188,2,0,L|396:48,2,55,0|0|8,0:0|0:0|0:0,0:0:0:0:
312,84,202702,2,0,L|256:84,1,55,0|0,1:0|0:0,0:0:0:0:
256,192,203045,12,0,204245,0:0:0:0:
