osu file format v14

[General]
AudioFilename: audio.mp3
AudioLeadIn: 0
PreviewTime: 44408
Countdown: 0
SampleSet: Soft
StackLeniency: 0.7
Mode: 0
LetterboxInBreaks: 0
WidescreenStoryboard: 1

[Editor]
DistanceSpacing: 2.6
BeatDivisor: 4
GridSize: 32
TimelineZoom: 1.6

[Metadata]
Title:Gold Dust
TitleUnicode:Gold Dust
Artist:DJ Fresh
ArtistUnicode:DJ Fresh
Creator:Sotarks
Version:SMOKELIND's Extra
Source:
Tags:akitoshi corinn -laura- nikakis snownino_ reform kujinn onlybiscuit smokelind miraclee kroytz english vocals brotarks
BeatmapID:1955242
BeatmapSetID:935111

[Difficulty]
HPDrainRate:5.2
CircleSize:3.6
OverallDifficulty:9.1
ApproachRate:9.2
SliderMultiplier:1.77
SliderTickRate:1

[Events]
//Background and Video events
0,0,"bg.jpg",0,0
//Break Periods
//Storyboard Layer 0 (Background)
//Storyboard Layer 1 (Fail)
//Storyboard Layer 2 (Pass)
//Storyboard Layer 3 (Foreground)
//Storyboard Sound Samples

[TimingPoints]
-1185,338.983050847458,4,2,22,62,1,0
1526,-129.87012987013,4,2,22,62,0,0
21187,-212.765957446809,4,2,22,72,0,0
22543,-103.092783505155,4,2,22,82,0,0
44916,-93.4579439252336,4,2,22,92,0,0
77459,-93.4579439252336,4,2,22,82,0,0
82882,-93.4579439252336,4,2,22,72,0,0
87628,-93.4579439252336,4,2,22,62,0,0
87967,-129.87012987013,4,2,22,62,0,0

[Colours]
Combo1 : 157,186,191
Combo2 : 164,138,119
Combo3 : 146,162,89
Combo4 : 213,203,164

[HitObjects]
84,53,1526,6,0,P|120:115|134:199,1,136.289997296494,2|2,3:2|0:2,0:0:0:0:
195,340,2035,2,0,P|210:273|244:215,1,136.289997296494,2|0,3:2|0:2,0:0:0:0:
392,78,2543,2,0,P|333:112|267:127,1,136.289997296494,2|0,3:2|0:2,0:0:0:0:
147,53,3052,1,0,3:2:0:0:
258,169,3221,2,0,P|276:205|283:250,1,68.1449986482468,2|0,0:2|0:2,0:0:0:0:
98,337,3560,1,2,3:2:0:0:
197,227,3730,1,2,0:2:0:0:
288,383,3899,1,2,0:2:0:0:
173,249,4069,1,2,3:2:0:0:
349,321,4238,6,0,P|391:318|426:301,1,68.1449986482468,2|0,3:2|0:2,0:0:0:0:
444,163,4577,2,0,P|402:166|367:183,1,68.1449986482468,2|0,0:2|3:2,0:0:0:0:
327,349,4916,2,0,P|369:346|404:329,1,68.1449986482468,2|0,0:2|0:2,0:0:0:0:
450,143,5255,2,0,P|366:148|297:182,1,136.289997296494,0|0,3:2|0:2,0:0:0:0:
190,268,5764,1,2,3:2:0:0:
136,107,5933,2,0,P|127:144|122:193,1,68.1449986482468,2|0,0:2|0:2,0:0:0:0:
247,338,6272,1,2,3:2:0:0:
296,182,6442,1,2,0:2:0:0:
404,368,6611,1,2,0:2:0:0:
219,303,6781,1,2,3:2:0:0:
421,201,6950,6,0,P|409:132|345:71,1,136.289997296494,2|0,3:2|0:2,0:0:0:0:
157,46,7459,2,0,P|201:113|219:188,1,136.289997296494,0|0,3:2|0:2,0:0:0:0:
132,337,7967,2,0,B|142:258|101:283|108:205,1,136.289997296494,0|0,3:2|0:2,0:0:0:0:
217,40,8476,1,2,3:2:0:0:
189,224,8645,1,2,0:2:0:0:
126,50,8815,1,2,0:2:0:0:
280,207,8984,2,0,P|317:217|349:215,1,68.1449986482468,2|0,3:2|0:2,0:0:0:0:
445,39,9323,1,2,0:2:0:0:
322,136,9492,1,2,3:2:0:0:
475,28,9662,5,2,3:2:0:0:
433,203,9831,1,2,0:2:0:0:
283,51,10001,2,0,P|249:40|211:40,1,68.1449986482468,2|0,0:2|3:2,0:0:0:0:
98,193,10340,2,0,P|131:191|164:181,1,68.1449986482468,2|0,0:2|0:2,0:0:0:0:
320,47,10679,2,0,P|291:110|274:196,1,136.289997296494,0|0,3:2|0:2,0:0:0:0:
213,356,11187,2,0,P|197:289|168:228,1,136.289997296494,0|0,3:2|0:2,0:0:0:0:
344,344,11696,2,0,P|383:357|422:357,1,68.1449986482468,0|0,3:2|0:2,0:0:0:0:
477,199,12035,2,0,P|443:201|411:214,1,68.1449986482468,2|0,0:2|3:2,0:0:0:0:
259,349,12374,6,0,P|213:305|236:226,1,136.289997296494,2|2,3:2|0:2,0:0:0:0:
394,133,12882,2,0,B|319:144|344:106|254:120,1,136.289997296494,2|0,3:2|0:2,0:0:0:0:
90,224,13391,2,0,B|165:213|140:251|230:237,1,136.289997296494,2|0,3:2|0:2,0:0:0:0:
314,94,13899,1,0,3:2:0:0:
300,247,14069,2,0,P|294:284|291:323,1,68.1449986482468,2|0,0:2|0:2,0:0:0:0:
382,166,14408,1,2,3:2:0:0:
191,159,14577,1,2,0:2:0:0:
384,58,14747,1,2,0:2:0:0:
222,142,14916,1,2,3:2:0:0:
414,176,15086,6,0,P|430:209|438:245,1,68.1449986482468,2|0,3:2|0:2,0:0:0:0:
292,353,15425,2,0,P|300:320|315:289,1,68.1449986482468,2|0,0:2|3:2,0:0:0:0:
427,155,15764,2,0,P|443:188|451:224,1,68.1449986482468,2|0,0:2|0:2,0:0:0:0:
288,120,16103,2,0,P|239:101|144:130,1,136.289997296494,0|0,3:2|0:2,0:0:0:0:
73,284,16611,1,2,3:2:0:0:
230,212,16781,2,0,P|281:201|321:204,1,68.1449986482468,2|0,0:2|0:2,0:0:0:0:
442,357,17120,1,2,3:2:0:0:
424,182,17289,1,2,0:2:0:0:
322,346,17459,1,2,0:2:0:0:
405,215,17628,1,2,3:2:0:0:
208,322,17798,6,0,B|134:315|171:277|83:270,1,136.289997296494,2|0,3:2|0:2,0:0:0:0:
275,184,18306,2,0,P|282:120|213:58,1,136.289997296494,0|0,3:2|0:2,0:0:0:0:
66,10,18815,2,0,P|23:61|29:127,1,136.289997296494,0|0,3:2|0:2,0:0:0:0:
207,50,19323,1,2,3:2:0:0:
51,161,19492,1,2,0:2:0:0:
171,37,19662,1,2,0:2:0:0:
204,221,19831,2,0,P|210:261|212:314,1,68.1449986482468,2|0,3:2|0:2,0:0:0:0:
301,96,20170,1,2,0:2:0:0:
129,193,20340,1,2,3:2:0:0:
347,218,20509,5,2,3:2:0:0:
183,122,20679,1,2,0:2:0:0:
293,295,20848,2,0,P|333:306|373:306,1,68.1449986482468,2|0,0:2|3:2,0:0:0:0:
233,128,21187,6,0,P|206:191|305:269,1,207.974996826553,2|0,0:2|0:0,0:0:0:0:
298,270,22543,1,8,0:2:0:0:
302,240,22627,1,8,0:2:0:0:
316,213,22712,1,0,1:2:0:0:
333,190,22797,1,8,0:2:0:0:
357,172,22882,2,0,P|373:157|387:141,2,42.9225010151654,0|8|0,1:2|0:2|1:2,0:0:0:0:
201,241,23221,5,2,1:2:0:0:
75,98,23391,1,0,0:2:0:0:
159,327,23560,1,10,0:2:0:0:
262,114,23730,1,0,0:2:0:0:
358,347,23899,5,2,0:2:0:0:
171,222,24069,1,0,1:2:0:0:
419,186,24238,1,10,0:2:0:0:
215,250,24408,1,0,0:2:0:0:
284,16,24577,5,2,1:2:0:0:
329,213,24747,1,0,0:2:0:0:
171,52,24916,1,10,0:2:0:0:
130,248,25086,1,0,0:2:0:0:
292,53,25255,5,2,0:2:0:0:
175,362,25594,1,10,0:2:0:0:
292,53,25933,5,2,1:2:0:0:
224,237,26103,1,0,0:2:0:0:
163,22,26272,1,10,0:2:0:0:
257,162,26442,1,0,0:2:0:0:
432,25,26611,5,2,0:2:0:0:
271,131,26781,1,0,1:2:0:0:
486,216,26950,1,10,0:2:0:0:
373,112,27120,1,0,0:2:0:0:
270,317,27289,5,2,1:2:0:0:
397,197,27459,1,0,0:2:0:0:
172,160,27628,1,10,0:2:0:0:
334,251,27798,1,0,0:2:0:0:
113,223,27967,5,2,0:2:0:0:
324,28,28306,1,10,0:2:0:0:
113,223,28645,5,2,1:2:0:0:
249,82,28815,1,0,0:2:0:0:
205,308,28984,1,10,0:2:0:0:
146,140,29153,1,0,0:2:0:0:
370,173,29323,5,2,0:2:0:0:
180,164,29492,1,0,1:2:0:0:
366,303,29662,1,10,0:2:0:0:
215,195,29831,1,0,0:2:0:0:
451,144,30001,5,2,1:2:0:0:
293,248,30170,1,0,0:2:0:0:
293,27,30340,1,10,0:2:0:0:
373,192,30509,1,0,0:2:0:0:
144,131,30679,5,2,0:2:0:0:
412,169,31018,1,10,0:2:0:0:
144,131,31357,6,0,P|163:193|167:299,1,171.690004060661,2|8,1:2|0:2,0:0:0:0:
260,107,31865,1,0,0:2:0:0:
379,220,32035,2,0,P|421:218|458:197,1,85.8450020303307,2|0,0:2|1:2,0:0:0:0:
436,42,32374,2,0,P|393:43|356:64,1,85.8450020303307,8|0,0:2|0:2,0:0:0:0:
270,257,32713,2,0,P|229:171|264:101,1,171.690004060661,2|8,1:2|0:2,0:0:0:0:
445,118,33221,1,0,0:0:0:0:
341,295,33391,2,0,P|349:336|354:379,1,85.8450020303307,2|0,0:2|1:0,0:0:0:0:
179,277,33730,2,0,P|183:234|192:192,1,85.8450020303307,8|0,0:2|0:0,0:0:0:0:
356,64,34069,5,2,1:2:0:0:
163,109,34238,1,0,0:2:0:0:
379,203,34408,1,10,0:2:0:0:
187,143,34577,1,0,0:2:0:0:
207,355,34747,5,2,0:2:0:0:
282,166,34916,1,0,1:2:0:0:
360,373,35086,1,10,0:2:0:0:
269,203,35255,1,0,0:2:0:0:
83,342,35425,5,2,1:2:0:0:
241,280,35594,1,0,0:2:0:0:
40,180,35764,1,10,0:2:0:0:
166,312,35933,1,0,0:2:0:0:
144,89,36103,5,2,0:2:0:0:
274,357,36442,1,10,0:2:0:0:
144,89,36781,5,2,1:2:0:0:
304,204,36950,1,0,0:2:0:0:
69,258,37120,1,10,0:2:0:0:
188,165,37289,1,0,0:2:0:0:
263,372,37459,5,2,0:2:0:0:
158,250,37628,1,0,1:2:0:0:
404,225,37798,1,10,0:2:0:0:
208,314,37967,1,0,0:2:0:0:
356,121,38137,5,2,1:2:0:0:
188,165,38306,1,0,0:2:0:0:
438,227,38476,1,10,0:2:0:0:
272,138,38645,1,0,0:2:0:0:
463,239,38815,5,2,0:2:0:0:
158,157,39153,1,10,0:2:0:0:
463,239,39492,5,2,1:2:0:0:
280,169,39662,1,0,0:2:0:0:
392,370,39831,1,10,0:2:0:0:
368,167,40001,1,0,0:2:0:0:
202,351,40170,5,2,0:2:0:0:
370,208,40340,1,0,1:2:0:0:
145,177,40509,1,10,0:2:0:0:
312,276,40679,1,0,0:2:0:0:
68,288,40848,5,2,1:2:0:0:
236,173,41018,1,0,0:2:0:0:
6,103,41187,1,10,0:2:0:0:
190,176,41357,1,0,0:2:0:0:
1,338,41526,5,2,0:2:0:0:
108,76,41865,1,10,0:2:0:0:
1,338,42204,6,0,B|111:353|70:274|196:283,1,171.690004060661,2|8,1:2|0:2,0:0:0:0:
23,239,42713,1,0,0:0:0:0:
176,169,42882,2,0,P|194:124|202:75,1,85.8450020303307,2|0,0:2|1:2,0:0:0:0:
354,0,43221,2,0,P|362:41|379:81,1,85.8450020303307,8|0,0:2|0:2,0:0:0:0:
459,255,43560,2,0,P|372:196|295:225,1,171.690004060661,2|8,1:2|0:2,0:0:0:0:
212,344,44238,1,8,0:2:0:0:
212,344,44323,1,8,0:2:0:0:
212,344,44408,2,0,P|203:320|196:281,1,42.9225010151654,0|8,1:2|0:2,0:0:0:0:
129,154,44577,2,0,P|123:174|116:194,1,42.9225010151654,0|8,1:2|0:2,0:0:0:0:
278,133,44747,1,0,1:2:0:0:
123,281,44916,6,0,P|71:268|38:227,1,94.694997110138,6|0,1:2|0:0,0:0:0:0:
232,110,45255,1,10,0:2:0:0:
328,317,45425,2,0,P|379:304|412:263,1,94.694997110138,0|0,0:0|0:0,0:0:0:0:
436,84,45764,1,0,1:2:0:0:
227,212,45933,2,0,P|159:176|155:58,1,189.389994220276,8|0,0:2|1:2,0:0:0:0:
307,173,46442,5,2,0:0:0:0:
114,281,46611,1,10,0:2:0:0:
301,265,46781,1,2,0:0:0:0:
76,201,46950,1,2,0:0:0:0:
248,99,47120,1,2,1:2:0:0:
123,311,47289,1,10,0:2:0:0:
161,130,47459,1,2,0:0:0:0:
329,292,47628,6,0,P|381:297|424:279,1,94.694997110138,2|0,1:2|0:0,0:0:0:0:
460,42,47967,2,0,P|408:37|365:55,1,94.694997110138,10|0,0:2|0:0,0:0:0:0:
301,265,48306,2,0,P|356:264|396:252,1,94.694997110138,2|0,0:0|1:2,0:0:0:0:
472,23,48645,2,0,P|366:12|279:49,1,189.389994220276,8|0,0:2|1:2,0:0:0:0:
196,221,49153,5,2,0:0:0:0:
112,0,49323,1,10,0:2:0:0:
246,134,49492,1,2,0:0:0:0:
28,213,49662,1,2,0:0:0:0:
219,111,49831,1,2,1:2:0:0:
130,347,50001,1,10,0:2:0:0:
110,176,50170,1,2,0:0:0:0:
272,334,50340,6,0,P|326:338|375:313,1,94.694997110138,2|0,1:2|0:0,0:0:0:0:
410,164,50679,1,10,0:2:0:0:
187,294,50848,2,0,P|183:348|208:397,1,94.694997110138,0|0,0:0|0:0,0:0:0:0:
319,208,51187,1,0,1:2:0:0:
131,86,51357,2,0,P|73:131|100:264,1,189.389994220276,8|0,0:2|1:2,0:0:0:0:
234,107,51865,5,2,0:0:0:0:
358,281,52035,1,10,0:2:0:0:
205,203,52204,1,2,0:0:0:0:
395,69,52374,2,0,P|445:50|491:46,1,94.694997110138,2|0,0:0|1:2,0:0:0:0:
366,247,52713,1,10,0:2:0:0:
250,72,52882,1,2,0:0:0:0:
174,298,53052,5,2,1:2:0:0:
288,176,53221,1,2,0:0:0:0:
55,242,53391,2,0,P|34:201|28:148,1,94.694997110138,10|0,0:2|0:0,0:0:0:0:
231,37,53730,2,0,P|224:83|203:125,1,94.694997110138,2|0,0:0|1:2,0:0:0:0:
63,284,54069,2,0,P|125:234|240:261,1,189.389994220276,8|0,0:2|1:2,0:0:0:0:
338,371,54577,5,0,0:0:0:0:
454,217,54747,2,0,P|466:168|471:119,1,94.694997110138,8|0,0:2|0:0,0:0:0:0:
343,247,55086,1,0,0:0:0:0:
266,86,55255,1,2,1:2:0:0:
181,264,55425,2,0,P|169:309|164:356,1,94.694997110138,10|0,0:2|0:0,0:0:0:0:
305,167,55764,6,0,P|246:141|195:142,1,94.694997110138,6|0,1:2|0:0,0:0:0:0:
108,318,56103,1,10,0:2:0:0:
125,116,56272,2,0,P|155:59|196:28,1,94.694997110138,0|0,0:0|0:0,0:0:0:0:
283,198,56611,1,0,1:2:0:0:
87,94,56781,2,0,P|119:175|129:293,1,189.389994220276,8|0,0:2|1:2,0:0:0:0:
229,99,57289,5,2,0:0:0:0:
309,328,57459,1,10,0:2:0:0:
208,179,57628,1,2,0:0:0:0:
472,164,57798,1,2,0:0:0:0:
306,290,57967,1,2,1:2:0:0:
361,48,58137,1,10,0:2:0:0:
375,241,58306,1,2,0:0:0:0:
275,26,58476,6,0,P|229:12|178:12,1,94.694997110138,2|0,1:2|0:0,0:0:0:0:
282,255,58815,2,0,P|329:254|374:240,1,94.694997110138,10|0,0:2|0:0,0:0:0:0:
197,56,59153,1,2,0:0:0:0:
169,250,59323,1,0,1:2:0:0:
388,139,59492,2,0,P|455:185|449:318,1,189.389994220276,8|0,0:2|1:2,0:0:0:0:
308,177,60001,5,2,0:0:0:0:
174,371,60170,1,10,0:2:0:0:
174,179,60340,1,2,0:0:0:0:
325,382,60509,1,2,0:0:0:0:
177,226,60679,1,2,1:2:0:0:
397,188,60848,1,10,0:2:0:0:
281,308,61018,1,2,0:0:0:0:
122,116,61187,6,0,P|109:67|104:16,1,94.694997110138,2|0,1:2|0:0,0:0:0:0:
290,62,61526,1,10,0:2:0:0:
170,261,61696,2,0,P|120:253|67:218,1,94.694997110138,0|0,0:0|0:0,0:0:0:0:
207,92,62035,1,0,1:2:0:0:
324,319,62204,2,0,P|441:284|451:205,1,189.389994220276,8|0,0:2|1:2,0:0:0:0:
344,72,62713,5,2,0:0:0:0:
243,297,62882,1,10,0:2:0:0:
207,92,63052,1,2,0:0:0:0:
366,237,63221,2,0,P|383:190|393:134,1,94.694997110138,2|0,0:0|1:2,0:0:0:0:
167,21,63560,1,10,0:2:0:0:
275,188,63730,1,2,0:0:0:0:
26,130,63899,5,2,1:2:0:0:
246,87,64069,1,2,0:0:0:0:
91,254,64238,2,0,P|76:305|64:366,1,94.694997110138,10|0,0:2|0:0,0:0:0:0:
251,175,64577,2,0,B|357:154|326:230|468:199,1,189.389994220276,2|8,0:0|0:2,0:0:0:0:
96,78,65255,5,0,1:2:0:0:
96,78,65594,1,8,0:2:0:0:
96,78,65933,2,0,P|107:102|116:138,1,47.347498555069,10|8,0:2|0:2,0:0:0:0:
211,228,66103,2,0,P|217:205|228:184,1,47.347498555069,0|8,1:2|0:2,0:0:0:0:
304,49,66272,2,0,P|310:71|321:92,1,47.347498555069,2|8,1:2|0:2,0:0:0:0:
399,191,66442,1,0,1:2:0:0:
205,64,66611,5,6,1:2:0:0:
236,347,66781,1,2,0:2:0:0:
328,49,66950,1,10,0:2:0:0:
226,305,67120,1,2,0:2:0:0:
41,79,67289,1,2,0:2:0:0:
283,159,67459,1,2,1:2:0:0:
2,199,67628,1,10,0:2:0:0:
251,137,67798,1,2,0:2:0:0:
3,59,67967,5,2,1:2:0:0:
101,341,68137,1,2,0:2:0:0:
244,57,68306,1,10,0:2:0:0:
319,308,68476,1,2,0:2:0:0:
81,90,68645,1,2,0:2:0:0:
292,231,68815,1,2,1:2:0:0:
20,146,68984,1,10,0:2:0:0:
244,57,69153,1,2,0:2:0:0:
115,363,69323,6,0,P|111:304|96:225,1,94.694997110138,0|0,1:2|0:0,0:0:0:0:
222,80,69662,1,10,0:2:0:0:
319,308,69831,2,0,P|325:210|350:79,1,189.389994220276,2|0,0:2|1:2,0:0:0:0:
415,346,70340,1,10,0:2:0:0:
230,173,70509,2,0,P|182:154|130:157,1,94.694997110138,2|0,0:2|1:2,0:0:0:0:
284,324,70848,1,0,0:2:0:0:
449,141,71018,2,0,P|467:93|464:41,1,94.694997110138,10|0,0:2|0:2,0:0:0:0:
208,37,71357,2,0,P|222:83|238:152,1,94.694997110138,2|0,0:2|1:2,0:0:0:0:
373,336,71696,2,0,P|384:290|398:244,1,94.694997110138,10|0,0:2|0:2,0:0:0:0:
243,21,72035,5,6,1:2:0:0:
148,258,72204,1,2,0:2:0:0:
327,34,72374,1,10,0:2:0:0:
363,307,72543,1,2,0:2:0:0:
230,42,72713,1,2,0:2:0:0:
256,287,72882,1,2,1:2:0:0:
417,18,73052,1,10,0:2:0:0:
204,140,73221,1,2,0:2:0:0:
477,252,73391,5,2,1:2:0:0:
221,178,73560,1,2,0:2:0:0:
456,13,73730,1,10,0:2:0:0:
219,94,73899,1,2,0:2:0:0:
495,264,74069,1,2,0:2:0:0:
311,58,74238,1,2,1:2:0:0:
240,329,74408,1,10,0:2:0:0:
328,140,74577,1,2,0:2:0:0:
155,351,74747,6,0,P|146:298|134:238,1,94.694997110138,0|0,1:2|0:0,0:0:0:0:
85,21,75086,1,10,0:2:0:0:
262,208,75255,2,0,P|342:229|428:130,1,189.389994220276,2|0,0:2|1:2,0:0:0:0:
204,37,75764,1,10,0:2:0:0:
53,243,75933,2,0,P|54:298|73:353,1,94.694997110138,2|0,0:2|1:2,0:0:0:0:
173,139,76272,1,0,0:2:0:0:
329,320,76442,2,0,P|384:319|439:300,1,94.694997110138,10|0,0:2|0:2,0:0:0:0:
266,117,76781,2,0,P|255:168|242:245,1,94.694997110138,2|0,0:2|1:2,0:0:0:0:
70,20,77120,2,0,P|80:66|88:112,1,94.694997110138,10|0,0:2|0:2,0:0:0:0:
302,284,77459,5,6,1:2:0:0:
96,188,77628,1,2,0:2:0:0:
361,66,77798,1,10,0:2:0:0:
109,98,77967,1,2,0:2:0:0:
327,306,78137,1,2,0:2:0:0:
204,84,78306,1,2,1:2:0:0:
108,366,78476,1,10,0:2:0:0:
192,120,78645,1,2,0:2:0:0:
378,365,78815,5,2,1:2:0:0:
161,217,78984,1,2,0:2:0:0:
454,163,79153,1,10,0:2:0:0:
192,120,79323,1,2,0:2:0:0:
398,331,79492,1,2,0:2:0:0:
291,108,79662,1,2,1:2:0:0:
119,341,79831,1,10,0:2:0:0:
296,229,80001,1,2,0:2:0:0:
93,52,80170,6,0,P|104:96|114:160,1,94.694997110138,0|0,1:2|0:0,0:0:0:0:
303,316,80509,1,10,0:2:0:0:
205,90,80679,2,0,P|183:173|165:293,1,189.389994220276,2|0,0:2|1:2,0:0:0:0:
56,40,81187,1,10,0:2:0:0:
302,126,81357,2,0,P|313:170|323:234,1,94.694997110138,2|0,0:2|1:2,0:0:0:0:
129,65,81696,1,0,0:2:0:0:
251,284,81865,2,0,P|298:306|356:306,1,94.694997110138,10|0,0:2|0:0,0:0:0:0:
221,89,82204,2,0,P|209:137|194:211,1,94.694997110138,2|0,0:2|1:2,0:0:0:0:
429,14,82543,2,0,P|440:62|456:136,1,94.694997110138,10|0,0:2|0:2,0:0:0:0:
323,337,82882,5,6,1:2:0:0:
335,118,83052,1,2,0:2:0:0:
131,270,83221,1,10,0:2:0:0:
358,219,83391,1,2,0:2:0:0:
155,51,83560,1,2,0:2:0:0:
255,243,83730,1,2,1:2:0:0:
394,35,83899,1,10,0:2:0:0:
237,210,84069,1,2,0:2:0:0:
426,57,84238,6,0,P|416:109|408:171,1,94.694997110138,2|2,1:2|0:2,0:0:0:0:
246,331,84577,1,10,0:2:0:0:
301,144,84747,1,2,0:2:0:0:
385,376,84916,1,2,0:2:0:0:
274,173,85086,1,2,1:2:0:0:
164,368,85255,1,10,0:2:0:0:
150,164,85425,1,2,0:2:0:0:
362,339,85594,6,0,P|367:289|377:241,1,94.694997110138,0|0,1:2|0:0,0:0:0:0:
442,78,85933,2,0,P|460:175|471:273,1,189.389994220276,10|0,0:2|0:0,0:0:0:0:
324,86,86442,1,0,1:2:0:0:
201,238,86611,2,0,P|153:250|89:229,1,94.694997110138,10|0,0:2|0:0,0:0:0:0:
141,42,86950,2,0,P|202:24|261:70,1,142.042495665207,0|2,1:2|0:0,0:0:0:0:
293,102,87289,2,0,P|277:149|267:211,1,94.694997110138,10|0,0:2|0:2,0:0:0:0:
150,364,87628,2,0,P|141:317|125:272,1,94.694997110138,2|0,1:2|0:2,0:0:0:0:
14,86,87967,1,2,0:0:0:0:
