osu file format v14

[General]
AudioFilename: audio.mp3
AudioLeadIn: 0
PreviewTime: 44408
Countdown: 0
SampleSet: Soft
StackLeniency: 0.7
Mode: 0
LetterboxInBreaks: 0
WidescreenStoryboard: 1

[Editor]
DistanceSpacing: 1.2
BeatDivisor: 4
GridSize: 32
TimelineZoom: 1.6

[Metadata]
Title:Gold Dust
TitleUnicode:Gold Dust
Artist:DJ Fresh
ArtistUnicode:DJ Fresh
Creator:Sotarks
Version:Nikakis' Hard
Source:
Tags:akitoshi corinn -laura- nikakis snownino_ reform kujinn onlybiscuit smokelind miraclee kroytz english vocals brotarks
BeatmapID:1966451
BeatmapSetID:935111

[Difficulty]
HPDrainRate:5
CircleSize:3.8
OverallDifficulty:6
ApproachRate:8
SliderMultiplier:1.5
SliderTickRate:1

[Events]
//Background and Video events
0,0,"bg.jpg",0,0
//Break Periods
//Storyboard Layer 0 (Background)
//Storyboard Layer 1 (Fail)
//Storyboard Layer 2 (Pass)
//Storyboard Layer 3 (Foreground)
//Storyboard Sound Samples

[TimingPoints]
-1185,338.983050847458,4,2,22,62,1,0
1526,-117.647058823529,4,2,22,62,0,0
21187,-117.647058823529,4,2,22,72,0,0
22543,-100,4,2,22,82,0,0
23221,-100,4,2,22,82,0,0
44916,-100,4,2,22,92,0,1
55086,-100,4,2,22,92,0,0
55764,-100,4,2,22,92,0,1
65933,-100,4,2,22,92,0,0
66611,-100,4,2,22,92,0,1
77459,-100,4,2,22,82,0,1
82882,-100,4,2,22,72,0,1
87289,-100,4,2,22,62,0,0
88306,-250,4,2,22,62,0,0

[Colours]
Combo1 : 157,186,191
Combo2 : 164,138,119
Combo3 : 146,162,89
Combo4 : 213,203,164

[HitObjects]
41,55,1526,6,0,L|33:193,1,127.50000243187,2|2,3:0|0:0,0:0:0:0:
90,252,2035,2,0,P|161:272|216:245,1,127.50000243187,2|0,3:0|0:0,0:0:0:0:
272,190,2543,2,0,L|264:62,1,127.50000243187,2|0,3:0|0:0,0:0:0:0:
340,14,3052,1,0,3:0:0:0:
388,88,3221,2,0,L|383:165,1,63.7500012159348,2|0,0:0|0:0,0:0:0:0:
414,235,3560,2,0,L|419:312,1,63.7500012159348,2|2,3:0|0:0,0:0:0:0:
358,365,3899,1,2,0:0:0:0:
358,365,4069,1,2,3:0:0:0:
291,305,4238,6,0,L|300:169,2,127.50000243187,2|2|2,3:0|0:0|0:0,0:0:0:0:
213,350,5086,1,0,0:0:0:0:
135,305,5255,2,0,P|119:265|149:179,1,127.50000243187,0|0,3:0|0:0,0:0:0:0:
188,110,5764,1,2,3:0:0:0:
254,169,5933,2,0,P|289:175|322:166,1,63.7500012159348,2|0,0:0|0:0,0:0:0:0:
389,117,6272,2,0,L|395:40,1,63.7500012159348,2|2,3:0|0:0,0:0:0:0:
318,5,6611,2,0,P|283:-1|250:8,1,63.7500012159348,2|2,0:0|3:0,0:0:0:0:
193,69,6950,6,0,L|198:210,1,127.50000243187,2|0,3:0|0:0,0:0:0:0:
284,171,7459,2,0,P|355:147|412:177,1,127.50000243187,0|0,3:0|0:0,0:0:0:0:
462,231,7967,2,0,L|457:372,1,127.50000243187,0|0,3:0|0:0,0:0:0:0:
370,382,8476,1,2,3:0:0:0:
357,293,8645,2,0,L|351:222,1,63.7500012159348,2|2,0:0|0:0,0:0:0:0:
279,175,8984,2,0,P|218:157|159:179,1,127.50000243187,2|2,3:0|0:0,0:0:0:0:
101,247,9492,1,2,3:0:0:0:
69,165,9662,6,0,L|75:94,1,63.7500012159348,2|2,3:0|0:0,0:0:0:0:
132,33,10001,2,0,P|184:26|212:38,1,63.7500012159348,2|0,0:0|3:0,0:0:0:0:
271,74,10340,2,0,L|276:137,1,63.7500012159348,2|0,0:0|0:0,0:0:0:0:
245,221,10679,2,0,B|181:238|181:238|99:217,1,127.50000243187,0|0,3:0|0:0,0:0:0:0:
39,187,11187,2,0,B|22:229|22:229|33:333,1,127.50000243187,0|0,3:0|0:0,0:0:0:0:
104,362,11696,2,0,P|147:368|184:352,1,63.7500012159348,0|0,3:0|0:0,0:0:0:0:
239,310,12035,2,0,L|245:222,1,63.7500012159348,2|0,0:0|3:0,0:0:0:0:
194,171,12374,6,0,L|56:177,1,127.50000243187,2|2,3:0|0:0,0:0:0:0:
3,113,12882,2,0,P|-7:64|66:17,1,127.50000243187,2|0,3:0|0:0,0:0:0:0:
129,44,13391,2,0,L|123:182,1,127.50000243187,2|0,3:0|0:0,0:0:0:0:
174,245,13899,1,0,3:0:0:0:
236,180,14069,2,0,L|231:116,1,63.7500012159348,2|0,0:0|0:0,0:0:0:0:
281,42,14408,2,0,P|311:32|342:35,1,63.7500012159348,2|2,3:0|0:0,0:0:0:0:
418,83,14747,1,2,0:0:0:0:
418,83,14916,1,2,3:0:0:0:
413,172,15086,6,0,L|408:299,2,127.50000243187,2|2|2,3:0|0:0|0:0,0:0:0:0:
343,115,15933,1,0,0:0:0:0:
286,183,16103,2,0,P|246:199|160:169,1,127.50000243187,0|0,3:0|0:0,0:0:0:0:
96,121,16611,1,2,3:0:0:0:
90,210,16781,2,0,L|85:273,1,63.7500012159348,2|0,0:0|0:0,0:0:0:0:
146,339,17120,2,0,P|191:346|219:336,1,63.7500012159348,2|2,3:0|0:0,0:0:0:0:
283,292,17459,2,0,L|278:228,1,63.7500012159348,2|2,0:0|3:0,0:0:0:0:
246,144,17798,6,0,L|250:16,1,127.50000243187,2|0,3:0|0:0,0:0:0:0:
339,3,18307,2,0,P|416:30|415:90,1,127.50000243187,0|0,3:0|0:0,0:0:0:0:
384,147,18815,2,0,L|243:142,1,127.50000243187,0|0,3:0|0:0,0:0:0:0:
166,140,19324,1,2,3:0:0:0:
175,228,19493,2,0,L|180:291,1,63.7500012159348,2|2,0:0|0:0,0:0:0:0:
115,352,19831,2,0,P|65:348|26:286,1,127.50000243187,2|2,3:0|0:0,0:0:0:0:
26,196,20340,1,2,3:0:0:0:
114,208,20510,6,0,L|185:214,1,63.7500012159348,2|2,3:0|0:0,0:0:0:0:
246,156,20849,2,0,P|253:104|241:76,1,63.7500012159348,2|0,0:0|3:0,0:0:0:0:
184,33,21188,2,0,L|121:38,1,63.7500012159348,2|0,0:0|0:0,0:0:0:0:
62,106,21527,2,0,B|49:172|49:172|69:248,1,127.50000243187,0|0,0:0|0:0,0:0:0:0:
152,215,22035,2,0,B|218:202|218:202|294:222,1,127.50000243187,0|0,0:0|0:0,0:0:0:0:
357,256,22543,2,0,L|361:307,3,37.5,8|8|0|8,0:0|0:0|1:0|0:0,0:0:0:0:
332,329,22882,2,0,L|294:326,3,37.5,0|8|0|0,1:0|0:0|1:0|0:0,0:0:0:0:
265,291,23221,6,0,L|259:188,1,75,2|0,1:0|0:0,0:0:0:0:
257,125,23560,1,10,0:0:0:0:
257,125,23730,1,0,0:0:0:0:
207,50,23899,2,0,P|152:41|121:56,1,75,2|0,0:0|1:0,0:0:0:0:
58,94,24238,1,10,0:0:0:0:
58,94,24408,1,0,0:0:0:0:
56,183,24577,6,0,L|51:257,1,75,2|0,1:0|0:0,0:0:0:0:
87,340,24916,1,10,0:0:0:0:
87,340,25086,1,0,0:0:0:0:
164,295,25255,1,2,0:0:0:0:
101,126,25594,1,10,0:0:0:0:
251,27,25933,6,0,L|257:130,1,75,2|0,1:0|0:0,0:0:0:0:
263,191,26272,1,10,0:0:0:0:
263,191,26442,1,0,0:0:0:0:
344,227,26611,2,0,P|380:234|415:223,1,75,2|0,0:0|1:0,0:0:0:0:
491,175,26950,1,10,0:0:0:0:
491,175,27120,1,0,0:0:0:0:
436,103,27289,6,0,L|362:98,1,75,2|0,1:0|0:0,0:0:0:0:
271,93,27628,1,10,0:0:0:0:
271,93,27798,1,0,0:0:0:0:
236,175,27967,1,2,0:0:0:0:
354,310,28306,1,10,0:0:0:0:
184,370,28645,6,0,L|100:365,1,75,2|0,1:0|0:0,0:0:0:0:
19,356,28984,1,10,0:0:0:0:
19,356,29153,1,0,0:0:0:0:
73,283,29323,2,0,P|80:246|69:211,1,75,2|0,0:0|1:0,0:0:0:0:
29,130,29662,1,10,0:0:0:0:
29,130,29831,1,0,0:0:0:0:
119,127,30001,6,0,L|203:122,1,75,2|0,1:0|0:0,0:0:0:0:
284,118,30340,1,10,0:0:0:0:
284,118,30509,1,0,0:0:0:0:
239,39,30679,1,2,0:0:0:0:
412,17,31018,1,10,0:0:0:0:
356,188,31357,6,0,P|277:212|194:168,1,150,2|8,1:0|0:0,0:0:0:0:
144,134,31865,1,0,0:0:0:0:
86,203,32035,2,0,L|73:360,1,150,2|8,0:0|0:0,0:0:0:0:
158,383,32543,1,0,0:0:0:0:
222,319,32713,6,0,L|209:169,1,150,2|8,1:0|0:0,0:0:0:0:
198,79,33221,1,0,0:0:0:0:
279,118,33391,2,0,P|358:142|441:98,1,150,2|8,0:0|0:0,0:0:0:0:
483,56,33899,1,0,0:0:0:0:
399,21,34069,6,0,P|356:12|310:28,1,75,2|0,1:0|0:0,0:0:0:0:
248,63,34408,1,10,0:0:0:0:
248,63,34577,1,0,0:0:0:0:
251,153,34747,2,0,L|253:234,1,75,2|0,0:0|1:0,0:0:0:0:
259,317,35086,1,10,0:0:0:0:
259,317,35255,1,0,0:0:0:0:
339,276,35425,6,0,P|375:266|411:273,1,75,2|0,1:0|0:0,0:0:0:0:
485,326,35764,1,10,0:0:0:0:
485,326,35933,1,0,0:0:0:0:
409,375,36103,1,2,0:0:0:0:
436,197,36442,1,10,0:0:0:0:
273,275,36781,6,0,L|173:267,1,75,2|0,1:0|0:0,0:0:0:0:
108,260,37120,1,10,0:0:0:0:
108,260,37289,1,0,0:0:0:0:
156,183,37459,2,0,P|166:129|155:99,1,75,2|0,0:0|1:0,0:0:0:0:
106,38,37798,1,10,0:0:0:0:
106,38,37967,1,0,0:0:0:0:
196,33,38137,6,0,L|296:25,1,75,2|0,1:0|0:0,0:0:0:0:
360,20,38476,1,10,0:0:0:0:
360,20,38645,1,0,0:0:0:0:
317,99,38815,1,2,0:0:0:0:
446,222,39153,1,10,0:0:0:0:
329,359,39492,6,0,L|229:351,1,75,2|0,1:0|0:0,0:0:0:0:
164,344,39831,1,10,0:0:0:0:
164,344,40000,1,0,0:0:0:0:
208,265,40170,2,0,L|308:257,1,75,2|0,0:0|1:0,0:0:0:0:
372,248,40509,1,10,0:0:0:0:
372,248,40678,1,0,0:0:0:0:
321,173,40848,6,0,P|312:126|321:93,1,75,2|0,1:0|0:0,0:0:0:0:
361,20,41187,1,10,0:0:0:0:
361,20,41357,1,0,0:0:0:0:
271,30,41526,1,2,0:0:0:0:
333,203,41865,1,10,0:0:0:0:
166,134,42204,6,0,P|99:112|19:166,1,150,2|8,1:0|0:0,0:0:0:0:
7,233,42713,1,0,0:0:0:0:
76,289,42882,2,0,L|227:277,1,150,2|8,0:0|0:0,0:0:0:0:
295,218,43391,1,0,0:0:0:0:
225,161,43560,6,0,P|193:99|229:18,1,150,2|8,1:0|0:0,0:0:0:0:
306,2,44069,1,0,0:0:0:0:
342,83,44238,2,0,L|339:133,3,37.5,8|8|0|8,0:0|0:0|1:0|0:0,0:0:0:0:
336,165,44577,2,0,L|339:215,2,37.5,0|8|0,1:0|0:0|1:0,0:0:0:0:
260,115,44916,6,0,P|195:89|113:134,1,150,6|10,1:0|0:0,0:0:0:0:
123,209,45425,2,0,L|284:204,1,150,0|0,0:0|1:0,0:0:0:0:
352,246,45933,2,0,P|378:311|333:393,1,150,8|0,0:0|1:0,0:0:0:0:
258,368,46442,1,2,0:0:0:0:
266,279,46611,2,0,L|274:188,1,75,10|2,0:0|0:0,0:0:0:0:
300,118,46950,2,0,L|292:27,1,75,2|2,0:0|1:0,0:0:0:0:
212,2,47289,1,10,0:0:0:0:
212,2,47459,1,2,0:0:0:0:
136,50,47628,6,0,P|127:99|142:138,1,75,2|0,1:0|0:0,0:0:0:0:
188,193,47967,2,0,L|277:187,1,75,10|0,0:0|0:0,0:0:0:0:
342,230,48306,2,0,P|351:279|336:318,1,75,2|0,0:0|1:0,0:0:0:0:
271,355,48645,2,0,L|109:343,1,150,8|0,0:0|1:0,0:0:0:0:
58,279,49153,1,2,0:0:0:0:
119,212,49323,2,0,L|205:203,1,75,10|2,0:0|0:0,0:0:0:0:
260,143,49662,2,0,P|270:94|250:55,1,75,2|2,0:0|1:0,0:0:0:0:
184,24,50001,2,0,L|98:15,1,75,10|2,0:0|0:0,0:0:0:0:
40,74,50340,6,0,B|21:123|21:123|40:245,1,150,2|10,1:0|0:0,0:0:0:0:
121,189,50848,2,0,P|160:169|253:206,1,150,0|0,0:0|1:0,0:0:0:0:
258,296,51357,2,0,L|83:278,1,150,8|0,0:0|1:0,0:0:0:0:
53,209,51865,1,2,0:0:0:0:
120,148,52035,2,0,L|208:140,1,75,10|2,0:0|0:0,0:0:0:0:
267,194,52374,2,0,P|303:223|411:209,1,150,2|10,0:0|0:0,0:0:0:0:
453,142,52882,1,2,0:0:0:0:
373,100,53052,5,2,1:0:0:0:
373,100,53221,1,2,0:0:0:0:
299,152,53391,2,0,P|290:200|300:234,1,75,10|0,0:0|0:0,0:0:0:0:
334,306,53730,2,0,P|343:354|333:388,1,75,2|0,0:0|1:0,0:0:0:0:
246,382,54069,2,0,L|93:371,1,150,8|0,0:0|1:0,0:0:0:0:
42,298,54577,1,0,0:0:0:0:
56,208,54747,2,0,L|48:103,1,75,8|0,0:0|0:0,0:0:0:0:
126,84,55086,2,0,L|200:78,1,75,0|2,0:0|1:0,0:0:0:0:
250,149,55425,2,0,L|242:254,1,75,10|0,0:0|0:0,0:0:0:0:
247,311,55764,6,0,P|308:342|400:302,1,150,6|10,1:0|0:0,0:0:0:0:
436,245,56272,2,0,L|424:78,1,150,0|0,0:0|1:0,0:0:0:0:
342,57,56781,2,0,B|267:78|267:78|170:43,1,150,8|0,0:0|1:0,0:0:0:0:
116,17,57289,1,2,0:0:0:0:
84,101,57459,2,0,P|75:149|90:185,1,75,10|2,0:0|0:0,0:0:0:0:
148,234,57798,2,0,L|231:227,1,75,2|2,0:0|1:0,0:0:0:0:
300,272,58137,1,10,0:0:0:0:
300,272,58306,1,2,0:0:0:0:
243,342,58476,6,0,P|195:351|159:336,1,75,2|0,1:0|0:0,0:0:0:0:
104,281,58815,2,0,L|111:198,1,75,10|0,0:0|0:0,0:0:0:0:
197,185,59153,2,0,L|280:178,1,75,2|0,0:0|1:0,0:0:0:0:
347,130,59492,2,0,P|367:78|302:-1,1,150,8|0,0:0|1:0,0:0:0:0:
228,9,60001,1,2,0:0:0:0:
222,98,60170,2,0,L|213:190,1,75,10|2,0:0|0:0,0:0:0:0:
233,261,60509,2,0,L|242:353,1,75,2|2,0:0|1:0,0:0:0:0:
159,375,60848,2,0,P|121:385|68:369,1,75,10|2,0:0|0:0,0:0:0:0:
23,314,61187,6,0,L|34:154,1,150,2|10,1:0|0:0,0:0:0:0:
89,92,61696,2,0,P|163:68|234:103,1,150,0|0,0:0|1:0,0:0:0:0:
290,158,62204,2,0,L|300:307,1,150,8|0,0:0|1:0,0:0:0:0:
367,368,62713,1,2,0:0:0:0:
413,291,62882,2,0,P|421:247|407:208,1,75,10|2,0:0|0:0,0:0:0:0:
358,146,63221,2,0,L|196:140,1,150,2|10,0:0|0:0,0:0:0:0:
138,82,63730,1,2,0:0:0:0:
198,15,63899,5,2,1:0:0:0:
198,15,64069,1,2,0:0:0:0:
246,90,64238,2,0,L|250:177,1,75,10|0,0:0|0:0,0:0:0:0:
218,249,64577,2,0,L|214:336,1,75,2|0,0:0|1:0,0:0:0:0:
293,367,64916,2,0,P|375:387|450:358,1,150,8|0,0:0|1:0,0:0:0:0:
504,309,65425,1,0,0:0:0:0:
463,224,65594,2,0,L|465:131,1,75,8|0,0:0|0:0,0:0:0:0:
428,66,65933,2,0,L|365:59,3,37.5,10|8|0|8,0:0|0:0|1:0|0:0,0:0:0:0:
352,37,66272,2,0,L|314:41,3,37.5,2|8|0|0,1:0|0:0|1:0|0:0,0:0:0:0:
270,32,66611,6,0,L|263:113,1,75,6|2,1:0|0:0,0:0:0:0:
258,202,66950,1,10,0:0:0:0:
258,202,67120,1,2,0:0:0:0:
176,165,67289,2,0,P|130:155|94:168,1,75,2|2,0:0|1:0,0:0:0:0:
40,226,67628,1,10,0:0:0:0:
40,226,67798,1,2,0:0:0:0:
97,294,67967,6,0,L|180:289,1,75,2|2,1:0|0:0,0:0:0:0:
250,245,68306,1,10,0:0:0:0:
250,245,68476,1,2,0:0:0:0:
198,171,68645,2,0,P|187:133|202:87,1,75,2|2,0:0|1:0,0:0:0:0:
250,28,68984,1,10,0:0:0:0:
250,28,69153,1,2,0:0:0:0:
306,98,69323,6,0,B|325:136|325:136|317:244,1,150,0|10,1:0|0:0,0:0:0:0:
232,210,69831,2,0,P|160:184|82:239,1,150,2|0,0:0|1:0,0:0:0:0:
89,305,70340,2,0,L|252:301,1,150,10|0,0:0|1:0,0:0:0:0:
304,238,70848,1,0,0:0:0:0:
260,158,71018,2,0,L|263:68,1,75,10|0,0:0|0:0,0:0:0:0:
330,27,71357,2,0,P|377:16|413:29,1,75,2|0,0:0|1:0,0:0:0:0:
476,74,71696,2,0,L|480:148,1,75,10|0,0:0|0:0,0:0:0:0:
447,234,72035,6,0,P|400:245|364:232,1,75,6|2,1:0|0:0,0:0:0:0:
292,202,72374,1,10,0:0:0:0:
292,202,72543,1,2,0:0:0:0:
283,112,72713,2,0,L|279:37,1,75,2|2,0:0|1:0,0:0:0:0:
196,0,73052,1,10,0:0:0:0:
196,0,73221,1,2,0:0:0:0:
138,69,73391,6,0,P|127:116|140:152,1,75,2|2,1:0|0:0,0:0:0:0:
186,221,73730,1,10,0:0:0:0:
186,221,73899,1,2,0:0:0:0:
275,209,74069,2,0,L|361:202,1,75,2|2,0:0|1:0,0:0:0:0:
433,250,74408,1,10,0:0:0:0:
433,250,74577,1,2,0:0:0:0:
363,312,74747,6,0,B|288:332|288:332|201:301,1,150,0|10,1:0|0:0,0:0:0:0:
174,230,75255,2,0,L|170:77,1,150,2|0,0:0|1:0,0:0:0:0:
99,23,75764,2,0,P|48:22|13:108,1,150,10|0,0:0|1:0,0:0:0:0:
41,187,76272,1,0,0:0:0:0:
131,183,76442,2,0,L|229:177,1,75,8|0,0:0|0:0,0:0:0:0:
264,246,76781,2,0,P|274:281|266:317,1,75,2|0,0:0|1:0,0:0:0:0:
189,366,77120,2,0,L|91:358,1,75,10|0,0:0|0:0,0:0:0:0:
48,298,77459,6,0,P|37:262|45:226,1,75,6|2,1:0|0:0,0:0:0:0:
100,154,77798,1,10,0:0:0:0:
100,154,77967,1,2,0:0:0:0:
160,221,78137,2,0,L|262:229,1,75,2|2,0:0|1:0,0:0:0:0:
310,178,78476,1,10,0:0:0:0:
310,178,78645,1,2,0:0:0:0:
244,115,78815,6,0,P|234:56|250:23,1,75,2|2,1:0|0:0,0:0:0:0:
319,4,79153,1,10,0:0:0:0:
319,4,79323,1,2,0:0:0:0:
368,79,79492,2,0,L|363:168,1,75,2|2,0:0|1:0,0:0:0:0:
296,213,79831,2,0,P|259:221|222:212,1,75,10|2,0:0|0:0,0:0:0:0:
144,169,80170,6,0,P|99:148|4:188,1,150,0|10,1:0|0:0,0:0:0:0:
9,271,80679,2,0,B|87:288|87:288|167:262,1,150,2|0,0:0|1:0,0:0:0:0:
214,203,81187,2,0,L|221:107,1,75,10|2,0:0|0:0,0:0:0:0:
273,55,81526,6,0,P|308:31|409:61,1,150,0|10,1:0|0:0,0:0:0:0:
465,124,82035,1,0,0:0:0:0:
400,186,82204,2,0,L|307:179,1,75,2|0,0:0|1:0,0:0:0:0:
248,227,82543,2,0,P|236:269|256:325,1,75,10|0,0:0|0:0,0:0:0:0:
310,358,82882,6,0,L|403:351,1,75,6|2,1:0|0:0,0:0:0:0:
461,304,83221,1,10,0:0:0:0:
461,304,83391,1,2,0:0:0:0:
400,237,83560,2,0,P|364:227|324:236,1,75,2|2,0:0|1:0,0:0:0:0:
244,269,83899,1,10,0:0:0:0:
244,269,84069,1,2,0:0:0:0:
251,179,84238,6,0,L|257:85,1,75,2|2,1:0|0:0,0:0:0:0:
265,14,84577,1,10,0:0:0:0:
265,14,84747,1,2,0:0:0:0:
182,49,84916,2,0,P|137:58|96:42,1,75,2|2,0:0|1:0,0:0:0:0:
23,22,85255,2,0,L|27:96,1,75,10|2,0:0|0:0,0:0:0:0:
89,162,85594,6,0,P|156:181|243:137,1,150,0|10,1:0|0:0,0:0:0:0:
297,93,86103,1,0,0:0:0:0:
325,178,86272,2,0,L|316:339,1,150,0|10,0:0|0:0,0:0:0:0:
239,375,86781,1,0,0:0:0:0:
190,299,86950,2,0,P|177:239|199:191,1,112.5,0|2,1:0|0:0,0:0:0:0:
230,163,87289,5,10,0:0:0:0:
230,163,87459,1,0,0:0:0:0:
314,194,87628,2,0,P|373:199|407:179,1,75,2|0,1:0|0:0,0:0:0:0:
459,140,87967,1,2,0:0:0:0:
