osu file format v14

[General]
AudioFilename: audio.mp3
AudioLeadIn: 0
PreviewTime: 44408
Countdown: 0
SampleSet: Soft
StackLeniency: 0.7
Mode: 0
LetterboxInBreaks: 0
WidescreenStoryboard: 1

[Editor]
Bookmarks: 67859
DistanceSpacing: 1.2
BeatDivisor: 4
GridSize: 4
TimelineZoom: 2.599999

[Metadata]
Title:Gold Dust
TitleUnicode:Gold Dust
Artist:DJ Fresh
ArtistUnicode:DJ Fresh
Creator:Sotarks
Version:MiracleE's Extra
Source:
Tags:akitoshi corinn -laura- nikakis snownino_ reform kujinn onlybiscuit smokelind miraclee kroytz english vocals brotarks
BeatmapID:1956122
BeatmapSetID:935111

[Difficulty]
HPDrainRate:5.2
CircleSize:3.8
OverallDifficulty:9.1
ApproachRate:9.2
SliderMultiplier:1.82
SliderTickRate:1

[Events]
//Background and Video events
0,0,"bg.jpg",0,0
//Break Periods
//Storyboard Layer 0 (Background)
//Storyboard Layer 1 (Fail)
//Storyboard Layer 2 (Pass)
//Storyboard Layer 3 (Foreground)
//Storyboard Sound Samples

[TimingPoints]
-1185,338.983050847458,4,2,22,62,1,0
1526,-121.951219512195,4,2,22,62,0,0
21187,-192.307692307692,4,2,22,72,0,0
22543,-121.951219512195,4,2,22,82,0,0
23221,-98.0392156862744,4,2,22,82,0,0
44916,-89.2857142857143,4,2,22,92,0,0
77459,-89.2857142857143,4,2,22,82,0,0
82882,-89.2857142857143,4,2,22,72,0,0
87628,-89.2857142857143,4,2,22,62,0,0
87967,-138.888888888889,4,2,22,62,0,0

[Colours]
Combo1 : 157,186,191
Combo2 : 164,138,119
Combo3 : 146,162,89
Combo4 : 213,203,164

[HitObjects]
282,341,1526,6,0,P|376:303|386:256,1,149.240002277222,2|2,3:2|0:2,0:0:0:0:
332,151,2035,2,0,P|259:186|176:202,1,149.240002277222,2|0,3:2|0:2,0:0:0:0:
63,155,2543,2,0,P|113:217|111:288,1,149.240002277222,2|0,3:2|0:2,0:0:0:0:
221,211,3052,1,0,3:2:0:0:
285,330,3221,2,0,P|331:357|358:358,1,74.6200011386109,2|0,0:2|0:2,0:0:0:0:
405,205,3560,1,2,3:2:0:0:
285,330,3730,1,2,0:2:0:0:
333,163,3899,1,2,0:2:0:0:
367,333,4069,1,2,3:2:0:0:
229,194,4238,6,0,P|188:175|136:167,1,74.6200011386109,2|0,3:2|0:2,0:0:0:0:
298,84,4577,2,0,P|339:65|391:57,1,74.6200011386109,2|0,0:2|3:2,0:0:0:0:
237,159,4916,2,0,P|196:140|144:132,1,74.6200011386109,2|0,0:2|0:2,0:0:0:0:
24,278,5255,2,0,B|120:264|68:233|166:212,1,149.240002277222,0|0,3:2|0:2,0:0:0:0:
285,177,5764,1,2,3:2:0:0:
353,288,5933,2,0,P|368:328|379:370,1,74.6200011386109,2|0,0:2|0:2,0:0:0:0:
251,252,6272,1,2,3:2:0:0:
399,187,6442,1,2,0:2:0:0:
270,284,6611,1,2,0:2:0:0:
440,307,6781,1,2,3:2:0:0:
476,123,6950,6,0,P|440:201|433:276,1,149.240002277222,2|0,3:2|0:2,0:0:0:0:
299,256,7459,2,0,P|293:164|265:100,1,149.240002277222,0|0,3:2|0:2,0:0:0:0:
175,19,7967,2,0,P|97:35|76:99,1,149.240002277222,0|0,3:2|0:2,0:0:0:0:
124,244,8476,1,2,3:2:0:0:
174,92,8645,1,2,0:2:0:0:
30,219,8815,1,2,0:2:0:0:
60,55,8984,2,0,P|78:99|93:145,1,74.6200011386109,2|0,3:2|0:2,0:0:0:0:
207,15,9323,1,2,0:2:0:0:
149,168,9492,1,2,3:2:0:0:
327,61,9662,5,2,3:2:0:0:
174,92,9831,1,2,0:2:0:0:
302,183,10001,2,0,P|318:225|325:264,1,74.6200011386109,2|0,0:2|3:2,0:0:0:0:
186,341,10340,2,0,P|193:296|208:259,1,74.6200011386109,2|0,0:2|0:2,0:0:0:0:
358,129,10679,2,0,P|426:172|446:242,1,149.240002277222,0|0,3:2|0:2,0:0:0:0:
417,365,11187,2,0,P|343:336|262:329,1,149.240002277222,0|0,3:2|0:2,0:0:0:0:
160,215,11696,2,0,P|180:259|188:290,1,74.6200011386109,0|0,3:2|0:2,0:0:0:0:
338,200,12035,2,0,P|347:152|359:122,1,74.6200011386109,2|0,0:2|3:2,0:0:0:0:
203,10,12374,6,0,B|108:23|169:65|59:84,1,149.240002277222,2|2,3:2|0:2,0:0:0:0:
21,201,12882,2,0,B|116:214|55:256|165:275,1,149.240002277222,2|0,3:2|0:2,0:0:0:0:
264,194,13391,2,0,P|241:281|234:349,1,149.240002277222,2|0,3:2|0:2,0:0:0:0:
181,205,13899,1,0,3:2:0:0:
302,94,14069,2,0,P|326:143|334:184,1,74.6200011386109,2|0,0:2|0:2,0:0:0:0:
256,309,14408,1,2,3:2:0:0:
405,242,14577,1,2,0:2:0:0:
255,181,14747,1,2,0:2:0:0:
356,314,14916,1,2,3:2:0:0:
456,140,15086,6,0,P|470:95|470:57,1,74.6200011386109,2|0,3:2|0:2,0:0:0:0:
314,12,15425,2,0,P|317:59|330:94,1,74.6200011386109,2|0,0:2|3:2,0:0:0:0:
473,172,15764,2,0,P|487:127|487:89,1,74.6200011386109,2|0,0:2|0:2,0:0:0:0:
352,202,16103,2,0,P|268:185|234:127,1,149.240002277222,0|0,3:2|0:2,0:0:0:0:
214,8,16611,1,2,3:2:0:0:
120,108,16781,2,0,P|140:157|145:190,1,74.6200011386109,2|0,0:2|0:2,0:0:0:0:
214,318,17120,1,2,3:2:0:0:
286,176,17289,1,2,0:2:0:0:
145,262,17459,1,2,0:2:0:0:
77,110,17628,1,2,3:2:0:0:
255,254,17798,6,0,P|340:240|373:176,1,149.240002277222,2|0,3:2|0:2,0:0:0:0:
331,63,18306,2,0,P|225:89|173:94,1,149.240002277222,0|0,3:2|0:2,0:0:0:0:
97,188,18815,2,0,P|203:211|252:229,1,149.240002277222,0|0,3:2|0:2,0:0:0:0:
158,117,19323,1,2,3:2:0:0:
116,277,19492,1,2,0:2:0:0:
194,129,19662,1,2,0:2:0:0:
33,236,19831,2,0,P|20:189|7:159,1,74.6200011386109,2|0,3:2|0:2,0:0:0:0:
123,304,20170,1,2,0:2:0:0:
88,147,20340,1,2,3:2:0:0:
234,270,20509,5,2,3:2:0:0:
71,243,20679,1,2,0:2:0:0:
260,281,20848,2,0,P|313:269|336:252,1,74.6200011386109,2|0,0:2|3:2,0:0:0:0:
400,67,21187,2,0,B|249:67|346:152|190:171,1,236.599998555908,2|0,0:2|0:0,0:0:0:0:
200,169,22543,5,8,0:2:0:0:
178,199,22627,1,8,0:2:0:0:
164,233,22712,1,0,1:2:0:0:
159,270,22797,1,8,0:2:0:0:
164,307,22882,2,0,P|175:336|186:348,2,37.3100005693054,0|8|0,1:2|0:2|1:2,0:2:0:0:
312,171,23221,5,2,1:2:0:0:
403,343,23391,1,0,0:2:0:0:
423,146,23560,1,10,0:2:0:0:
327,311,23730,1,0,0:2:0:0:
221,114,23899,5,2,0:2:0:0:
383,228,24069,1,0,1:2:0:0:
205,135,24238,1,10,0:2:0:0:
238,324,24408,1,0,0:2:0:0:
312,113,24577,5,2,1:2:0:0:
176,259,24747,1,0,0:2:0:0:
113,73,24916,1,10,0:2:0:0:
275,189,25086,1,0,0:2:0:0:
29,256,25255,5,2,0:2:0:0:
255,35,25594,1,10,0:2:0:0:
211,350,25933,5,2,1:2:0:0:
138,161,26103,1,0,0:2:0:0:
290,289,26272,1,10,0:2:0:0:
363,100,26442,1,0,0:2:0:0:
176,258,26611,5,2,0:2:0:0:
256,72,26781,1,0,1:2:0:0:
370,229,26950,1,10,0:2:0:0:
227,93,27120,1,0,0:2:0:0:
446,41,27289,5,2,1:2:0:0:
299,160,27459,1,0,0:2:0:0:
482,232,27628,1,10,0:2:0:0:
363,80,27798,1,0,0:2:0:0:
412,336,27967,5,2,0:2:0:0:
482,23,28306,1,10,0:2:0:0:
271,267,28645,5,2,1:2:0:0:
476,185,28815,1,0,0:2:0:0:
269,107,28984,1,10,0:2:0:0:
347,322,29153,1,0,0:2:0:0:
272,71,29323,5,2,0:2:0:0:
197,293,29492,1,0,1:2:0:0:
137,69,29662,1,10,0:2:0:0:
314,215,29831,1,0,0:2:0:0:
70,291,30001,5,2,1:2:0:0:
225,128,30170,1,0,0:2:0:0:
188,349,30340,1,10,0:2:0:0:
144,119,30509,1,0,0:2:0:0:
26,375,30679,5,2,0:2:0:0:
135,89,31018,1,10,0:2:0:0:
316,336,31357,6,0,P|404:273|397:184,1,185.640001133057,2|8,1:2|0:2,0:0:0:0:
326,68,31865,1,0,0:2:0:0:
196,248,32035,2,0,P|151:265|108:257,1,92.8200005665283,2|0,0:2|1:2,0:0:0:0:
216,123,32374,2,0,P|263:129|297:156,1,92.8200005665283,8|0,0:2|0:2,0:0:0:0:
475,296,32713,6,0,B|343:278|423:352|275:354,1,185.640001133057,2|8,1:2|0:2,0:0:0:0:
299,183,33221,1,0,0:0:0:0:
167,268,33391,2,0,P|154:313|142:369,1,92.8200005665283,2|0,0:2|1:0,0:0:0:0:
263,246,33730,2,0,P|253:200|237:145,1,92.8200005665283,8|0,0:2|0:0,0:0:0:0:
56,217,34069,5,2,1:2:0:0:
207,87,34238,1,0,0:2:0:0:
36,184,34408,1,10,0:2:0:0:
229,240,34577,1,0,0:2:0:0:
136,34,34747,5,2,0:2:0:0:
207,219,34916,1,0,1:2:0:0:
288,41,35086,1,10,0:2:0:0:
118,139,35255,1,0,0:2:0:0:
323,43,35425,5,2,1:2:0:0:
311,249,35594,1,0,0:2:0:0:
187,97,35764,1,10,0:2:0:0:
369,184,35933,1,0,0:2:0:0:
120,314,36103,5,2,0:2:0:0:
420,206,36442,1,10,0:2:0:0:
126,74,36781,5,2,1:2:0:0:
251,232,36950,1,0,0:2:0:0:
235,40,37120,1,10,0:2:0:0:
154,229,37289,1,0,0:2:0:0:
314,54,37459,5,2,0:2:0:0:
387,236,37628,1,0,1:2:0:0:
210,132,37798,1,10,0:2:0:0:
404,78,37967,1,0,0:2:0:0:
270,276,38137,5,2,1:2:0:0:
190,100,38306,1,0,0:2:0:0:
362,216,38476,1,10,0:2:0:0:
420,33,38645,1,0,0:2:0:0:
257,300,38815,5,2,0:2:0:0:
167,20,39153,1,10,0:2:0:0:
73,304,39492,5,2,1:2:0:0:
190,100,39662,1,0,0:2:0:0:
277,307,39831,1,10,0:2:0:0:
126,192,40001,1,0,0:2:0:0:
364,103,40170,5,2,0:2:0:0:
198,256,40340,1,0,1:2:0:0:
416,202,40509,1,10,0:2:0:0:
211,118,40679,1,0,0:2:0:0:
436,237,40848,5,2,1:2:0:0:
222,338,41018,1,0,0:2:0:0:
416,202,41187,1,10,0:2:0:0:
203,102,41357,1,0,0:2:0:0:
319,374,41526,5,2,0:2:0:0:
455,119,41865,1,10,0:2:0:0:
201,254,42204,6,0,P|231:132|227:69,1,185.640001133057,2|8,1:2|0:2,0:0:0:0:
326,276,42713,1,0,0:0:0:0:
362,120,42882,2,0,P|408:94|462:98,1,92.8200005665283,2|0,0:2|1:2,0:0:0:0:
382,246,43221,2,0,P|329:242|286:209,1,92.8200005665283,8|0,0:2|0:2,0:0:0:0:
110,110,43560,2,0,P|170:190|172:288,1,185.640001133057,2|8,1:2|0:2,0:0:0:0:
174,273,44238,5,8,0:2:0:0:
134,250,44322,1,8,0:2:0:0:
89,259,44407,1,0,1:2:0:0:
61,294,44492,1,8,0:2:0:0:
63,340,44577,2,0,P|99:360|123:360,2,46.4100002832642,0|8|0,1:2|0:2|1:2,0:0:0:0:
99,137,44916,6,0,P|158:103|208:106,1,101.920001244141,6|0,1:2|0:0,0:0:0:0:
27,200,45255,1,10,0:2:0:0:
214,322,45425,2,0,P|273:356|323:353,1,101.920001244141,0|0,0:0|0:0,0:0:0:0:
130,257,45764,1,0,1:2:0:0:
332,127,45933,2,0,P|436:151|455:249,1,203.840002488281,8|0,0:2|1:2,0:0:0:0:
328,371,46442,1,2,0:0:0:0:
241,160,46611,5,10,0:2:0:0:
408,301,46781,1,2,0:0:0:0:
321,103,46950,1,2,0:0:0:0:
312,339,47120,1,2,1:2:0:0:
214,123,47289,1,10,0:2:0:0:
381,276,47459,1,2,0:0:0:0:
112,260,47628,6,0,P|87:194|94:146,1,101.920001244141,2|0,1:2|0:0,0:0:0:0:
257,73,47967,2,0,P|255:143|230:185,1,101.920001244141,10|0,0:2|0:0,0:0:0:0:
78,288,48306,2,0,P|53:222|60:174,1,101.920001244141,2|0,0:0|1:2,0:0:0:0:
307,252,48645,6,0,B|182:271|263:332|113:353,1,203.840002488281,8|0,0:2|1:2,0:0:0:0:
301,337,49153,1,2,0:0:0:0:
132,251,49323,5,10,0:2:0:0:
315,179,49492,1,2,0:0:0:0:
107,271,49662,1,2,0:0:0:0:
301,337,49831,1,2,1:2:0:0:
229,124,50001,1,10,0:2:0:0:
266,350,50170,1,2,0:0:0:0:
318,144,50340,6,0,P|365:117|415:116,1,101.920001244141,2|0,1:2|0:0,0:0:0:0:
507,282,50679,1,10,0:2:0:0:
258,226,50848,2,0,P|211:199|161:198,1,101.920001244141,0|0,0:0|0:0,0:0:0:0:
38,342,51187,1,0,1:2:0:0:
303,323,51357,2,0,P|311:211|335:109,1,203.840002488281,8|0,0:2|1:2,0:0:0:0:
191,218,51865,1,2,0:0:0:0:
136,29,52035,1,10,0:2:0:0:
78,243,52204,1,2,0:0:0:0:
217,69,52374,6,0,P|270:42|319:39,1,101.920001244141,2|0,0:0|1:2,0:0:0:0:
439,222,52713,1,10,0:2:0:0:
272,128,52882,1,2,0:0:0:0:
363,332,53052,5,2,1:2:0:0:
408,113,53221,1,2,0:0:0:0:
259,278,53391,2,0,P|202:303|156:296,1,101.920001244141,10|0,0:2|0:0,0:0:0:0:
234,93,53730,2,0,P|296:95|334:121,1,101.920001244141,2|0,0:0|1:2,0:0:0:0:
112,166,54069,2,0,P|75:63|135:-4,1,203.840002488281,8|0,0:2|1:2,0:0:0:0:
223,172,54577,1,0,0:0:0:0:
320,35,54747,2,0,B|440:53|378:122|498:137,1,203.840002488281,8|0,0:2|0:0,0:0:0:0:
356,272,55255,1,2,1:2:0:0:
320,35,55425,2,0,P|288:91|285:158,1,101.920001244141,10|0,0:2|0:0,0:0:0:0:
327,345,55764,6,0,P|319:286|292:228,1,101.920001244141,6|0,1:2|0:0,0:0:0:0:
201,77,56103,1,10,0:2:0:0:
93,271,56272,2,0,P|101:212|128:154,1,101.920001244141,0|0,0:0|0:0,0:0:0:0:
242,14,56611,1,0,1:2:0:0:
367,210,56781,2,0,P|467:147|448:57,1,203.840002488281,8|0,0:2|1:2,0:0:0:0:
297,182,57289,1,2,0:0:0:0:
235,0,57459,5,10,0:2:0:0:
163,175,57628,1,2,0:0:0:0:
316,8,57798,1,2,0:0:0:0:
367,210,57967,1,2,1:2:0:0:
243,27,58137,1,10,0:2:0:0:
198,248,58306,1,2,0:0:0:0:
386,107,58476,6,0,P|450:83|489:87,1,101.920001244141,2|0,1:2|0:0,0:0:0:0:
396,299,58815,2,0,P|328:290|295:268,1,101.920001244141,10|0,0:2|0:0,0:0:0:0:
382,63,59153,2,0,P|446:39|485:43,1,101.920001244141,2|0,0:0|1:2,0:0:0:0:
265,191,59492,2,0,B|126:166|234:118|74:98,1,203.840002488281,8|0,0:2|1:2,0:0:0:0:
254,74,60001,1,2,0:0:0:0:
166,256,60170,5,10,0:2:0:0:
331,153,60340,1,2,0:0:0:0:
186,297,60509,1,2,0:0:0:0:
371,360,60679,1,2,1:2:0:0:
253,168,60848,1,10,0:2:0:0:
340,351,61018,1,2,0:0:0:0:
406,131,61187,6,0,P|452:95|509:83,1,101.920001244141,2|0,1:2|0:0,0:0:0:0:
355,226,61526,1,10,0:2:0:0:
212,56,61696,2,0,P|166:20|109:8,1,101.920001244141,0|0,0:0|0:0,0:0:0:0:
264,154,62035,1,0,1:2:0:0:
443,14,62204,2,0,P|394:101|369:212,1,203.840002488281,8|0,0:2|1:2,0:0:0:0:
238,64,62713,1,2,0:0:0:0:
285,252,62882,1,10,0:2:0:0:
272,54,63052,1,2,0:0:0:0:
173,260,63221,6,0,P|155:324|148:370,1,101.920001244141,2|0,0:0|1:2,0:0:0:0:
215,165,63560,1,10,0:2:0:0:
336,321,63730,1,2,0:0:0:0:
440,121,63899,5,2,1:2:0:0:
281,239,64069,1,2,0:0:0:0:
466,105,64238,2,0,P|494:165|495:213,1,101.920001244141,10|0,0:2|0:0,0:0:0:0:
366,365,64577,2,0,B|248:349|308:291|177:273,2,203.840002488281,2|8|0,0:0|0:2|1:2,0:0:0:0:
241,140,65594,1,8,0:2:0:0:
241,140,65933,5,10,0:2:0:0:
228,188,66017,1,8,0:2:0:0:
192,223,66102,1,0,1:2:0:0:
143,235,66187,1,8,0:2:0:0:
95,220,66272,2,0,P|75:193|66:168,2,50.9600006220703,2|8|0,1:2|0:2|1:2,0:0:0:0:
322,46,66611,5,6,1:2:0:0:
296,215,66781,1,2,0:2:0:0:
443,83,66950,1,10,0:2:0:0:
469,252,67120,1,2,0:2:0:0:
284,119,67289,1,2,0:2:0:0:
201,327,67459,1,2,1:2:0:0:
379,181,67628,1,10,0:2:0:0:
481,378,67798,1,2,0:2:0:0:
275,192,67967,5,2,1:2:0:0:
485,56,68137,1,2,0:2:0:0:
303,222,68306,1,10,0:2:0:0:
457,26,68476,1,2,0:2:0:0:
398,282,68645,5,2,0:2:0:0:
292,39,68815,1,2,1:2:0:0:
205,286,68984,1,10,0:2:0:0:
381,56,69153,1,2,0:2:0:0:
401,318,69323,6,0,P|311:359|210:304,1,203.840002488281,0|10,1:2|0:2,0:0:0:0:
96,123,69831,2,0,B|216:159|127:216|266:248,1,203.840002488281,2|0,0:2|1:2,0:0:0:0:
254,52,70340,1,10,0:2:0:0:
93,210,70509,6,0,P|72:272|72:324,2,101.920001244141,2|0|0,0:2|1:2|0:2,0:0:0:0:
291,99,71018,2,0,P|280:34|256:-11,1,101.920001244141,10|0,0:2|0:2,0:0:0:0:
209,233,71357,2,0,P|252:264|321:261,1,101.920001244141,2|0,0:2|1:2,0:0:0:0:
468,112,71696,2,0,P|415:104|355:139,1,101.920001244141,10|0,0:2|0:2,0:0:0:0:
264,354,72035,5,6,1:2:0:0:
277,183,72204,1,2,0:2:0:0:
174,313,72374,1,10,0:2:0:0:
161,142,72543,1,2,0:2:0:0:
86,352,72713,1,2,0:2:0:0:
47,129,72882,1,2,1:2:0:0:
174,313,73052,1,10,0:2:0:0:
262,103,73221,1,2,0:2:0:0:
312,360,73391,5,2,1:2:0:0:
161,142,73560,1,2,0:2:0:0:
72,378,73730,1,10,0:2:0:0:
275,208,73899,1,2,0:2:0:0:
28,122,74069,5,2,0:2:0:0:
186,334,74238,1,2,1:2:0:0:
259,73,74408,1,10,0:2:0:0:
49,212,74577,1,2,0:2:0:0:
256,44,74747,6,0,P|364:37|430:114,1,203.840002488281,0|10,1:2|0:2,0:0:0:0:
387,317,75255,2,0,P|271:272|173:250,1,203.840002488281,2|0,0:2|1:2,0:0:0:0:
352,147,75764,1,10,0:2:0:0:
125,194,75933,2,0,P|78:223|40:271,2,101.920001244141,2|0|0,0:2|1:2|0:2,0:0:0:0:
335,96,76442,2,0,P|382:125|420:173,1,101.920001244141,10|0,0:2|0:2,0:0:0:0:
372,379,76781,2,0,P|356:310|346:259,1,101.920001244141,2|0,0:2|1:2,0:0:0:0:
229,81,77120,2,0,P|216:150|206:201,1,101.920001244141,10|0,0:2|0:2,0:0:0:0:
124,372,77459,5,6,1:2:0:0:
265,294,77628,1,2,0:2:0:0:
92,216,77798,1,10,0:2:0:0:
257,210,77967,1,2,0:2:0:0:
102,383,78137,1,2,0:2:0:0:
301,278,78306,1,2,1:2:0:0:
55,217,78476,1,10,0:2:0:0:
284,206,78645,1,2,0:2:0:0:
48,313,78815,5,2,1:2:0:0:
272,131,78984,1,2,0:2:0:0:
70,343,79153,1,10,0:2:0:0:
345,265,79323,1,2,0:2:0:0:
57,170,79492,5,2,0:2:0:0:
248,353,79662,1,2,1:2:0:0:
279,95,79831,1,10,0:2:0:0:
157,370,80001,1,2,0:2:0:0:
279,95,80170,6,0,B|260:215|320:160|299:297,1,203.840002488281,0|10,1:2|0:2,0:0:0:0:
446,73,80679,2,0,B|465:193|405:138|426:275,1,203.840002488281,2|0,0:2|1:2,0:0:0:0:
362,85,81187,1,10,0:2:0:0:
198,230,81357,2,0,P|149:259|90:254,2,101.920001244141,2|0|0,0:2|1:2|0:2,0:0:0:0:
300,33,81865,2,0,P|271:82|263:146,1,101.920001244141,10|0,0:2|0:0,0:0:0:0:
417,295,82204,2,0,P|416:238|390:179,1,101.920001244141,2|0,0:2|1:2,0:0:0:0:
231,55,82543,2,0,P|202:104|194:168,1,101.920001244141,10|0,0:2|0:2,0:0:0:0:
287,359,82882,5,6,1:2:0:0:
325,193,83052,1,2,0:2:0:0:
203,304,83221,1,10,0:2:0:0:
165,138,83391,1,2,0:2:0:0:
296,327,83560,1,2,0:2:0:0:
97,233,83730,1,2,1:2:0:0:
343,175,83899,1,10,0:2:0:0:
108,275,84069,1,2,0:2:0:0:
369,343,84238,5,2,1:2:0:0:
68,262,84408,1,2,0:2:0:0:
370,164,84577,1,10,0:2:0:0:
176,330,84747,1,2,0:2:0:0:
275,56,84916,5,2,0:2:0:0:
356,312,85086,1,2,1:2:0:0:
393,29,85255,1,10,0:2:0:0:
260,293,85425,1,2,0:2:0:0:
487,90,85594,6,0,P|508:142|509:189,1,101.920001244141,0|0,1:2|0:0,0:0:0:0:
308,84,85933,2,0,P|208:59|150:146,1,203.840002488281,10|0,0:2|0:0,0:0:0:0:
187,343,86442,1,0,1:2:0:0:
302,194,86611,2,0,P|344:166|403:165,1,101.920001244141,10|0,0:2|0:0,0:0:0:0:
275,327,86950,2,0,P|189:314|143:249,1,152.880001866211,0|2,1:2|0:0,0:0:0:0:
132,233,87289,6,0,P|119:168|105:124,1,101.920001244141,10|0,0:2|0:2,0:0:0:0:
235,29,87628,2,0,P|221:93|217:139,1,101.920001244141,2|0,1:2|0:2,0:0:0:0:
333,238,87967,1,2,0:0:0:0:
