osu file format v14

[General]
AudioFilename: audio.mp3
AudioLeadIn: 0
PreviewTime: 44408
Countdown: 0
SampleSet: Soft
StackLeniency: 0.2
Mode: 0
LetterboxInBreaks: 0
WidescreenStoryboard: 1

[Editor]
DistanceSpacing: 1.35
BeatDivisor: 4
GridSize: 4
TimelineZoom: 1.3

[Metadata]
Title:Gold Dust
TitleUnicode:Gold Dust
Artist:DJ Fresh
ArtistUnicode:DJ Fresh
Creator:Sotarks
Version:Kroytz's Extra
Source:
Tags:akitoshi corinn -laura- nikakis snownino_ reform kujinn onlybiscuit smokelind miraclee kroytz english vocals brotarks
BeatmapID:1965348
BeatmapSetID:935111

[Difficulty]
HPDrainRate:5.2
CircleSize:3.8
OverallDifficulty:9.1
ApproachRate:9.2
SliderMultiplier:1.82
SliderTickRate:1

[Events]
//Background and Video events
0,0,"bg.jpg",0,0
//Break Periods
//Storyboard Layer 0 (Background)
//Storyboard Layer 1 (Fail)
//Storyboard Layer 2 (Pass)
//Storyboard Layer 3 (Foreground)
//Storyboard Sound Samples

[TimingPoints]
-1185,338.983050847458,4,2,42,62,1,0
1526,-121.951219512195,4,2,42,62,0,0
21187,-172.413793103448,4,2,42,72,0,0
22543,-121.951219512195,4,2,42,82,0,0
23221,-75.7575757575758,4,2,42,82,0,0
25509,-75.7575757575758,4,2,42,12,0,0
25594,-75.7575757575758,4,2,42,82,0,0
25848,-75.7575757575758,4,2,42,12,0,0
25933,-75.7575757575758,4,2,42,82,0,0
28221,-75.7575757575758,4,2,42,12,0,0
28306,-75.7575757575758,4,2,42,82,0,0
28560,-75.7575757575758,4,2,42,12,0,0
28645,-75.7575757575758,4,2,42,82,0,0
30933,-75.7575757575758,4,2,42,12,0,0
31018,-75.7575757575758,4,2,42,82,0,0
31272,-75.7575757575758,4,2,42,12,0,0
31357,-80,4,2,42,82,0,0
32035,-75.7575757575758,4,2,42,82,0,0
34069,-75.7575757575758,4,2,42,82,0,0
36357,-75.7575757575758,4,2,42,12,0,0
36442,-75.7575757575758,4,2,42,82,0,0
36696,-75.7575757575758,4,2,42,12,0,0
36781,-75.7575757575758,4,2,42,82,0,0
39069,-75.7575757575758,4,2,42,12,0,0
39153,-75.7575757575758,4,2,42,82,0,0
39408,-75.7575757575758,4,2,42,12,0,0
39492,-75.7575757575758,4,2,42,82,0,0
41781,-75.7575757575758,4,2,42,12,0,0
41865,-75.7575757575758,4,2,42,82,0,0
42120,-75.7575757575758,4,2,42,12,0,0
42204,-70.4225352112676,4,2,42,82,0,0
42882,-75.7575757575758,4,2,42,82,0,0
44916,-89.2857142857143,4,2,52,92,0,0
69323,-98.0392156862745,4,2,52,92,0,0
77459,-98.0392156862745,4,2,52,82,0,0
82882,-98.0392156862745,4,2,52,72,0,0
87628,-98.0392156862745,4,2,52,62,0,0

[Colours]
Combo1 : 157,186,191
Combo2 : 164,138,119
Combo3 : 146,162,89
Combo4 : 213,203,164

[HitObjects]
28,384,1526,6,0,P|-10:320|2:249,1,149.240002277222,2|0,0:0|0:0,0:0:0:0:
161,360,2035,2,0,P|175:287|139:224,1,149.240002277222,2|0,0:0|0:0,0:0:0:0:
31,20,2543,2,0,L|59:181,1,149.240002277222,2|0,0:0|0:0,0:0:0:0:
171,71,3052,5,2,0:0:0:0:
171,71,3221,2,0,L|244:58,1,74.6200011386109
464,19,3560,1,2,0:0:0:0:
373,148,3730,1,0,0:0:0:0:
484,31,3899,1,0,0:0:0:0:
393,160,4069,1,2,0:0:0:0:
460,303,4238,6,0,P|388:290|324:326,1,149.240002277222,2|0,0:0|0:0,0:0:0:0:
232,111,4747,2,0,L|257:257,1,149.240002277222,2|0,0:0|0:0,0:0:0:0:
83,369,5255,2,0,P|146:332|218:345,1,149.240002277222,2|0,0:0|0:0,0:0:0:0:
132,247,5764,5,2,0:0:0:0:
132,247,5933,2,0,L|119:173,1,74.6200011386109
143,0,6272,1,2,0:0:0:0:
22,125,6442,1,0,0:0:0:0:
193,95,6611,1,0,0:0:0:0:
37,19,6781,1,2,0:0:0:0:
288,45,6950,6,0,L|434:19,1,149.240002277222,2|0,0:0|0:0,0:0:0:0:
512,150,7459,2,0,L|365:124,1,149.240002277222,2|0,0:0|0:0,0:0:0:0:
288,255,7967,2,0,L|434:229,1,149.240002277222,2|0,0:0|0:0,0:0:0:0:
512,354,8476,5,2,0:0:0:0:
415,323,8645,1,0,0:0:0:0:
334,384,8815,1,0,0:0:0:0:
237,353,8984,2,0,L|163:339,1,74.6200011386109,2|0,0:0|0:0,0:0:0:0:
65,257,9323,1,0,0:0:0:0:
41,383,9492,1,2,0:0:0:0:
187,213,9662,6,0,B|212:175|212:175|194:73,1,149.240002277222,2|0,0:0|0:0,0:0:0:0:
52,0,10170,2,0,B|26:37|26:37|44:139,1,149.240002277222,2|0,0:0|0:0,0:0:0:0:
199,211,10679,2,0,B|225:174|225:174|207:71,1,149.240002277222,2|0,0:0|0:0,0:0:0:0:
65,0,11187,2,0,B|39:37|39:37|57:139,1,149.240002277222,2|0,0:0|0:0,0:0:0:0:
211,209,11696,1,2,0:0:0:0:
347,110,11865,1,0,0:0:0:0:
347,110,12035,2,0,L|359:183,1,74.6200011386109,0|2,0:0|0:0,0:0:0:0:
447,290,12374,6,0,P|375:275|313:313,1,149.240002277222,2|0,0:0|0:0,0:0:0:0:
180,337,12882,2,0,P|251:351|313:313,1,149.240002277222,2|0,0:0|0:0,0:0:0:0:
65,241,13391,2,0,L|89:387,1,149.240002277222,2|0,0:0|0:0,0:0:0:0:
234,257,13899,5,2,0:0:0:0:
234,257,14069,2,0,L|221:183,1,74.6200011386109
0,52,14408,5,2,0:0:0:0:
165,43,14577,1,0,0:0:0:0:
4,71,14747,5,0,0:0:0:0:
162,23,14916,1,2,0:0:0:0:
307,100,15086,6,0,B|344:126|344:126|446:108,1,149.240002277222,2|0,0:0|0:0,0:0:0:0:
364,221,15594,2,0,L|217:246,1,149.240002277222,2|0,0:0|0:0,0:0:0:0:
353,357,16103,2,0,B|378:319|378:319|480:301,1,149.240002277222,2|0,0:0|0:0,0:0:0:0:
372,227,16611,5,2,0:0:0:0:
380,233,16781,2,0,L|306:245,1,74.6200011386109
162,193,17120,5,2,0:0:0:0:
189,345,17289,1,0,0:0:0:0:
279,93,17459,1,0,0:0:0:0:
16,142,17628,1,2,0:0:0:0:
306,89,17798,6,0,B|412:70|412:70|436:36,1,149.240002277222,2|0,0:0|0:0,0:0:0:0:
162,193,18306,2,0,L|309:168,1,149.240002277222,2|0,0:0|0:0,0:0:0:0:
18,297,18815,2,0,B|124:278|124:278|158:301,1,149.240002277222,2|0,0:0|0:0,0:0:0:0:
304,368,19323,5,2,0:0:0:0:
445,343,19492,1,0,0:0:0:0:
306,383,19662,1,0,0:0:0:0:
447,358,19831,2,0,L|520:345,1,74.6200011386109,2|0,0:0|0:0,0:0:0:0:
354,248,20170,5,0,0:0:0:0:
495,223,20340,1,0,0:0:0:0:
447,358,20509,1,2,0:0:0:0:
402,113,20679,1,0,0:0:0:0:
157,158,20848,2,0,L|83:170,1,74.6200011386109,2|0,0:0|0:0,0:0:0:0:
311,5,21187,6,0,B|325:84|325:84|304:130|304:130|339:165|339:165|354:248,1,263.900008053589,2|0,0:0|0:0,0:0:0:0:
0,328,22543,5,8,3:2:0:0:
21,298,22627,1,8,3:2:0:0:
49,273,22712,1,8,3:2:0:0:
84,261,22797,1,8,3:2:0:0:
121,261,22882,1,8,3:2:0:0:
156,273,22968,1,8,3:2:0:0:
186,296,23052,1,10,3:2:0:0:
65,151,23221,5,6,0:0:0:0:
103,371,23391,1,0,0:0:0:0:
323,333,23560,1,8,0:0:0:0:
285,113,23730,1,0,0:0:0:0:
57,162,23899,5,0,0:0:0:0:
114,378,24069,1,2,0:0:0:0:
330,321,24238,1,8,0:0:0:0:
273,105,24408,1,0,0:0:0:0:
51,174,24577,5,2,0:0:0:0:
126,384,24747,1,0,0:0:0:0:
336,309,24916,1,8,0:0:0:0:
261,99,25086,1,0,0:0:0:0:
193,241,25255,6,0,L|362:179,1,180.179999450134
465,178,25594,2,0,L|295:239,1,180.179999450134,8|0,0:0|0:0,0:0:0:0:
166,251,25933,5,2,0:0:0:0:
109,5,26103,1,0,0:0:0:0:
261,99,26272,1,8,0:0:0:0:
14,157,26442,1,0,0:0:0:0:
176,248,26611,5,0,0:0:0:0:
98,7,26781,1,2,0:0:0:0:
258,88,26950,1,8,0:0:0:0:
16,167,27120,1,0,0:0:0:0:
186,244,27289,5,2,0:0:0:0:
88,11,27459,1,0,0:0:0:0:
254,77,27628,1,8,0:0:0:0:
20,178,27798,1,0,0:0:0:0:
224,330,27967,6,0,P|311:333|375:273,1,180.179999450134
467,262,28306,2,0,P|379:265|315:205,1,180.179999450134,8|0,0:0|0:0,0:0:0:0:
418,161,28645,5,2,0:0:0:0:
457,384,28815,1,0,0:0:0:0:
185,107,28984,1,8,0:0:0:0:
224,330,29154,1,0,0:0:0:0:
410,152,29323,5,0,0:0:0:0:
468,371,29493,1,2,0:0:0:0:
173,119,29662,1,8,0:0:0:0:
231,338,29832,1,0,0:0:0:0:
400,144,30001,5,2,0:0:0:0:
478,358,30171,1,0,0:0:0:0:
163,132,30340,1,8,0:0:0:0:
240,345,30510,1,0,0:0:0:0:
505,202,30679,6,0,B|527:154|527:154|483:34,1,180.179999450134
265,112,31018,2,0,B|309:232|309:232|357:255,1,180.179999450134,8|0,0:0|0:0,0:0:0:0:
478,358,31357,6,0,L|400:144,1,227.5,2|8,0:0|0:0,0:0:0:0:
240,345,31865,1,0,0:0:0:0:
121,114,32035,2,0,L|79:226,1,120.119999633423,0|2,0:0|0:0,0:0:0:0:
359,366,32374,2,0,L|317:253,1,120.119999633423,8|0,0:0|0:0,0:0:0:0:
5,309,32713,6,0,P|117:331|189:242,1,240.239999266846,2|8,0:0|0:0,0:0:0:0:
2,135,33221,1,0,0:0:0:0:
230,52,33391,2,0,L|342:10,1,120.119999633423,0|2,0:0|0:0,0:0:0:0:
114,177,33730,2,0,L|2:135,1,120.119999633423,8|0,0:0|0:0,0:0:0:0:
236,350,34069,5,6,0:0:0:0:
400,143,34238,1,0,0:0:0:0:
214,164,34408,1,8,0:0:0:0:
421,328,34577,1,0,0:0:0:0:
246,358,34747,5,0,0:0:0:0:
410,151,34916,1,2,0:0:0:0:
224,172,35086,1,8,0:0:0:0:
431,336,35255,1,0,0:0:0:0:
256,366,35425,5,2,0:0:0:0:
420,159,35594,1,0,0:0:0:0:
234,180,35764,1,8,0:0:0:0:
441,344,35933,1,0,0:0:0:0:
480,84,36103,6,0,P|396:65|330:122,1,180.179999450134
98,227,36442,2,0,P|183:244|248:186,1,180.179999450134,8|0,0:0|0:0,0:0:0:0:
235,83,36781,5,2,0:0:0:0:
343,225,36950,1,0,0:0:0:0:
57,129,37120,1,8,0:0:0:0:
34,306,37289,1,0,0:0:0:0:
240,90,37459,5,0,0:0:0:0:
348,232,37628,1,2,0:0:0:0:
62,136,37798,1,8,0:0:0:0:
39,313,37967,1,0,0:0:0:0:
245,97,38137,5,2,0:0:0:0:
353,239,38306,1,0,0:0:0:0:
67,143,38476,1,8,0:0:0:0:
44,320,38645,1,0,0:0:0:0:
133,30,38815,6,0,L|178:205,1,180.179999450134
141,13,39153,2,0,L|186:187,1,180.179999450134,8|0,0:0|0:0,0:0:0:0:
226,343,39492,5,2,0:0:0:0:
325,77,39662,1,0,0:0:0:0:
506,294,39831,1,8,0:0:0:0:
353,239,40001,1,0,0:0:0:0:
225,335,40170,5,0,0:0:0:0:
323,68,40340,1,2,0:0:0:0:
504,285,40509,1,8,0:0:0:0:
351,230,40679,1,0,0:0:0:0:
223,327,40848,5,2,0:0:0:0:
321,60,41018,1,0,0:0:0:0:
502,277,41187,1,8,0:0:0:0:
349,222,41357,1,0,0:0:0:0:
70,272,41526,6,0,B|19:280|19:280|94:174,1,180.179999450134
205,13,41865,2,0,B|255:4|255:4|180:110,1,180.179999450134,8|0,0:0|0:0,0:0:0:0:
8,142,42204,6,0,L|266:142,1,258.439986986512,2|8,0:0|0:0,0:0:0:0:
284,142,42713,1,0,0:0:0:0:
388,0,42882,2,0,L|419:116,1,120.119999633423,0|2,0:0|0:0,0:0:0:0:
252,258,43221,2,0,L|283:142,1,120.119999633423,8|0,0:0|0:0,0:0:0:0:
512,330,43560,2,0,P|427:373|453:282,1,240.239999266846,2|8,0:0|0:0,0:0:0:0:
453,282,44238,5,8,3:2:0:0:
419,301,44323,1,8,3:2:0:0:
409,338,44408,1,8,3:2:0:0:
427,373,44492,1,8,3:2:0:0:
464,384,44577,1,8,3:2:0:0:
499,367,44662,1,8,3:2:0:0:
512,330,44747,1,10,3:2:0:0:
481,193,44916,6,0,P|430:194|386:218,1,101.920001244141,6|0,0:0|0:0,0:0:0:0:
370,233,45255,1,8,0:0:0:0:
287,100,45425,6,0,P|262:144|261:194,1,101.920001244141
266,216,45764,1,2,0:0:0:0:
108,220,45933,6,0,P|161:304|259:312,1,203.840002488281,8|2,0:0|0:0,0:0:0:0:
183,82,46442,5,0,0:0:0:0:
108,220,46611,1,8,0:0:0:0:
0,0,46781,5,0,0:0:0:0:
74,138,46950,1,0,0:0:0:0:
340,78,47120,5,2,0:0:0:0:
266,216,47289,1,8,0:0:0:0:
226,0,47459,1,0,0:0:0:0:
453,107,47628,6,0,P|472:154|469:204,1,101.920001244141,2|0,0:0|0:0,0:0:0:0:
266,216,47967,2,0,P|262:266|282:312,1,101.920001244141,8|0,0:0|0:0,0:0:0:0:
500,384,48306,1,0,0:0:0:0:
357,250,48476,1,2,0:0:0:0:
190,354,48645,2,0,B|48:379|48:379|0:344,1,203.840002488281,8|2,0:0|0:0,0:0:0:0:
117,79,49153,5,0,0:0:0:0:
72,277,49323,1,8,0:0:0:0:
266,216,49492,1,0,0:0:0:0:
0,156,49662,5,0,0:0:0:0:
261,75,49831,1,2,0:0:0:0:
3,167,50001,5,8,0:0:0:0:
263,86,50170,1,0,0:0:0:0:
460,260,50340,6,0,P|481:214|478:163,1,101.920001244141,2|0,0:0|0:0,0:0:0:0:
368,92,50679,1,8,0:0:0:0:
347,319,50848,6,0,P|342:268|363:221,1,101.920001244141
478,163,51187,1,2,0:0:0:0:
451,369,51357,6,0,L|250:333,1,203.840002488281,8|2,0:0|0:0,0:0:0:0:
80,303,51865,5,0,0:0:0:0:
190,168,52035,1,8,0:0:0:0:
250,333,52204,1,0,0:0:0:0:
80,303,52374,2,0,L|-20:285,1,101.920001244141,0|2,0:0|0:0,0:0:0:0:
224,328,52713,1,8,0:0:0:0:
164,163,52882,1,0,0:0:0:0:
459,260,53052,6,0,P|515:178|489:83,1,203.840002488281,2|8,0:0|0:0,0:0:0:0:
321,236,53560,2,0,P|295:140|352:60,1,203.840002488281,0|2,0:0|0:0,0:0:0:0:
469,262,54069,2,0,P|525:181|499:85,1,203.840002488281,8|2,0:0|0:0,0:0:0:0:
309,234,54577,2,0,P|283:138|340:58,1,203.840002488281
375,328,55086,1,0,0:0:0:0:
405,159,55255,5,2,0:0:0:0:
405,159,55425,1,8,0:0:0:0:
405,159,55594,1,0,0:0:0:0:
268,368,55764,6,0,L|167:350,1,101.920001244141,6|0,0:0|0:0,0:0:0:0:
66,332,56103,1,8,0:0:0:0:
232,270,56272,6,0,L|132:253,1,101.920001244141
30,234,56611,1,2,0:0:0:0:
196,172,56781,6,0,L|-4:136,1,203.840002488281,8|2,0:0|0:0,0:0:0:0:
160,74,57289,5,0,0:0:0:0:
232,270,57459,1,8,0:0:0:0:
366,110,57628,1,0,0:0:0:0:
434,296,57798,5,0,0:0:0:0:
362,100,57967,1,2,0:0:0:0:
228,260,58137,1,8,0:0:0:0:
156,64,58306,1,0,0:0:0:0:
344,196,58476,6,0,P|394:190|436:163,1,101.920001244141,2|0,0:0|0:0,0:0:0:0:
246,356,58815,2,0,P|195:350|153:323,1,101.920001244141,8|0,0:0|0:0,0:0:0:0:
81,127,59153,1,0,0:0:0:0:
47,334,59323,1,2,0:0:0:0:
21,32,59492,6,0,P|119:23|187:93,1,203.840002488281,8|2,0:0|0:0,0:0:0:0:
53,315,60001,5,0,0:0:0:0:
247,239,60170,1,8,0:0:0:0:
410,372,60340,1,0,0:0:0:0:
122,183,60509,5,0,0:0:0:0:
147,344,60679,1,2,0:0:0:0:
383,224,60848,5,8,2:0:0:0:
308,369,61018,1,0,0:0:0:0:
149,89,61187,6,0,P|99:88|54:112,1,101.920001244141,2|0,0:0|0:0,0:0:0:0:
32,134,61526,1,8,0:0:0:0:
246,165,61696,6,0,P|202:189|152:190,1,101.920001244141
122,183,62035,1,2,0:0:0:0:
330,27,62204,6,0,L|382:223,1,203.840002488281,8|2,0:0|0:0,0:0:0:0:
424,382,62713,5,0,0:0:0:0:
282,164,62882,1,8,0:0:0:0:
482,282,63052,1,0,0:0:0:0:
324,323,63221,2,0,L|225:349,1,101.920001244141,0|2,0:0|0:0,0:0:0:0:
440,123,63560,1,8,0:0:0:0:
424,382,63730,1,0,0:0:0:0:
207,238,63899,6,0,P|179:143|241:66,1,203.840002488281,2|8,0:0|0:0,0:0:0:0:
34,212,64408,2,0,P|61:307|0:384,1,203.840002488281,0|2,0:0|0:0,0:0:0:0:
232,238,64916,2,0,P|204:143|266:66,1,203.840002488281,8|2,0:0|0:0,0:0:0:0:
59,212,65425,2,0,P|86:306|24:383,1,203.840002488281
4,112,65933,5,8,3:2:0:0:
29,116,66018,1,8,3:2:0:0:
54,120,66103,1,8,3:2:0:0:
79,125,66187,1,8,3:2:0:0:
104,129,66272,1,8,3:2:0:0:
129,134,66357,1,8,3:2:0:0:
154,138,66442,1,10,3:2:0:0:
476,0,66611,5,6,0:0:0:0:
510,128,66781,1,0,0:0:0:0:
383,163,66950,1,8,0:0:0:0:
348,35,67120,1,0,0:0:0:0:
476,0,67289,5,0,0:0:0:0:
510,128,67459,1,2,0:0:0:0:
383,163,67628,1,8,0:0:0:0:
348,35,67798,1,0,0:0:0:0:
476,0,67967,5,2,0:0:0:0:
510,128,68137,1,0,0:0:0:0:
383,163,68306,1,8,0:0:0:0:
348,35,68476,1,0,0:0:0:0:
476,0,68645,5,0,0:0:0:0:
510,128,68815,1,2,0:0:0:0:
383,163,68984,1,8,0:0:0:0:
348,35,69153,1,0,0:0:0:0:
303,260,69323,6,0,B|352:288|352:288|476:255,1,185.640001133057,2|8,0:0|0:0,0:0:0:0:
232,194,69831,2,0,P|209:234|209:280,2,92.8200005665283,0|0|2,0:0|0:0|0:0,0:0:0:0:
383,163,70340,1,8,0:0:0:0:
274,352,70509,6,0,P|187:374|119:316,1,185.640001133057
232,194,71018,1,8,0:0:0:0:
387,384,71187,1,0,0:0:0:0:
387,384,71357,2,0,L|476:359,1,92.8200005665283,0|2,0:0|0:0,0:0:0:0:
472,187,71696,2,0,L|382:162,1,92.8200005665283,8|0,0:0|0:0,0:0:0:0:
36,0,72035,5,6,0:0:0:0:
2,128,72204,1,0,0:0:0:0:
129,163,72374,1,8,0:0:0:0:
164,35,72543,1,0,0:0:0:0:
36,0,72713,5,0,0:0:0:0:
2,128,72882,1,2,0:0:0:0:
129,163,73052,1,8,0:0:0:0:
164,35,73221,1,0,0:0:0:0:
36,0,73391,5,2,0:0:0:0:
2,128,73560,1,0,0:0:0:0:
129,163,73730,1,8,0:0:0:0:
164,35,73899,1,0,0:0:0:0:
36,0,74069,5,0,0:0:0:0:
2,128,74238,1,2,0:0:0:0:
129,163,74408,1,8,0:0:0:0:
164,35,74577,1,0,0:0:0:0:
209,260,74747,6,0,B|160:288|160:288|36:255,1,185.640001133057,2|8,0:0|0:0,0:0:0:0:
257,129,75255,2,0,L|436:177,1,185.640001133057,0|2,0:0|0:0,0:0:0:0:
129,163,75764,1,8,0:0:0:0:
341,68,75933,2,0,P|357:156|298:224,1,185.640001133057
164,35,76442,1,8,0:0:0:0:
164,349,76781,6,0,L|83:302,1,92.8200005665283,0|2,0:0|0:0,0:0:0:0:
348,349,77120,2,0,L|428:302,1,92.8200005665283,8|0,0:0|0:0,0:0:0:0:
256,60,77459,5,6,0:0:0:0:
124,192,77628,1,0,0:0:0:0:
256,324,77798,1,8,0:0:0:0:
387,192,77967,1,0,0:0:0:0:
125,66,78137,5,0,0:0:0:0:
0,66,78306,1,2,0:0:0:0:
0,192,78476,1,8,0:0:0:0:
124,192,78645,1,0,0:0:0:0:
256,60,78815,5,2,0:0:0:0:
387,192,78984,1,0,0:0:0:0:
256,324,79153,1,8,0:0:0:0:
124,192,79323,1,0,0:0:0:0:
387,66,79492,5,0,0:0:0:0:
512,66,79662,1,2,0:0:0:0:
512,192,79831,1,8,0:0:0:0:
387,192,80001,1,0,0:0:0:0:
123,27,80170,6,0,P|87:109|123:191,1,185.640001133057,2|8,0:0|0:0,0:0:0:0:
388,356,80679,2,0,P|424:274|387:192,1,185.640001133057,0|2,0:0|0:0,0:0:0:0:
199,110,81187,1,8,0:0:0:0:
139,279,81357,2,0,B|188:307|188:307|312:274,1,185.640001133057
387,66,81865,1,8,0:0:0:0:
387,66,82035,1,0,0:0:0:0:
387,66,82204,6,0,L|467:112,1,92.8200005665283,0|2,0:0|0:0,0:0:0:0:
125,66,82543,2,0,L|44:112,1,92.8200005665283,8|0,0:0|0:0,0:0:0:0:
256,324,82882,5,6,0:0:0:0:
387,192,83052,1,0,0:0:0:0:
256,60,83221,1,8,0:0:0:0:
124,192,83391,1,0,0:0:0:0:
387,318,83560,5,0,0:0:0:0:
512,318,83730,1,2,0:0:0:0:
512,192,83899,1,8,0:0:0:0:
387,192,84069,1,0,0:0:0:0:
256,324,84238,5,2,0:0:0:0:
124,192,84408,1,0,0:0:0:0:
256,60,84577,1,8,0:0:0:0:
387,192,84747,1,0,0:0:0:0:
125,318,84916,5,0,0:0:0:0:
0,318,85086,1,2,0:0:0:0:
0,192,85255,1,8,0:0:0:0:
124,192,85425,1,0,0:0:0:0:
387,318,85594,6,0,B|426:277|426:277|426:149,1,185.640001133057,2|8,0:0|0:0,0:0:0:0:
427,121,86103,1,0,0:0:0:0:
125,318,86272,2,0,B|85:277|85:277|85:149,1,185.640001133057,0|8,0:0|0:0,0:0:0:0:
85,121,86781,1,0,0:0:0:0:
256,384,86950,1,2,0:0:0:0:
332,136,87289,6,0,P|342:91|332:46,1,92.8200005665283,8|0,0:0|0:0,0:0:0:0:
179,46,87628,2,0,P|169:91|179:136,1,92.8200005665283,2|0,0:0|0:0,0:0:0:0:
256,269,87967,1,0,0:0:0:0:
