osu file format v14

[General]
AudioFilename: audio.mp3
AudioLeadIn: 0
PreviewTime: 44408
Countdown: 0
SampleSet: Soft
StackLeniency: 0.7
Mode: 0
LetterboxInBreaks: 0
WidescreenStoryboard: 0

[Editor]
DistanceSpacing: 1.2
BeatDivisor: 4
GridSize: 4
TimelineZoom: 1.3

[Metadata]
Title:Gold Dust
TitleUnicode:Gold Dust
Artist:DJ Fresh
ArtistUnicode:DJ Fresh
Creator:Sotarks
Version:Extra
Source:
Tags:akitoshi corinn -laura- nikakis snownino_ reform kujinn onlybiscuit smokelind miraclee kroytz english vocals brotarks
BeatmapID:1952177
BeatmapSetID:935111

[Difficulty]
HPDrainRate:5.2
CircleSize:4
OverallDifficulty:9.1
ApproachRate:9.2
SliderMultiplier:1.82
SliderTickRate:1

[Events]
//Background and Video events
0,0,"bg.jpg",0,0
//Break Periods
//Storyboard Layer 0 (Background)
//Storyboard Layer 1 (Fail)
//Storyboard Layer 2 (Pass)
//Storyboard Layer 3 (Foreground)
//Storyboard Sound Samples

[TimingPoints]
-1185,338.983050847458,4,2,22,62,1,0
1526,-121.951219512195,4,2,22,62,0,0
21187,-192.307692307692,4,2,22,72,0,0
22543,-121.951219512195,4,2,22,82,0,0
23221,-98.0392156862744,4,2,22,82,0,0
44916,-89.2857142857143,4,2,22,92,0,0
77459,-89.2857142857143,4,2,22,82,0,0
82882,-89.2857142857143,4,2,22,72,0,0
87628,-89.2857142857143,4,2,22,62,0,0

[Colours]
Combo1 : 157,186,191
Combo2 : 164,138,119
Combo3 : 146,162,89
Combo4 : 213,203,164

[HitObjects]
41,200,1526,6,0,P|96:159|185:166,1,149.240002277222,2|2,3:0|0:0,0:0:0:0:
272,70,2035,2,0,P|327:111|416:104,1,149.240002277222,2|0,3:0|0:0,0:0:0:0:
480,216,2543,2,0,P|409:232|329:277,1,149.240002277222,2|0,3:0|0:0,0:0:0:0:
173,160,3052,1,0,3:0:0:0:
248,259,3221,2,0,P|262:307|263:346,1,74.6200011386109,2|0,0:0|0:0,0:0:0:0:
298,153,3560,1,2,3:0:0:0:
171,313,3730,1,2,0:0:0:0:
263,176,3899,1,2,0:0:0:0:
300,351,4069,1,2,3:0:0:0:
144,178,4238,6,0,P|122:131|123:77,1,74.6200011386109,2|0,3:0|0:0,0:0:0:0:
298,153,4577,2,0,P|291:189|273:222,1,74.6200011386109,2|0,0:0|3:0,0:0:0:0:
120,174,4916,2,0,P|98:127|99:73,1,74.6200011386109,2|0,0:0|0:0,0:0:0:0:
287,65,5255,2,0,B|397:64|316:115|449:114,1,149.240002277222,0|0,3:0|0:0,0:0:0:0:
298,153,5764,1,2,3:0:0:0:
432,62,5933,2,0,P|443:119|453:157,1,74.6200011386109,2|0,0:0|0:0,0:0:0:0:
339,294,6272,1,2,3:0:0:0:
465,149,6442,1,2,0:0:0:0:
268,176,6611,1,2,0:0:0:0:
479,182,6781,1,2,3:0:0:0:
228,90,6950,6,0,P|174:118|68:124,1,149.240002277222,2|0,3:0|0:0,0:0:0:0:
0,208,7459,2,0,P|74:213|140:245,1,149.240002277222,0|0,3:0|0:0,0:0:0:0:
234,360,7967,2,0,P|304:335|320:240,1,149.240002277222,0|0,3:0|0:0,0:0:0:0:
228,90,8476,1,2,3:0:0:0:
234,267,8645,1,2,0:0:0:0:
335,128,8815,1,2,0:0:0:0:
364,311,8984,2,0,P|412:298|442:268,1,74.6200011386109,2|0,3:0|0:0,0:0:0:0:
340,166,9323,1,2,0:0:0:0:
236,299,9492,1,2,3:0:0:0:
226,64,9662,5,2,3:0:0:0:
131,205,9831,1,2,0:0:0:0:
335,128,10001,2,0,P|392:120|436:135,1,74.6200011386109,2|0,0:0|3:0,0:0:0:0:
231,252,10340,2,0,P|194:255|157:247,1,74.6200011386109,2|0,0:0|0:0,0:0:0:0:
125,14,10679,2,0,P|174:57|198:151,1,149.240002277222,0|0,3:0|0:0,0:0:0:0:
427,72,11187,2,0,P|378:115|354:209,1,149.240002277222,0|0,3:0|0:0,0:0:0:0:
231,252,11696,2,0,P|181:230|136:232,1,74.6200011386109,0|0,3:0|0:0,0:0:0:0:
345,290,12035,2,0,P|381:284|414:266,1,74.6200011386109,2|0,0:0|3:0,0:0:0:0:
128,313,12374,6,0,P|117:215|86:139,1,149.240002277222,2|2,3:0|0:0,0:0:0:0:
258,106,12882,2,0,P|235:177|230:251,1,149.240002277222,2|0,3:0|0:0,0:0:0:0:
166,62,13391,2,0,P|223:5|299:7,1,149.240002277222,2|0,3:0|0:0,0:0:0:0:
374,152,13899,1,0,3:0:0:0:
323,22,14069,2,0,P|298:73|296:114,1,74.6200011386109,2|0,0:0|0:0,0:0:0:0:
354,236,14408,1,2,3:0:0:0:
399,66,14577,1,2,0:0:0:0:
379,261,14747,1,2,0:0:0:0:
295,90,14916,1,2,3:0:0:0:
269,284,15086,6,0,P|209:310|180:304,1,74.6200011386109,2|0,3:0|0:0,0:0:0:0:
138,88,15425,2,0,P|174:92|205:113,1,74.6200011386109,2|0,0:0|3:0,0:0:0:0:
249,278,15764,2,0,P|189:304|160:298,1,74.6200011386109,2|0,0:0|0:0,0:0:0:0:
282,182,16103,2,0,P|389:155|442:157,1,149.240002277222,0|0,3:0|0:0,0:0:0:0:
371,296,16611,1,2,3:0:0:0:
455,183,16781,2,0,P|470:125|468:92,1,74.6200011386109,2|0,0:0|0:0,0:0:0:0:
357,262,17120,1,2,3:0:0:0:
292,94,17289,1,2,0:0:0:0:
258,267,17459,1,2,0:0:0:0:
322,75,17628,1,2,3:0:0:0:
190,184,17798,6,0,P|132:157|39:162,1,149.240002277222,2|0,3:0|0:0,0:0:0:0:
116,291,18306,2,0,P|189:295|257:266,1,149.240002277222,0|0,3:0|0:0,0:0:0:0:
369,132,18815,2,0,P|334:193|371:283,1,149.240002277222,0|0,3:0|0:0,0:0:0:0:
259,101,19323,1,2,3:0:0:0:
432,208,19492,1,2,0:0:0:0:
246,132,19662,1,2,0:0:0:0:
419,55,19831,2,0,P|410:118|411:162,1,74.6200011386109,2|0,3:0|0:0,0:0:0:0:
287,20,20170,1,2,0:0:0:0:
324,199,20340,1,2,3:0:0:0:
167,72,20509,5,2,3:0:0:0:
372,120,20679,1,2,0:0:0:0:
135,86,20848,2,0,P|92:108|70:142,1,74.6200011386109,2|0,0:0|3:0,0:0:0:0:
288,312,21187,2,0,B|308:167|228:228|259:78,1,236.599998555908,2|0,0:0|0:0,0:0:0:0:
257,84,22543,1,8,0:0:0:0:
220,83,22627,1,8,0:0:0:0:
186,99,22712,1,0,1:0:0:0:
163,127,22797,1,8,0:0:0:0:
140,156,22882,1,0,1:0:0:0:
106,171,22967,1,8,0:0:0:0:
70,171,23051,1,0,1:0:0:0:
259,173,23221,5,2,1:0:0:0:
81,78,23391,1,0,0:0:0:0:
126,266,23560,1,10,0:0:0:0:
257,84,23730,1,0,0:0:0:0:
320,291,23899,5,2,0:0:0:0:
140,156,24069,1,0,1:0:0:0:
325,23,24238,1,10,0:0:0:0:
246,209,24408,1,0,0:0:0:0:
104,53,24577,5,2,1:0:0:0:
369,106,24747,1,0,0:0:0:0:
102,186,24916,1,10,0:0:0:0:
367,239,25086,1,0,0:0:0:0:
192,43,25255,5,2,0:0:0:0:
296,369,25594,1,10,0:0:0:0:
459,75,25933,5,2,1:0:0:0:
259,177,26103,1,0,0:0:0:0:
470,318,26272,1,10,0:0:0:0:
351,131,26442,1,0,0:0:0:0:
296,369,26611,5,2,0:0:0:0:
464,182,26781,1,0,1:0:0:0:
240,70,26950,1,10,0:0:0:0:
362,245,27120,1,0,0:0:0:0:
131,235,27289,5,2,1:0:0:0:
351,131,27459,1,0,0:0:0:0:
296,369,27628,1,10,0:0:0:0:
190,148,27798,1,0,0:0:0:0:
470,318,27967,5,2,0:0:0:0:
108,90,28306,1,10,0:0:0:0:
195,343,28645,5,2,1:0:0:0:
277,114,28815,1,0,0:0:0:0:
277,287,28984,1,10,0:0:0:0:
195,58,29154,1,0,0:0:0:0:
191,242,29323,5,2,0:0:0:0:
273,13,29493,1,0,1:0:0:0:
355,176,29662,1,10,0:0:0:0:
161,34,29831,1,0,0:0:0:0:
389,79,30001,5,2,1:0:0:0:
140,168,30170,1,0,0:0:0:0:
420,233,30340,1,10,0:0:0:0:
273,13,30509,1,0,0:0:0:0:
182,284,30679,5,2,0:0:0:0:
459,9,31018,1,10,0:0:0:0:
71,103,31357,6,0,B|196:93|116:172|274:159,1,185.640001133057,2|8,1:0|0:0,0:0:0:0:
86,187,31865,1,0,0:0:0:0:
221,71,32035,1,2,0:0:0:0:
256,248,32204,1,0,1:0:0:0:
246,48,32374,2,0,P|299:30|351:40,1,92.8200005665283,8|0,0:0|0:0,0:0:0:0:
377,270,32713,2,0,P|297:233|290:126,2,185.640001133057,2|8|2,1:0|0:0|0:0,0:0:0:0:
188,185,33560,1,0,1:0:0:0:
372,126,33730,1,8,0:0:0:0:
188,185,33899,1,0,0:0:0:0:
422,214,34069,5,2,1:0:0:0:
336,39,34238,1,0,0:0:0:0:
275,252,34408,1,10,0:0:0:0:
392,94,34577,1,0,0:0:0:0:
185,85,34747,5,2,0:0:0:0:
385,223,34916,1,0,1:0:0:0:
249,29,35086,1,10,0:0:0:0:
160,236,35255,1,0,0:0:0:0:
356,114,35425,5,2,1:0:0:0:
146,75,35594,1,0,0:0:0:0:
282,288,35764,1,10,0:0:0:0:
251,56,35933,1,0,0:0:0:0:
89,279,36103,5,2,0:0:0:0:
428,67,36442,1,10,0:0:0:0:
81,163,36781,5,2,1:0:0:0:
286,201,36950,1,0,0:0:0:0:
105,128,37120,1,10,0:0:0:0:
297,51,37289,1,0,0:0:0:0:
149,215,37459,5,2,0:0:0:0:
405,247,37628,1,0,1:0:0:0:
213,119,37798,1,10,0:0:0:0:
402,18,37967,1,0,0:0:0:0:
281,250,38137,5,2,1:0:0:0:
160,38,38306,1,0,0:0:0:0:
401,159,38476,1,10,0:0:0:0:
149,215,38645,1,0,0:0:0:0:
379,41,38815,5,2,0:0:0:0:
53,286,39153,1,10,0:0:0:0:
425,277,39492,5,2,1:0:0:0:
257,169,39661,1,0,0:0:0:0:
451,249,39831,1,10,0:0:0:0:
221,307,40001,1,0,0:0:0:0:
411,161,40170,5,2,0:0:0:0:
185,71,40340,1,0,1:0:0:0:
316,248,40509,1,10,0:0:0:0:
365,30,40679,1,0,0:0:0:0:
145,175,40848,5,2,1:0:0:0:
397,124,41018,1,0,0:0:0:0:
147,60,41187,1,10,0:0:0:0:
326,207,41357,1,0,0:0:0:0:
37,262,41526,5,2,0:0:0:0:
421,96,41865,1,10,0:0:0:0:
195,338,42204,6,0,P|144:275|154:155,2,185.640001133057,2|8|2,1:0|0:0|0:0,0:0:0:0:
275,160,43052,1,0,1:0:0:0:
359,279,43221,2,0,P|413:309|458:303,1,92.8200005665283,8|0,0:0|0:0,0:0:0:0:
427,117,43560,2,0,B|302:123|379:53|231:62,1,185.640001133057,2|8,1:0|0:0,0:0:0:0:
257,61,44238,1,8,0:0:0:0:
220,60,44322,1,8,0:0:0:0:
186,76,44407,1,0,1:0:0:0:
163,104,44492,1,8,0:0:0:0:
140,133,44577,1,0,1:0:0:0:
106,148,44662,1,8,0:0:0:0:
70,148,44746,1,0,1:0:0:0:
242,154,44916,6,0,P|261:204|267:264,1,101.920001244141,6|0,1:0|0:0,0:0:0:0:
145,336,45255,1,10,0:0:0:0:
363,244,45425,2,0,P|344:294|338:354,1,101.920001244141,0|0,0:0|0:0,0:0:0:0:
172,233,45764,1,0,1:0:0:0:
359,132,45933,2,0,P|444:174|457:294,1,203.840002488281,8|0,0:0|1:0,0:0:0:0:
269,182,46442,5,2,0:0:0:0:
446,64,46611,1,10,0:0:0:0:
363,244,46781,1,2,0:0:0:0:
228,52,46950,1,2,0:0:0:0:
439,178,47120,1,2,1:0:0:0:
157,259,47289,1,10,0:0:0:0:
324,114,47459,1,2,0:0:0:0:
213,341,47628,6,0,P|146:360|96:342,1,101.920001244141,2|0,1:0|0:0,0:0:0:0:
99,177,47967,2,0,P|166:158|216:176,1,101.920001244141,10|0,0:0|0:0,0:0:0:0:
315,304,48306,1,2,0:0:0:0:
324,114,48476,1,0,1:0:0:0:
157,259,48645,2,0,P|140:171|68:35,1,203.840002488281,8|0,0:0|1:0,0:0:0:0:
253,207,49153,5,2,0:0:0:0:
265,9,49323,1,10,0:0:0:0:
393,222,49492,1,2,0:0:0:0:
230,113,49662,1,2,0:0:0:0:
201,334,49831,1,2,1:0:0:0:
338,145,50001,1,10,0:0:0:0:
401,354,50170,1,2,0:0:0:0:
205,141,50340,6,0,P|142:121|100:128,1,101.920001244141,2|0,1:0|0:0,0:0:0:0:
224,297,50679,1,10,0:0:0:0:
323,106,50848,2,0,P|386:86|428:93,1,101.920001244141,0|0,0:0|0:0,0:0:0:0:
339,258,51187,1,0,1:0:0:0:
200,112,51357,2,0,P|137:92|31:184,1,203.840002488281,8|0,0:0|1:0,0:0:0:0:
191,307,51865,5,2,0:0:0:0:
297,124,52035,1,10,0:0:0:0:
129,227,52204,1,2,0:0:0:0:
364,271,52374,2,0,P|435:256|466:221,1,101.920001244141,2|0,0:0|1:0,0:0:0:0:
285,89,52713,1,10,0:0:0:0:
204,271,52882,1,2,0:0:0:0:
393,132,53052,5,2,1:0:0:0:
195,48,53221,1,2,0:0:0:0:
336,242,53391,2,0,L|352:350,1,101.920001244141,10|0,0:0|0:0,0:0:0:0:
158,183,53730,2,0,L|172:82,1,101.920001244141,2|0,0:0|1:0,0:0:0:0:
418,169,54069,2,0,P|451:73|362:0,1,203.840002488281,8|0,0:0|1:0,0:0:0:0:
315,154,54577,1,0,0:0:0:0:
195,48,54747,2,0,B|79:46|120:125|1:124,1,203.840002488281,8|0,0:0|0:0,0:0:0:0:
191,143,55255,1,2,1:0:0:0:
25,22,55425,2,0,P|17:105|3:153,1,101.920001244141,10|0,0:0|0:0,0:0:0:0:
162,307,55764,6,0,P|232:276|265:274,1,101.920001244141,6|0,1:0|0:0,0:0:0:0:
407,325,56103,1,10,0:0:0:0:
326,164,56272,2,0,P|256:133|223:131,1,101.920001244141,0|0,0:0|0:0,0:0:0:0:
81,182,56611,1,0,1:0:0:0:
342,41,56781,2,0,P|416:89|423:224,1,203.840002488281,8|0,0:0|1:0,0:0:0:0:
256,273,57289,5,2,0:0:0:0:
218,94,57459,1,10,0:0:0:0:
292,298,57628,1,2,0:0:0:0:
115,197,57798,1,2,0:0:0:0:
308,126,57967,1,2,1:0:0:0:
88,224,58137,1,10,0:0:0:0:
327,323,58306,1,2,0:0:0:0:
218,94,58476,6,0,P|206:166|205:225,1,101.920001244141,2|0,1:0|0:0,0:0:0:0:
395,44,58815,2,0,P|407:116|408:175,1,101.920001244141,10|0,0:0|0:0,0:0:0:0:
156,31,59153,1,2,0:0:0:0:
132,235,59323,1,0,1:0:0:0:
356,17,59492,2,0,P|377:139|383:248,1,203.840002488281,8|0,0:0|1:0,0:0:0:0:
218,94,60001,5,2,0:0:0:0:
313,291,60170,1,10,0:0:0:0:
248,72,60340,1,2,0:0:0:0:
120,281,60509,1,2,0:0:0:0:
344,153,60679,1,2,1:0:0:0:
132,235,60848,1,10,0:0:0:0:
358,312,61018,1,2,0:0:0:0:
129,146,61187,6,0,P|57:167|24:212,1,101.920001244141,2|0,1:0|0:0,0:0:0:0:
190,335,61526,1,10,0:0:0:0:
281,120,61696,2,0,P|353:141|386:186,1,101.920001244141,0|0,0:0|0:0,0:0:0:0:
220,309,62035,1,0,1:0:0:0:
132,110,62204,2,0,P|38:150|9:284,1,203.840002488281,8|0,0:0|1:0,0:0:0:0:
254,159,62713,5,2,0:0:0:0:
38,95,62882,1,10,0:0:0:0:
281,120,63052,1,2,0:0:0:0:
69,180,63221,2,0,P|88:252|92:309,1,101.920001244141,2|0,0:0|1:0,0:0:0:0:
189,62,63560,1,10,0:0:0:0:
264,257,63730,1,2,0:0:0:0:
374,90,63899,5,2,1:0:0:0:
152,154,64069,1,2,0:0:0:0:
407,114,64238,2,0,P|429:175|425:227,1,101.920001244141,10|0,0:0|0:0,0:0:0:0:
280,73,64577,1,2,0:0:0:0:
259,289,64747,1,0,1:0:0:0:
191,58,64916,1,8,0:0:0:0:
405,325,65255,5,0,1:0:0:0:
28,221,65594,1,8,0:0:0:0:
28,221,65933,1,10,0:0:0:0:
65,222,66017,1,8,0:0:0:0:
99,206,66102,1,0,1:0:0:0:
122,178,66187,1,8,0:0:0:0:
145,149,66272,1,2,1:0:0:0:
179,134,66357,1,8,0:0:0:0:
215,134,66441,1,0,1:0:0:0:
35,130,66611,5,6,1:0:0:0:
212,222,66781,1,2,0:0:0:0:
35,130,66950,1,10,0:0:0:0:
212,222,67120,1,2,0:0:0:0:
123,63,67289,5,2,0:0:0:0:
168,293,67459,1,2,1:0:0:0:
123,63,67628,1,10,0:0:0:0:
168,293,67798,1,2,0:0:0:0:
286,100,67967,5,2,1:0:0:0:
120,360,68137,1,2,0:0:0:0:
286,100,68306,1,10,0:0:0:0:
120,360,68476,1,2,0:0:0:0:
219,20,68645,5,2,0:0:0:0:
345,346,68815,1,2,1:0:0:0:
302,7,68984,1,10,0:0:0:0:
259,350,69153,1,2,0:0:0:0:
302,7,69323,6,0,P|348:55|371:198,1,203.840002488281,0|10,1:0|0:0,0:0:0:0:
150,73,69831,2,0,P|104:121|81:264,1,203.840002488281,2|0,0:0|1:0,0:0:0:0:
266,124,70340,1,10,0:0:0:0:
157,323,70509,2,0,P|100:354|51:351,2,101.920001244141,2|0|0,0:0|1:0|0:0,0:0:0:0:
294,152,71018,2,0,P|344:155|386:183,1,101.920001244141,10|0,0:0|0:0,0:0:0:0:
78,252,71357,2,0,L|60:134,1,101.920001244141,2|0,0:0|1:0,0:0:0:0:
318,241,71696,2,0,L|302:341,1,101.920001244141,10|0,0:0|0:0,0:0:0:0:
191,187,72035,5,6,1:0:0:0:
383,113,72204,1,2,0:0:0:0:
191,187,72374,1,10,0:0:0:0:
383,113,72543,1,2,0:0:0:0:
103,153,72713,5,2,0:0:0:0:
361,256,72882,1,2,1:0:0:0:
103,153,73052,1,10,0:0:0:0:
361,256,73221,1,2,0:0:0:0:
161,57,73391,5,2,1:0:0:0:
225,338,73560,1,2,0:0:0:0:
161,57,73730,1,10,0:0:0:0:
225,338,73899,1,2,0:0:0:0:
402,78,74069,5,2,0:0:0:0:
62,169,74238,1,2,1:0:0:0:
437,148,74408,1,10,0:0:0:0:
97,239,74577,1,2,0:0:0:0:
437,148,74747,6,0,B|308:148|382:229|222:221,1,203.840002488281,0|10,1:0|0:0,0:0:0:0:
81,51,75255,2,0,B|210:51|136:132|296:124,1,203.840002488281,2|0,0:0|1:0,0:0:0:0:
88,149,75764,1,10,0:0:0:0:
255,31,75933,2,0,P|323:46|357:99,2,101.920001244141,2|0|0,0:0|1:0|0:0,0:0:0:0:
100,183,76442,2,0,P|61:214|11:219,1,101.920001244141,10|0,0:0|0:0,0:0:0:0:
263,124,76781,2,0,L|277:236,1,101.920001244141,2|0,0:0|1:0,0:0:0:0:
32,127,77120,2,0,L|44:25,1,101.920001244141,10|0,0:0|0:0,0:0:0:0:
169,269,77459,5,6,1:0:0:0:
124,104,77628,1,2,0:0:0:0:
169,269,77798,1,10,0:0:0:0:
124,104,77967,1,2,0:0:0:0:
282,310,78137,5,2,0:0:0:0:
217,90,78306,1,2,1:0:0:0:
282,310,78476,1,10,0:0:0:0:
217,90,78645,1,2,0:0:0:0:
385,347,78815,5,2,1:0:0:0:
307,73,78984,1,2,0:0:0:0:
385,347,79154,1,10,0:0:0:0:
307,73,79323,1,2,0:0:0:0:
197,349,79492,5,2,0:0:0:0:
220,41,79662,1,2,1:0:0:0:
288,348,79831,1,10,0:0:0:0:
311,40,80001,1,2,0:0:0:0:
288,348,80170,6,0,B|339:229|253:278|311:142,1,203.840002488281,0|10,1:0|0:0,0:0:0:0:
105,350,80679,2,0,B|54:231|140:280|82:144,1,203.840002488281,2|0,0:0|1:0,0:0:0:0:
194,301,81187,1,10,0:0:0:0:
151,87,81357,2,0,P|92:62|35:75,2,101.920001244141,2|0|0,0:0|1:0|0:0,0:0:0:0:
344,155,81865,1,10,0:0:0:0:
344,155,82204,2,0,L|454:171,1,101.920001244141,2|0,0:0|1:0,0:0:0:0:
117,231,82543,2,0,L|7:247,1,101.920001244141,10|0,0:0|0:0,0:0:0:0:
334,305,82882,5,6,1:0:0:0:
176,300,83052,1,2,0:0:0:0:
334,305,83221,1,10,0:0:0:0:
176,300,83391,1,2,0:0:0:0:
368,229,83560,5,2,0:0:0:0:
155,225,83730,1,2,1:0:0:0:
368,229,83899,1,10,0:0:0:0:
155,225,84069,1,2,0:0:0:0:
401,152,84238,5,2,1:0:0:0:
135,146,84408,1,2,0:0:0:0:
401,152,84577,1,10,0:0:0:0:
135,146,84747,1,2,0:0:0:0:
438,78,84916,5,2,0:0:0:0:
103,72,85086,1,2,1:0:0:0:
401,152,85255,1,10,0:0:0:0:
66,143,85425,1,2,0:0:0:0:
401,152,85594,6,0,P|338:103|217:128,2,203.840002488281,0|10|0,1:0|0:0|0:0,0:0:0:0:
425,268,86442,1,0,1:0:0:0:
323,191,86611,1,10,0:0:0:0:
323,191,86950,2,0,P|322:271|308:355,1,152.880001866211,0|2,1:0|0:0,0:0:0:0:
310,342,87289,2,0,P|237:321|200:320,1,101.920001244141,10|0,0:0|0:0,0:0:0:0:
126,234,87628,2,0,P|176:228|224:210,1,101.920001244141,2|0,1:0|0:0,0:0:0:0:
328,91,87967,1,2,0:0:0:0:
