osu file format v14

[General]
AudioFilename: audio.mp3
AudioLeadIn: 0
PreviewTime: 44408
Countdown: 0
SampleSet: Soft
StackLeniency: 0.7
Mode: 2
LetterboxInBreaks: 0
WidescreenStoryboard: 1

[Editor]
Bookmarks: 1526,6950,12374,17798,23221,34069,39492,44916,50340,55764,61187,66611,72035,77459,82882,86950,87967,97798
DistanceSpacing: 1
BeatDivisor: 4
GridSize: 4
TimelineZoom: 1.200001

[Metadata]
Title:Gold Dust (Cut Ver.)
TitleUnicode:Gold Dust (Cut Ver.)
Artist:DJ Fresh
ArtistUnicode:DJ Fresh
Creator:zerokt
Version:Cup
Source:
Tags:du5t dust idust idu5t drum and bass dnb english female vocal electronic
BeatmapID:3169422
BeatmapSetID:1550980

[Difficulty]
HPDrainRate:2
CircleSize:2.5
OverallDifficulty:6
ApproachRate:6
SliderMultiplier:1.37
SliderTickRate:1

[Events]
//Background and Video events
0,0,"du5tmybeloved.jpg",0,0
//Break Periods
//Storyboard Layer 0 (Background)
//Storyboard Layer 1 (Fail)
//Storyboard Layer 2 (Pass)
//Storyboard Layer 3 (Foreground)
//Storyboard Layer 4 (Overlay)
//Storyboard Sound Samples

[TimingPoints]
-1185,338.983050847458,4,2,69,62,1,0
1526,-100,4,2,69,62,0,0
21187,-100,4,2,69,72,0,0
22543,-100,4,2,69,82,0,0
44916,-100,4,2,69,92,0,1
55086,-100,4,2,69,92,0,0
55764,-100,4,2,69,92,0,1
65933,-100,4,2,69,92,0,0
66611,-100,4,2,69,92,0,1
77459,-100,4,2,69,82,0,1
82882,-100,4,2,69,72,0,1
87289,-100,4,2,69,62,0,0
88306,-100,4,2,69,52,0,0
88984,-100,4,2,69,42,0,0
93730,-100,4,2,69,32,0,0
95086,-100,4,2,69,22,0,0
96442,-100,4,2,69,12,0,0

[Colours]
Combo1 : 255,128,0
Combo2 : 255,0,0

[HitObjects]
256,192,170,12,0,1187,0:0:0:0:
296,226,1526,5,2,0:0:0:0:
161,249,1865,6,0,P|73:228|214:81,1,411,0|0,0:0|0:0,0:0:0:0:
338,74,3221,1,0,0:0:0:0:
475,72,3560,2,0,P|480:137|478:251,1,137,2|0,0:0|0:0,0:0:0:0:
340,224,4238,6,0,P|276:213|169:225,1,137,2|0,0:0|0:0,0:0:0:0:
340,219,4916,6,0,P|431:187|322:110,1,274,0|0,0:0|0:0,0:0:0:0:
202,101,5933,1,0,0:0:0:0:
338,102,6272,2,0,P|344:170|340:262,1,137,2|0,0:0|0:0,0:0:0:0:
202,280,6950,6,0,P|96:273|250:68,1,548,6|0,0:0|0:0,0:0:0:0:
379,73,8645,1,0,0:0:0:0:
242,71,8984,2,0,P|325:62|399:71,1,137,2|0,0:0|0:0,0:0:0:0:
243,267,9662,5,2,0:0:0:0:
380,264,10001,1,0,0:0:0:0:
246,275,10340,6,0,P|140:268|294:63,1,548,0|2,0:0|0:0,0:0:0:0:
423,69,12035,1,0,0:0:0:0:
288,44,12374,6,0,P|120:62|209:338,1,548,6|0,2:0|0:0,0:0:0:0:
342,343,14069,1,0,0:0:0:0:
205,346,14408,2,0,P|202:280|209:163,1,137,2|0,0:0|0:0,0:0:0:0:
344,193,15086,6,0,P|401:160|478:148,1,137,2|0,0:0|0:0,0:0:0:0:
330,224,15764,2,0,P|239:192|348:115,1,274
468,106,16781,5,0,0:0:0:0:
332,107,17120,2,0,P|268:123|145:107,1,137,2|0,0:0|0:0,0:0:0:0:
331,280,17798,6,0,P|437:273|283:68,1,548,6|0,0:0|0:0,0:0:0:0:
153,63,19492,1,0,0:0:0:0:
290,61,19831,2,0,P|228:51|133:61,1,137,2|0,0:0|0:0,0:0:0:0:
16,76,20509,5,2,0:0:0:0:
153,73,20848,1,2,0:0:0:0:
256,192,21187,12,0,22204,0:0:0:0:
185,236,22543,5,8,0:0:0:0:
132,201,22712,1,8,0:0:0:0:
160,144,22881,1,8,0:0:0:0:
296,133,23221,6,0,P|367:108|433:110,1,137,6|8,1:2|0:0,0:0:0:0:
291,320,23899,2,0,P|228:301|154:297,1,137,0|10,0:0|0:0,0:0:0:0:
295,172,24577,6,0,P|360:149|454:130,2,137,0|8|2,1:2|0:0|0:0,0:0:0:0:
159,194,25594,1,8,0:0:0:0:
297,87,25933,6,0,P|230:83|160:64,1,137,2|8,1:2|0:0,0:0:0:0:
302,274,26611,2,0,P|366:269|439:251,1,137,0|10,0:0|0:0,0:0:0:0:
298,126,27289,6,0,P|231:97|139:84,2,137,0|8|2,1:2|0:0|0:0,0:0:0:0:
434,148,28306,1,8,0:0:0:0:
297,249,28645,6,0,P|229:254|160:249,1,137,6|8,1:2|0:0,0:0:0:0:
297,249,29323,2,0,P|366:257|448:248,1,137,0|10,0:0|0:0,0:0:0:0:
296,144,30001,6,0,P|359:120|455:102,2,137,0|8|2,1:2|0:0|0:0,0:0:0:0:
158,136,31018,1,8,0:0:0:0:
295,84,31357,6,0,P|370:73|443:83,1,137,2|8,1:2|0:0,0:0:0:0:
294,256,32035,2,0,P|376:244|445:197,1,137,0|10,0:0|0:0,0:0:0:0:
284,169,32713,6,0,P|223:155|136:168,1,137,0|8,1:2|0:0,0:0:0:0:
285,341,33391,2,0,P|221:335|134:282,1,137,2|8,0:0|0:0,0:0:0:0:
295,253,34069,6,0,P|360:227|422:191,1,137,6|8,1:2|0:0,0:0:0:0:
283,164,34747,1,0,0:0:0:0:
146,158,35086,2,0,L|147:256,1,68.5,10|0,0:0|0:0,0:0:0:0:
215,232,35425,6,0,P|292:245|376:231,1,137,0|8,1:2|0:0,0:0:0:0:
214,233,36103,1,2,0:0:0:0:
351,231,36442,1,8,0:0:0:0:
213,174,36781,6,0,P|148:151|86:112,1,137,2|8,1:2|0:0,0:0:0:0:
225,85,37459,1,0,0:0:0:0:
362,79,37798,2,0,L|361:177,1,68.5,10|0,0:0|0:0,0:0:0:0:
293,153,38137,6,0,P|230:141|132:152,1,137,0|8,1:2|0:0,0:0:0:0:
294,154,38815,1,2,0:0:0:0:
157,152,39154,1,8,0:0:0:0:
20,158,39492,6,0,P|19:231|22:312,1,137,6|8,1:2|0:0,0:0:0:0:
159,290,40170,1,0,0:0:0:0:
296,221,40509,2,0,L|380:223,1,68.5,10|0,0:0|0:0,0:0:0:0:
295,219,40848,6,0,P|226:225|134:218,1,137,0|8,1:2|0:0,0:0:0:0:
295,88,41526,1,2,0:0:0:0:
158,86,41865,1,8,0:0:0:0:
292,117,42204,6,0,P|371:107|440:116,1,137,2|8,1:2|0:0,0:0:0:0:
291,289,42882,2,0,P|367:271|442:230,1,137,0|10,0:0|0:0,0:0:0:0:
281,202,43560,6,0,P|220:190|133:201,1,137,0|8,1:2|0:0,0:0:0:0:
282,330,44238,5,8,0:0:0:0:
335,295,44407,1,8,0:0:0:0:
307,238,44576,1,8,0:0:0:0:
170,226,44916,5,6,1:2:0:0:
307,140,45255,2,0,P|373:140|482:112,2,137,8|0|10,0:0|0:0|0:0,0:0:0:0:
170,138,46272,5,0,1:2:0:0:
307,140,46611,1,8,0:0:0:0:
169,254,46950,1,2,0:0:0:0:
100,253,47120,1,0,1:2:0:0:
100,321,47289,1,8,0:0:0:0:
237,321,47628,6,0,P|312:312|402:320,1,137,2|8,1:2|0:0,0:0:0:0:
237,321,48306,6,0,P|139:260|236:199,1,274,0|0,0:0|1:2,0:0:0:0:
374,200,49323,1,8,0:0:0:0:
237,196,49662,1,2,0:0:0:0:
374,96,50001,2,0,L|468:95,1,68.5,8|2,0:0|0:0,0:0:0:0:
373,98,50340,6,0,P|310:91|203:99,2,137,6|8|0,1:2|0:0|0:0,0:0:0:0:
236,84,51357,1,10,0:0:0:0:
99,86,51696,6,0,P|172:96|258:85,1,137,0|8,1:2|0:0,0:0:0:0:
373,89,52374,1,2,0:0:0:0:
235,87,52713,2,0,L|136:87,1,68.5,8|2,0:0|0:0,0:0:0:0:
97,87,53052,6,0,P|175:79|270:86,1,137,2|8,1:2|0:0,0:0:0:0:
371,95,53730,6,0,P|467:157|369:217,1,274,0|0,0:0|1:2,0:0:0:0:
234,194,54747,1,8,0:0:0:0:
370,200,55086,1,2,0:0:0:0:
439,201,55256,1,0,1:2:0:0:
439,133,55425,1,8,0:0:0:0:
298,136,55764,5,6,1:2:0:0:
161,140,56103,2,0,P|92:120|-14:112,2,137,8|0|10,0:0|0:0|0:0,0:0:0:0:
298,138,57120,5,0,1:2:0:0:
161,140,57459,1,8,0:0:0:0:
299,254,57798,1,2,0:0:0:0:
368,253,57968,1,0,1:2:0:0:
368,321,58137,1,8,0:0:0:0:
231,321,58476,6,0,P|160:325|66:320,1,137,2|8,1:2|0:0,0:0:0:0:
231,321,59154,6,0,P|329:260|232:199,1,274,0|0,0:0|1:2,0:0:0:0:
94,200,60171,1,8,0:0:0:0:
231,196,60510,1,2,0:0:0:0:
94,96,60849,2,0,L|0:95,1,68.5,8|2,0:0|0:0,0:0:0:0:
95,98,61188,6,0,P|174:107|265:99,2,137,6|8|0,1:2|0:0|0:0,0:0:0:0:
232,84,62205,1,10,0:0:0:0:
369,86,62544,6,0,P|292:75|210:85,1,137,0|8,1:2|0:0,0:0:0:0:
95,89,63222,1,2,0:0:0:0:
233,87,63561,2,0,L|332:87,1,68.5,8|2,0:0|0:0,0:0:0:0:
371,87,63900,6,0,P|292:92|198:86,1,137,2|8,1:2|0:0,0:0:0:0:
97,95,64578,6,0,P|1:157|99:217,1,274,0|0,0:0|1:2,0:0:0:0:
234,194,65595,1,8,0:0:0:0:
98,200,65934,1,8,0:0:0:0:
29,201,66104,1,8,0:0:0:0:
29,133,66273,1,8,0:0:0:0:
165,128,66611,6,0,P|243:115|334:129,2,137,4|8|0,1:2|0:0|0:0,0:0:0:0:
27,125,67628,1,10,0:0:0:0:
164,332,67967,6,0,P|236:340|333:333,2,137,0|8|2,1:2|0:0|0:0,0:0:0:0:
27,227,68984,2,0,L|167:228,1,137,8|2,0:0|1:2,0:0:0:0:
300,306,69662,2,0,P|223:304|123:270,1,137,8|0,0:0|0:0,0:0:0:0:
302,190,70340,6,0,P|370:192|479:154,1,137,10|0,0:0|1:2,0:0:0:0:
300,181,71018,1,8,0:0:0:0:
434,208,71357,2,0,P|357:211|257:172,1,137,2|8,0:0|0:0,0:0:0:0:
160,291,72035,6,0,P|100:282|-9:292,2,137,4|8|0,1:2|0:0|0:0,0:0:0:0:
297,295,73052,1,10,0:0:0:0:
434,158,73391,6,0,P|368:146|265:159,2,137,0|8|2,1:2|0:0|0:0,0:0:0:0:
296,237,74408,2,0,P|379:228|473:201,1,137,8|2,0:0|1:2,0:0:0:0:
296,237,75086,2,0,P|213:228|119:201,1,137,8|0,0:0|0:0,0:0:0:0:
298,121,75764,6,0,P|362:118|475:85,1,137,10|0,0:0|1:2,0:0:0:0:
294,264,76442,1,8,0:0:0:0:
160,291,76781,2,0,P|234:266|337:255,1,137,2|10,0:0|0:0,0:0:0:0:
433,149,77459,6,0,P|359:166|296:148,2,137,4|8|0,1:2|0:0|0:0,0:0:0:0:
296,249,78476,1,8,0:0:0:0:
159,305,78815,6,0,P|97:286|22:304,2,137,0|8|0,1:2|0:0|0:0,0:0:0:0:
294,264,79831,2,0,P|226:268|117:228,1,137,8|0,0:0|1:2,0:0:0:0:
294,264,80510,2,0,P|362:268|471:228,1,137,8|0,0:0|0:0,0:0:0:0:
291,246,81188,6,0,P|220:240|114:210,1,137,8|0,0:0|1:2,0:0:0:0:
293,233,81866,1,8,0:0:0:0:
434,258,82205,2,0,P|366:252|257:222,1,137,0|8,0:0|0:0,0:0:0:0:
161,191,82882,6,0,P|95:180|24:190,2,137,4|8|0,1:2|0:0|0:0,0:0:0:0:
295,165,83899,1,8,0:0:0:0:
158,170,84238,6,0,P|89:177|21:169,2,137,0|8|0,1:2|0:0|0:0,0:0:0:0:
295,165,85255,1,8,0:0:0:0:
158,170,85594,6,0,P|151:236|160:307,1,137,4|8,1:2|0:0,0:0:0:0:
293,299,86272,2,0,P|299:224|293:141,1,137,0|8,0:0|0:0,0:0:0:0:
156,162,86950,5,4,1:2:0:0:
293,162,87289,1,8,0:0:0:0:
156,162,87628,6,0,P|85:197|45:253,1,137,0|4,1:2|0:0,0:0:0:0:
256,192,88306,12,0,97798,0:0:0:0:
