osu file format v14

[General]
AudioFilename: audio.mp3
AudioLeadIn: 0
PreviewTime: -1
Countdown: 0
SampleSet: None
StackLeniency: 0.7
Mode: 0
LetterboxInBreaks: 0
WidescreenStoryboard: 0

[Editor]
DistanceSpacing: 1.2
BeatDivisor: 4
GridSize: 4
TimelineZoom: 1

[Metadata]
Title:Click
TitleUnicode:Click
Artist:DJ Fortify
ArtistUnicode:DJ Fortify
Creator:FlanDrive
Version:Clicked
Source:
Tags:dj fortify idk genre tbh
BeatmapID:1463873
BeatmapSetID:691788

[Difficulty]
HPDrainRate:6
CircleSize:4
OverallDifficulty:7.5
ApproachRate:9.5
SliderMultiplier:1.4
SliderTickRate:1

[Events]
//Background and Video events
0,0,"dsc_0689.jpg",0,0
//Break Periods
2,22188,32434
//Storyboard Layer 0 (Background)
//Storyboard Layer 1 (Fail)
//Storyboard Layer 2 (Pass)
//Storyboard Layer 3 (Foreground)
//Storyboard Sound Samples

[TimingPoints]
2788.39537030428,342.857142857143,4,1,0,100,1,0
43931,-200,4,1,0,100,0,0

[HitObjects]
24,168,45,5,0,0:0:0:0:
92,12,388,1,0,0:0:0:0:
140,172,731,1,0,0:0:0:0:
256,52,1074,2,0,P|308:80|328:100,1,70
252,140,1416,2,0,P|300:176|316:196,1,70
320,268,1759,1,0,0:0:0:0:
152,276,2102,2,0,P|108:260|100:224,1,70
132,164,2445,1,0,0:0:0:0:
268,68,2788,5,0,0:0:0:0:
272,236,3131,1,0,0:0:0:0:
384,112,3474,1,0,0:0:0:0:
448,268,3816,2,0,L|376:320,1,70
356,232,4159,2,0,L|424:168,1,70
420,100,4502,1,0,0:0:0:0:
300,92,4674,1,0,0:0:0:0:
252,96,4845,2,0,L|176:112,1,70
148,188,5188,1,0,0:0:0:0:
40,316,5531,5,0,0:0:0:0:
44,148,5874,1,0,0:0:0:0:
176,252,6216,1,0,0:0:0:0:
152,44,6559,2,0,L|224:56,1,70
296,92,6902,2,0,L|256:160,1,70
320,212,7245,1,0,0:0:0:0:
460,116,7588,1,0,0:0:0:0:
392,268,7931,1,0,0:0:0:0:
228,296,8274,1,0,0:0:0:0:
128,164,8616,6,0,L|200:176,1,70
188,92,8959,2,0,L|100:84,1,70
52,136,9302,1,0,0:0:0:0:
36,304,9645,1,0,0:0:0:0:
168,200,9988,1,0,0:0:0:0:
172,284,10159,1,0,0:0:0:0:
172,284,10245,1,0,0:0:0:0:
172,284,10331,1,0,0:0:0:0:
268,200,10588,1,0,0:0:0:0:
268,200,10674,1,0,0:0:0:0:
280,284,10845,5,0,0:0:0:0:
352,240,11016,2,0,P|400:208|400:176,1,70
364,124,11359,1,0,0:0:0:0:
200,88,11702,1,0,0:0:0:0:
88,212,12045,1,0,0:0:0:0:
204,88,12388,1,0,0:0:0:0:
208,256,12731,2,0,L|144:300,1,70
224,332,13074,1,0,0:0:0:0:
380,276,13416,1,0,0:0:0:0:
236,192,13759,6,0,P|184:168|184:152,1,70
208,84,14102,1,0,0:0:0:0:
372,56,14445,1,0,0:0:0:0:
384,224,14788,1,0,0:0:0:0:
264,340,15131,2,0,L|200:304,1,70
120,272,15474,1,0,0:0:0:0:
68,112,15816,1,0,0:0:0:0:
224,176,16159,1,0,0:0:0:0:
256,12,16502,2,0,L|340:52,1,70
264,104,16845,2,0,L|336:164,1,70
244,192,17188,6,0,L|280:264,1,70
200,292,17531,1,0,0:0:0:0:
76,176,17874,1,0,0:0:0:0:
204,64,18216,1,0,0:0:0:0:
76,176,18559,1,0,0:0:0:0:
244,192,18902,1,0,0:0:0:0:
76,176,19245,2,0,B|64:264|64:260,1,70
140,288,19588,1,0,0:0:0:0:
304,256,19931,1,0,0:0:0:0:
424,140,20274,5,0,0:0:0:0:
292,36,20616,2,0,P|236:36|208:56,1,70
188,116,20959,1,0,0:0:0:0:
132,180,21131,1,0,0:0:0:0:
132,180,21216,1,0,0:0:0:0:
132,180,21302,1,0,0:0:0:0:
36,264,21559,1,0,0:0:0:0:
36,264,21645,1,0,0:0:0:0:
120,272,21816,1,0,0:0:0:0:
188,320,21988,5,0,0:0:0:0:
92,196,32959,5,0,0:0:0:0:
140,124,33131,1,0,0:0:0:0:
204,176,33302,1,0,0:0:0:0:
252,104,33474,1,0,0:0:0:0:
328,140,33645,1,0,0:0:0:0:
368,68,33816,1,0,0:0:0:0:
368,68,33988,2,0,L|424:112,1,70
420,196,34331,1,0,0:0:0:0:
348,240,34502,1,0,0:0:0:0:
416,292,34674,5,0,0:0:0:0:
340,324,34845,1,0,0:0:0:0:
264,288,35016,2,0,L|208:272,2,35
204,348,35359,2,0,L|152:340,2,35
160,276,35702,1,0,0:0:0:0:
88,232,35874,1,0,0:0:0:0:
112,152,36045,1,0,0:0:0:0:
172,92,36216,1,0,0:0:0:0:
244,132,36388,2,0,P|288:160|296:184,1,70
244,244,36731,5,0,0:0:0:0:
324,264,36902,1,0,0:0:0:0:
396,220,37074,1,0,0:0:0:0:
416,140,37245,1,0,0:0:0:0:
416,56,37416,2,0,L|344:68,1,70
264,84,37759,1,0,0:0:0:0:
264,84,37845,1,0,0:0:0:0:
264,84,37931,1,0,0:0:0:0:
180,100,38102,5,0,0:0:0:0:
180,100,38188,1,0,0:0:0:0:
180,100,38274,1,0,0:0:0:0:
168,184,38445,1,0,0:0:0:0:
320,224,38616,1,0,0:0:0:0:
168,280,38788,1,0,0:0:0:0:
400,280,38959,1,0,0:0:0:0:
88,232,39131,1,0,0:0:0:0:
400,168,39302,1,0,0:0:0:0:
24,288,39474,1,0,0:0:0:0:
476,220,39645,1,0,0:0:0:0:
24,164,39816,5,0,0:0:0:0:
424,304,39988,1,0,0:0:0:0:
76,80,40159,1,0,0:0:0:0:
336,360,40331,1,0,0:0:0:0:
168,44,40502,1,0,0:0:0:0:
248,380,40674,1,0,0:0:0:0:
260,40,40845,1,0,0:0:0:0:
256,192,41016,1,0,0:0:0:0:
256,192,41188,2,0,P|304:192|328:200,1,70
324,198,41445,5,0,0:0:0:0:
347,224,41530,1,0,0:0:0:0:
336,255,41616,1,0,0:0:0:0:
305,271,41702,1,0,0:0:0:0:
271,276,41787,1,0,0:0:0:0:
236,273,41873,1,0,0:0:0:0:
203,262,41959,5,0,0:0:0:0:
174,243,42044,1,0,0:0:0:0:
152,216,42130,1,0,0:0:0:0:
141,182,42216,1,0,0:0:0:0:
144,148,42302,1,0,0:0:0:0:
158,116,42387,1,0,0:0:0:0:
181,90,42473,1,0,0:0:0:0:
210,70,42559,5,0,0:0:0:0:
242,55,42644,1,0,0:0:0:0:
276,46,42730,1,0,0:0:0:0:
310,43,42816,1,0,0:0:0:0:
345,47,42902,1,0,0:0:0:0:
379,57,42987,1,0,0:0:0:0:
409,74,43073,5,0,0:0:0:0:
433,99,43159,1,0,0:0:0:0:
452,129,43244,1,0,0:0:0:0:
465,161,43330,1,0,0:0:0:0:
474,195,43416,1,0,0:0:0:0:
482,229,43502,1,0,0:0:0:0:
488,264,43587,1,0,0:0:0:0:
495,298,43673,5,0,0:0:0:0:
480,336,43759,1,0,0:0:0:0:
412,300,43931,1,0,0:0:0:0:
244,280,44616,2,0,P|152:280|128:272,1,105
288,216,45302,2,0,P|288:124|296:100,1,105
336,276,45988,2,0,P|428:276|452:284,1,105
456,200,46674,2,0,P|444:132|400:80,2,122.5
344,172,48045,2,0,P|296:120|256:120,1,105
260,200,48731,2,0,P|204:200|164:236,1,105
232,288,49416,6,0,L|308:292,1,70
352,224,50102,1,0,0:0:0:0:
228,64,50274,1,0,0:0:0:0:
136,228,50445,1,0,0:0:0:0:
344,100,50616,1,0,0:0:0:0:
244,300,50788,1,0,0:0:0:0:
124,108,50959,1,0,0:0:0:0:
120,332,51131,1,0,0:0:0:0:
144,56,51302,1,0,0:0:0:0:
156,288,51474,6,0,L|184:264,1,35
248,240,51816,2,0,L|280:224,1,35
324,292,52159,2,0,P|348:304|396:296,1,70
348,184,52845,1,0,0:0:0:0:
152,120,53016,1,0,0:0:0:0:
348,60,53188,1,0,0:0:0:0:
208,228,53359,1,0,0:0:0:0:
232,24,53531,1,0,0:0:0:0:
80,184,53702,1,0,0:0:0:0:
316,284,53874,1,0,0:0:0:0:
172,64,54045,5,0,0:0:0:0:
144,288,54216,2,0,L|156:248,1,35
224,208,54559,2,0,L|272:196,1,35
324,256,54902,1,0,0:0:0:0:
244,280,55588,2,0,P|152:280|128:272,1,105
132,156,56274,2,0,P|132:64|140:40,1,105
296,160,56960,2,0,P|388:160|412:168,1,105
388,336,57646,2,0,P|376:268|332:216,2,122.5
464,224,59017,2,0,P|416:172|376:172,1,105
260,200,59703,2,0,P|204:200|164:236,1,105
196,332,60388,6,0,L|272:336,1,70
224,96,61074,1,0,0:0:0:0:
384,220,61246,1,0,0:0:0:0:
220,312,61417,1,0,0:0:0:0:
348,104,61588,1,0,0:0:0:0:
148,204,61760,1,0,0:0:0:0:
340,324,61931,1,0,0:0:0:0:
116,328,62103,1,0,0:0:0:0:
392,304,62274,1,0,0:0:0:0:
108,228,62446,6,0,L|132:200,1,35
248,216,62788,2,0,L|264:184,1,35
208,128,63131,2,0,P|196:104|204:56,1,70
340,168,63817,1,0,0:0:0:0:
140,92,63988,1,0,0:0:0:0:
352,68,64160,1,0,0:0:0:0:
168,272,64331,1,0,0:0:0:0:
232,24,64503,1,0,0:0:0:0:
80,184,64674,1,0,0:0:0:0:
316,284,64846,1,0,0:0:0:0:
172,64,65017,5,0,0:0:0:0:
144,288,65188,2,0,L|156:248,1,35
264,280,65531,2,0,L|312:268,1,35
304,200,65874,1,0,0:0:0:0:
104,120,66559,6,0,L|140:96,1,35
133,100,66816,1,0,0:0:0:0:
133,100,66902,1,0,0:0:0:0:
224,120,67074,1,0,0:0:0:0:
140,184,67245,2,0,L|184:200,1,35
220,272,67588,2,0,L|232:256,2,17.5
220,272,67845,1,0,0:0:0:0:
256,344,67931,2,0,P|284:340|296:332,1,35
344,284,68274,2,0,L|324:240,1,35
329,252,68531,1,0,0:0:0:0:
329,252,68616,6,0,P|292:196|280:152,1,105
281,160,69216,1,0,0:0:0:0:
281,160,69302,1,0,0:0:0:0:
232,92,69474,2,0,L|208:96,1,17.5
214,94,69645,1,0,0:0:0:0:
164,192,69816,1,0,0:0:0:0:
68,172,69988,2,0,P|48:204|48:212,1,35
48,200,70245,1,0,0:0:0:0:
256,192,70331,12,0,71359,0:0:0:0:
244,212,71702,6,0,L|196:192,1,52.5
136,120,72216,1,0,0:0:0:0:
252,72,72388,1,0,0:0:0:0:
252,72,72474,1,0,0:0:0:0:
252,72,72559,1,0,0:0:0:0:
252,188,72731,1,0,0:0:0:0:
332,140,72902,6,0,P|360:152|368:168,1,35
308,280,73245,1,0,0:0:0:0:
308,280,73331,1,0,0:0:0:0:
184,248,73416,1,0,0:0:0:0:
96,132,73588,1,0,0:0:0:0:
96,132,73674,1,0,0:0:0:0:
96,132,73759,2,0,P|80:156|64:168,1,35
80,260,74102,2,0,P|88:296|156:316,1,105
188,208,74788,1,0,0:0:0:0:
188,208,74874,1,0,0:0:0:0:
188,208,74959,1,0,0:0:0:0:
188,64,75131,5,0,0:0:0:0:
272,208,75302,1,0,0:0:0:0:
276,60,75473,1,0,0:0:0:0:
276,60,75559,1,0,0:0:0:0:
276,60,75645,2,0,P|296:68|308:92,1,35
348,180,75988,1,0,0:0:0:0:
348,180,76074,1,0,0:0:0:0:
360,272,76245,1,0,0:0:0:0:
360,272,76331,2,0,L|400:268,1,35
448,176,76845,5,0,0:0:0:0:
408,120,77531,6,0,L|372:96,1,35
378,100,77788,1,0,0:0:0:0:
378,100,77874,1,0,0:0:0:0:
256,120,78046,1,0,0:0:0:0:
256,120,78217,2,0,L|240:76,1,35
320,188,78560,2,0,L|308:172,2,17.5
320,188,78817,1,0,0:0:0:0:
272,276,78903,2,0,P|268:304|260:316,1,35
168,284,79246,2,0,L|188:240,1,35
182,252,79503,1,0,0:0:0:0:
182,252,79588,6,0,P|220:196|232:152,1,105
230,160,80188,1,0,0:0:0:0:
230,160,80274,1,0,0:0:0:0:
344,40,80446,2,0,L|368:44,1,17.5
361,42,80617,1,0,0:0:0:0:
344,212,80788,1,0,0:0:0:0:
444,172,80960,2,0,P|464:204|464:212,1,35
463,200,81217,1,0,0:0:0:0:
424,296,81302,2,0,L|384:308,1,35
288,300,81645,1,0,0:0:0:0:
288,300,81731,5,0,0:0:0:0:
288,300,81816,1,0,0:0:0:0:
208,276,81988,2,0,L|176:244,1,35
180,172,82331,2,0,L|208:152,1,35
268,212,82674,6,0,L|316:192,1,52.5
376,120,83188,1,0,0:0:0:0:
260,72,83360,1,0,0:0:0:0:
260,72,83446,1,0,0:0:0:0:
260,72,83531,1,0,0:0:0:0:
260,188,83703,1,0,0:0:0:0:
180,140,83874,6,0,P|152:152|144:168,1,35
204,280,84217,1,0,0:0:0:0:
204,280,84303,1,0,0:0:0:0:
328,248,84388,1,0,0:0:0:0:
416,132,84560,1,0,0:0:0:0:
416,132,84646,1,0,0:0:0:0:
416,132,84731,2,0,P|432:156|448:168,1,35
432,260,85074,2,0,P|424:296|356:316,1,105
324,208,85760,1,0,0:0:0:0:
324,208,85846,1,0,0:0:0:0:
324,208,85931,1,0,0:0:0:0:
324,64,86103,5,0,0:0:0:0:
240,208,86274,1,0,0:0:0:0:
236,60,86445,1,0,0:0:0:0:
236,60,86531,1,0,0:0:0:0:
236,60,86617,2,0,P|216:68|204:92,1,35
164,180,86960,1,0,0:0:0:0:
164,180,87046,1,0,0:0:0:0:
152,272,87217,1,0,0:0:0:0:
152,272,87303,2,0,L|112:268,1,35
244,272,87816,5,0,0:0:0:0:
