osu file format v14

[General]
AudioFilename: audio.mp3
AudioLeadIn: 0
PreviewTime: 12622
Countdown: 0
SampleSet: Normal
StackLeniency: 0.2
Mode: 0
LetterboxInBreaks: 0
WidescreenStoryboard: 0

[Editor]
DistanceSpacing: 1.8
BeatDivisor: 8
GridSize: 32
TimelineZoom: 2.7

[Metadata]
Title:Tantsui poka eban
TitleUnicode:ТАНЦУЙ ПОКА ЕБАН
Artist:DJ Eban
ArtistUnicode:Ебанутый Диджей с Собакой
Creator:Vad2009
Version:DJ Eban
Source:
Tags:
BeatmapID:1497280
BeatmapSetID:708186

[Difficulty]
HPDrainRate:6
CircleSize:4
OverallDifficulty:8
ApproachRate:9
SliderMultiplier:2.2
SliderTickRate:1

[Events]
//Background and Video events
0,0,"vqebm6HOoD0.jpg",0,0
//Break Periods
//Storyboard Layer 0 (Background)
//Storyboard Layer 1 (Fail)
//Storyboard Layer 2 (Pass)
//Storyboard Layer 3 (Foreground)
//Storyboard Sound Samples

[TimingPoints]
139,387.096774193548,4,1,0,50,1,0
429,-100,4,1,0,5,0,0
526,-100,4,1,0,50,0,0
816,-100,4,1,0,5,0,0
913,-50,4,1,0,50,0,0
1009,-50,4,1,0,5,0,0
1203,-50,4,1,0,50,0,0
1300,-50,4,1,0,5,0,0
1493,-50,4,1,0,50,0,0
1590,-50,4,1,0,5,0,0
1880,-40,4,1,0,50,0,0
1977,-40,4,1,0,5,0,0
2171,-40,4,1,0,50,0,0
2268,-40,4,1,0,5,0,0
2461,-40,4,1,0,50,0,0
2558,-40,4,1,0,5,0,0
2751,-66.6666666666667,4,1,0,50,0,0
2848,-66.6666666666667,4,1,0,5,0,0
3042,-66.6666666666667,4,1,0,50,0,0
3139,-66.6666666666667,4,1,0,5,0,0
3235,-100,4,1,0,50,0,0
3526,-100,4,1,0,5,0,0
3622,-100,4,1,0,50,0,0
3913,-100,4,1,0,5,0,0
4009,-50,4,1,0,50,0,0
4106,-50,4,1,0,5,0,0
4300,-50,4,1,0,50,0,0
4397,-50,4,1,0,5,0,0
4590,-50,4,1,0,50,0,0
4687,-50,4,1,0,5,0,0
4977,-40,4,1,0,50,0,0
5074,-40,4,1,0,5,0,0
5268,-40,4,1,0,50,0,0
5364,-40,4,1,0,5,0,0
5461,-40,4,1,0,50,0,0
5655,-40,4,1,0,5,0,0
5751,-40,4,1,0,50,0,0
5945,-40,4,1,0,5,0,0
6138,-80,4,1,0,50,0,0
6235,-80,4,1,0,5,0,0
6332,-100,4,1,0,50,0,0
7106,-50,4,1,0,50,0,0
7203,-50,4,1,0,5,0,0
7397,-50,4,1,0,50,0,0
7494,-50,4,1,0,5,0,0
7687,-50,4,1,0,50,0,0
7784,-50,4,1,0,5,0,0
8074,-50,4,1,0,50,0,0
8268,-100,4,1,0,50,0,0
8461,-50,4,1,0,5,0,0
8655,-50,4,1,0,50,0,0
8751,-50,4,1,0,5,0,0
8848,-100,4,1,0,50,0,0
9042,-100,4,1,0,5,0,0
9235,-100,4,1,0,50,0,0
10203,-40,4,1,0,50,0,0
10300,-40,4,1,0,5,0,0
10493,-40,4,1,0,50,0,0
10590,-40,4,1,0,5,0,0
10784,-40,4,1,0,50,0,0
10881,-40,4,1,0,5,0,0
10977,-50,4,1,0,50,0,0
12622,393.44262295082,4,1,0,50,1,0
12622,-66.6666666666667,4,1,0,50,0,0
12917,-66.6666666666667,4,1,0,5,0,0
13015,-66.6666666666667,4,1,0,50,0,0
13310,-66.6666666666667,4,1,0,5,0,0
13408,-66.6666666666667,4,1,0,50,0,0
13605,-66.6666666666667,4,1,0,5,0,0
13703,-66.6666666666667,4,1,0,50,0,0
13900,-66.6666666666667,4,1,0,5,0,0
13999,-66.6666666666667,4,1,0,50,0,0
14097,-66.6666666666667,4,1,0,5,0,0
14195,-66.6666666666667,4,1,0,50,0,0
14392,-50,4,1,0,50,0,0
15769,-66.6666666666667,4,1,0,50,0,0
16064,-66.6666666666667,4,1,0,5,0,0
16162,-66.6666666666667,4,1,0,50,0,0
16457,-66.6666666666667,4,1,0,5,0,0
16555,-66.6666666666667,4,1,0,50,0,0
16752,-66.6666666666667,4,1,0,5,0,0
16850,-66.6666666666667,4,1,0,50,0,0
17047,-66.6666666666667,4,1,0,5,0,0
17146,-66.6666666666667,4,1,0,50,0,0
17342,-66.6666666666667,4,1,0,50,0,0
17343,375,4,1,0,50,1,0
18843,387.096774193548,4,1,0,50,1,0
18843,-66.6666666666667,4,1,0,50,0,0
19133,-66.6666666666667,4,1,0,5,0,0
19230,-66.6666666666667,4,1,0,50,0,0
19520,-66.6666666666667,4,1,0,5,0,0
19617,-66.6666666666667,4,1,0,50,0,0
19810,-66.6666666666667,4,1,0,5,0,0
19907,-66.6666666666667,4,1,0,50,0,0
20100,-66.6666666666667,4,1,0,5,0,0
20197,-66.6666666666667,4,1,0,50,0,0
20294,-66.6666666666667,4,1,0,5,0,0
20391,-66.6666666666667,4,1,0,50,0,0
20584,-50,4,1,0,50,0,0
20633,-50,4,1,0,5,0,0
20778,-50,4,1,0,50,0,0
20827,-50,4,1,0,5,0,0
20972,-50,4,1,0,50,0,0
21021,-50,4,1,0,5,0,0
21165,-50,4,1,0,50,0,0
21214,-50,4,1,0,5,0,0
21455,-66.6666666666667,4,1,0,50,0,0
24310,-66.6666666666667,4,1,0,5,0,0
24359,-66.6666666666667,4,1,0,50,0,0
24407,-66.6666666666667,4,1,0,5,0,0
24456,-66.6666666666667,4,1,0,50,0,0
24504,-66.6666666666667,4,1,0,5,0,0
24553,-66.6666666666667,4,1,0,50,0,0
24601,-66.6666666666667,4,1,0,5,0,0
24650,-66.6666666666667,4,1,0,50,0,0
24697,-66.6666666666667,4,1,0,5,0,0
24746,-66.6666666666667,4,1,0,50,0,0
24794,-66.6666666666667,4,1,0,5,0,0
24843,-66.6666666666667,4,1,0,50,0,0
24891,-66.6666666666667,4,1,0,5,0,0
24940,-66.6666666666667,4,1,0,50,0,0
24988,-66.6666666666667,4,1,0,5,0,0
25036,387.096774193548,4,1,0,50,1,0
25326,-100,4,1,0,5,0,0
25423,-40,4,1,0,50,0,0
25471,-40,4,1,0,5,0,0
25616,-40,4,1,0,50,0,0
25664,-40,4,1,0,5,0,0
25858,-40,4,1,0,50,0,0
26197,-66.6666666666667,4,1,0,50,0,0
26923,-66.6666666666667,4,1,0,5,0,0
26971,-66.6666666666667,4,1,0,50,0,0
27310,-66.6666666666667,4,1,0,5,0,0
27358,-66.6666666666667,4,1,0,50,0,0
27455,-66.6666666666667,4,1,0,5,0,0
27648,-66.6666666666667,4,1,0,50,0,0
27745,-66.6666666666667,4,1,0,5,0,0
27939,-40,4,1,0,50,0,0
28132,-66.6666666666667,4,1,0,50,0,0
28471,-66.6666666666667,4,1,0,5,0,0
28519,-66.6666666666667,4,1,0,50,0,0
29100,-66.6666666666667,4,1,0,5,0,0
29197,-57.1428571428571,4,1,0,50,0,0
29390,-57.1428571428571,4,1,0,5,0,0
29487,-50,4,1,0,50,0,0
29584,-50,4,1,0,5,0,0
29681,-100,4,1,0,50,0,0
29923,-100,4,1,0,5,0,0
29971,-100,4,1,0,50,0,0
30213,-100,4,1,0,5,0,0
30261,-66.6666666666667,4,1,0,50,0,0
30310,-66.6666666666667,4,1,0,5,0,0
30358,-66.6666666666667,4,1,0,50,0,0
30407,-66.6666666666667,4,1,0,5,0,0
30552,-66.6666666666667,4,1,0,50,0,0
30697,-66.6666666666667,4,1,0,5,0,0
30842,-100,4,1,0,50,0,0
31229,-66.6666666666667,4,1,0,50,0,0
31519,-66.6666666666667,4,1,0,5,0,0
31616,-66.6666666666667,4,1,0,50,0,0
31906,-66.6666666666667,4,1,0,5,0,0
32003,-66.6666666666667,4,1,0,50,0,0
32197,-66.6666666666667,4,1,0,5,0,0
32294,-66.6666666666667,4,1,0,50,0,0
32487,-66.6666666666667,4,1,0,5,0,0
32584,-50,4,1,0,50,0,0
32729,-66.6666666666667,4,1,0,5,0,0
32777,-66.6666666666667,4,1,0,50,0,0
32971,-100,4,1,0,50,0,0
34326,-66.6666666666667,4,1,0,50,0,0
34616,-66.6666666666667,4,1,0,5,0,0
34713,-66.6666666666667,4,1,0,50,0,0
35003,-66.6666666666667,4,1,0,5,0,0
35100,-66.6666666666667,4,1,0,50,0,0
35294,-66.6666666666667,4,1,0,5,0,0
35390,-66.6666666666667,4,1,0,50,0,0
35584,-66.6666666666667,4,1,0,5,0,0
35681,-66.6666666666667,4,1,0,50,0,0
36406,-66.6666666666667,4,1,0,5,0,0
36455,-66.6666666666667,4,1,0,50,0,0
38584,-66.6666666666667,4,1,0,5,0,0
38777,-66.6666666666667,4,1,0,50,0,0
40132,-66.6666666666667,4,1,0,5,0,0
40326,-66.6666666666667,4,1,0,50,0,0
41874,-66.6666666666667,4,1,0,5,0,0
42165,-200,4,1,0,50,0,0
42552,-200,4,1,0,5,0,0

[HitObjects]
157,92,139,6,0,B|235:118|235:118|316:134,1,165
157,92,526,2,0,B|235:118|235:118|316:134,1,165
387,211,913,2,0,B|340:183|340:183|314:130,1,110
329,261,1203,2,0,B|282:233|282:233|256:180,1,110
271,311,1493,2,0,B|224:283|224:283|198:230,1,110
107,146,1880,6,0,P|145:213|202:233,1,137.5
140,87,2171,2,0,P|146:164|189:206,1,137.5
195,48,2461,2,0,P|168:120|189:176,1,137.5
301,181,2751,2,0,P|284:144|256:115,1,82.5000031471254
325,156,3042,2,0,P|294:128|255:114,1,82.5000031471254
388,96,3235,6,0,P|411:167|330:243,1,165
388,96,3622,2,0,P|411:167|330:243,1,165
215,190,4009,2,0,L|186:296,1,110
154,131,4300,2,0,L|125:237,1,110
93,72,4590,2,0,L|64:178,1,110
236,108,4977,6,0,B|271:113|271:113|373:108,1,137.5
276,276,5268,2,0,B|241:271|241:271|139:276,1,137.5
258,105,5461,1,0,0:0:0:0:
258,105,5558,2,0,B|290:119|290:119|390:141,1,137.5
253,278,5751,1,0,0:0:0:0:
253,278,5848,2,0,B|221:264|221:264|121:242,1,137.5
361,241,6138,6,0,L|354:310,1,68.75
370,131,6332,6,0,L|359:252,1,110
150,232,6719,2,0,L|160:110,1,110
160,123,7106,6,0,L|150:232,1,110
240,296,7397,2,0,L|249:186,1,110
348,139,7687,2,0,L|339:249,1,110
95,174,8074,6,0,P|156:206|236:160,1,110
179,14,8268,6,0,L|160:122,1,110
160,122,8655,6,0,L|179:14,1,110
194,199,8848,6,0,P|140:203|95:174,1,110
82,90,9235,1,0,0:0:0:0:
398,31,9429,6,0,B|388:143|390:149,1,110
327,203,9816,2,0,B|317:315|319:321,1,110
193,204,10203,6,0,B|242:195|242:195|280:212|280:212|331:201,1,137.5
265,32,10493,2,0,B|314:23|314:23|352:40|352:40|403:29,1,137.5
229,118,10784,2,0,B|278:109|278:109|316:126|316:126|367:115,1,137.5
80,55,10977,5,0,0:0:0:0:
80,55,11606,5,0,0:0:0:0:
466,324,11800,1,0,0:0:0:0:
197,51,11993,1,0,0:0:0:0:
249,326,12187,1,0,0:0:0:0:
248,325,12622,6,0,P|358:301|338:190,1,247.500009441376
285,138,13015,2,0,B|170:204|170:204|210:150|190:95,1,247.500009441376
250,51,13408,2,0,P|176:23|120:77,1,165.000006294251
46,68,13703,2,0,P|78:140|156:141,1,165.000006294251
230,133,13999,2,0,P|218:181|182:210,1,82.5000031471254
125,227,14195,1,0,0:0:0:0:
433,144,14392,6,0,L|326:172,1,110
125,227,14589,1,0,0:0:0:0:
454,156,14785,6,0,L|335:177,1,110
109,217,14982,1,0,0:0:0:0:
92,206,15277,1,0,0:0:0:0:
92,206,15572,1,0,0:0:0:0:
92,118,15670,1,0,0:0:0:0:
168,162,15769,6,0,B|256:140|235:56|235:56|275:92|329:93,1,247.500009441376
386,46,16162,2,0,B|421:110|372:151|372:151|403:192|403:192|372:223|371:272,1,247.500009441376
318,315,16556,2,0,B|252:262|252:262|176:288,1,165.000006294251
123,340,16851,2,0,P|123:255|51:204,1,165.000006294251
31,140,17146,1,0,0:0:0:0:
329,93,17343,1,0,0:0:0:0:
70,44,17530,5,0,0:0:0:0:
393,239,17718,1,0,0:0:0:0:
141,0,17905,5,0,0:0:0:0:
351,313,18093,1,0,0:0:0:0:
212,44,18280,5,0,0:0:0:0:
172,325,18468,2,0,L|166:384,2,55
212,44,18843,6,0,B|192:100|276:128|300:68|300:68|339:106|401:109,1,247.500009441376
444,160,19230,2,0,B|430:212|388:237|388:237|347:202|300:224|300:224|322:285,1,247.500009441376
266,328,19617,2,0,B|181:314|181:314|234:251,1,165.000006294251
240,179,19907,2,0,B|205:159|172:182|172:182|147:140|147:140|155:97,1,165.000006294251
103,44,20197,2,0,B|144:8|199:33,1,82.5000031471254
232,79,20391,1,0,0:0:0:0:
102,304,20584,6,0,L|96:243,1,55,0|0,3:0|0:0,0:0:0:0:
414,249,20778,2,0,L|410:304,1,55,0|0,3:0|0:0,0:0:0:0:
59,126,20972,6,0,L|61:181,1,55,0|0,3:0|0:0,0:0:0:0:
462,184,21166,2,0,L|470:130,1,55,0|0,3:0|0:0,0:0:0:0:
369,30,21455,5,0,0:0:0:0:
337,109,21746,1,0,0:0:0:0:
305,188,21939,5,0,0:0:0:0:
172,84,22326,1,0,0:0:0:0:
149,252,22713,1,0,0:0:0:0:
161,168,23004,1,0,0:0:0:0:
82,199,23294,1,0,0:0:0:0:
82,199,24262,6,0,L|39:195,1,41.2500015735627
99,120,24359,2,0,L|71:86,1,41.2500015735627
167,76,24455,2,0,L|171:33,1,41.2500015735627
246,90,24552,2,0,L|279:62,1,41.2500015735627
293,156,24649,2,0,L|336:160,1,41.2500015735627
281,236,24746,2,0,L|308:269,1,41.2500015735627
217,285,24842,2,0,L|213:327,1,41.2500015735627
137,277,24939,2,0,L|103:304,1,41.2500015735627
82,199,25036,6,0,B|92:159|124:140|124:140|105:105|105:105|134:105|155:97,1,165
224,134,25423,2,0,P|233:101|228:68,1,68.75
9,169,25616,2,0,P|3:202|12:235,1,68.75
155,229,25858,1,0,0:0:0:0:
319,243,26197,2,0,L|155:229,1,165.000006294251
394,249,26584,6,0,B|482:255|482:255|451:234|441:195|441:195|474:175|473:132|447:103|411:106,1,288.750011014939
360,159,26971,2,0,B|328:125|331:81|361:49|361:49|296:67|296:67|221:72|221:72|234:48,1,288.750011014939
167,12,27358,2,0,L|121:95,1,82.5000031471254
87,156,27648,2,0,L|126:83,1,82.5000031471254
138,214,27939,2,0,L|102:277,1,68.75
147,243,28035,2,0,L|130:313,1,68.75
164,270,28132,6,0,B|165:353|165:353|183:313|212:298|212:298|239:308|239:308|284:291|297:248|275:209,1,288.750011014939
229,172,28519,1,0,0:0:0:0:
338,134,28616,1,0,0:0:0:0:
251,59,28713,1,0,0:0:0:0:
229,172,28906,2,0,P|241:239|317:294,1,165.000006294251
215,162,29197,2,0,P|230:245|324:314,1,192.500001835823
201,152,29487,2,0,P|212:239|252:297,1,110
221,258,29681,6,0,B|161:279|161:279|75:269,1,137.5
87,270,29971,2,0,B|147:249|147:249|233:259,1,137.5
299,225,30261,2,0,L|351:229,1,41.2500015735627
406,200,30358,2,0,L|353:195,1,41.2500015735627
340,164,30552,2,0,P|323:114|357:149,1,123.750004720688
357,131,30842,2,0,L|241:120,1,110
247,121,31229,6,0,B|271:89|259:54|234:36|200:40|176:58|170:93|170:93|119:100|119:100|93:107,1,247.500009441376
43,51,31616,2,0,B|18:78|7:118|26:154|58:174|58:174|47:191|47:191|95:185|122:220,1,247.500009441376
205,212,32003,2,0,P|181:280|85:294,1,165.000006294251
97,299,32294,2,0,P|121:231|217:217,1,165.000006294251
204,211,32584,2,0,P|264:235|242:173,1,165
187,115,32777,1,0,0:0:0:0:
447,233,32971,6,0,L|456:123,1,110
456,123,33552,1,0,0:0:0:0:
445,140,33842,1,0,0:0:0:0:
434,157,34132,1,0,0:0:0:0:
335,177,34229,1,0,0:0:0:0:
236,197,34326,6,0,P|166:226|208:119,1,247.500009441376
235,196,34713,2,0,P|288:110|187:114,1,247.500009441376
235,196,35100,2,0,L|317:354,1,165.000006294251
311,342,35390,2,0,L|235:196,1,165.000006294251
186,114,35681,1,0,0:0:0:0:
137,33,35874,5,0,0:0:0:0:
137,33,36261,2,0,P|96:82|95:141,1,123.750004720688
113,177,36455,2,0,P|92:99|153:23,1,165.000006294251
296,122,36842,2,0,L|173:111,1,123.750004720688
256,192,37132,12,0,38584,0:0:0:0:
256,192,38777,12,0,40132,0:0:0:0:
256,192,40326,12,0,41874,0:0:0:0:
256,192,42165,6,0,P|272:159|256:192,1,110
