osu file format v14

[General]
AudioFilename: audio.mp3
AudioLeadIn: 0
PreviewTime:1937
Countdown: 0
SampleSet: Soft
StackLeniency: 0.5
Mode: 0
LetterboxInBreaks: 0
WidescreenStoryboard: 1

[Editor]
DistanceSpacing: 0.8
BeatDivisor: 4
GridSize: 4
TimelineZoom: 0.5999999

[Metadata]
Title:DECADE OF POP
TitleUnicode:DECADE OF POP
Artist:DJ Earworm
ArtistUnicode:DJ Earworm
Creator:Leader
Version:Normal
Source:
Tags:schoolboy Komore English Pop Mashup Adele Ariana Grande Avicii B.o.B. Hayley Williams Bastille Billie Eilish Bruno Mars Calvin Harris Rihanna Camila Cabello Young Thug Cardi Bad Bunny Balvin Carly Rae Jepsen CeeLo Green Chainsmokers Coldplay Clean Bandit Jess Glynne Daft Punk Pharrell David Guetta Sia Designer DJ Snake Lilon Drake WizKid Kyla Dua Lipa Ed Sheeran Ellie Goulding Flo Rida French Montana Swae Lee Fun Janelle Monae Gotye Kimbra Halsey Iggy Azalea Charli XCX Imagine Dragons DeRulo Nicki Minaj Jessie John Legend Juice WRLD Justin Bieber Timberlake Katy Perry Ke$ha Kesha Kelly Clarkson Kendrick Lamar Lil Nas Billy Ray Cyrus Lizzo LMFAO Lorde Macklemore Ryan Lewis MAGIC! Major Lazer Mark Ronson Maroon 5 Christina Aguilera Marshmello Meghan Trainor Mike Posner Miley One Direction Republic Panic At The Disco Pink Pitbull Post Malone 21 Savage Sam Smith Shawn Mendes Taio Cruz Taylor Swift Lumineers Weeknd Train Twenty Pilots Usher will.i.am Walk Moon Charlie Puth Zedd
BeatmapID:2251576
BeatmapSetID:1075546

[Difficulty]
HPDrainRate:4
CircleSize:4
OverallDifficulty:5
ApproachRate:6
SliderMultiplier:1.2
SliderTickRate:1

[Events]
//Background and Video events
0,0,"gregory-wong-woong-ming-LhymUiV3LxI-unsplash.jpg"
Video,0,"ED_no_audio.mp4"
//Break Periods
2,53565,59934
2,129756,136125
//Storyboard Layer 0 (Background)
//Storyboard Layer 1 (Fail)
//Storyboard Layer 2 (Pass)
//Storyboard Layer 3 (Foreground)
//Storyboard Layer 4 (Overlay)
//Storyboard Sound Samples

[TimingPoints]
1937,476.190476190476,4,2,10,60,1,0
15746,-100,4,2,10,40,0,0
17175,-100,4,2,10,60,0,0
40032,-100,4,2,10,60,0,1
53365,-100,4,2,10,60,0,0
66698,-100,4,2,10,50,0,0
67532,-100,4,2,10,40,0,0
68603,-100,4,2,0,50,0,0
83841,-100,4,2,10,60,0,0
144794,-83.3333333333333,4,2,10,60,0,1
159079,-100,4,2,10,60,0,0
160032,-83.3333333333333,4,2,10,60,0,1
173365,-100,4,2,10,60,0,0
173841,-100,4,2,10,50,0,0
174317,-100,4,2,10,40,0,0
174794,-100,4,2,10,30,0,0
174913,-100,4,2,10,20,0,0
175032,-100,4,2,10,10,0,0
175151,-100,4,2,10,5,0,0

[Colours]
Combo1 : 17,254,176
Combo2 : 173,255,95
Combo3 : 255,88,100
Combo4 : 255,94,55

[HitObjects]
38,283,1937,6,0,P|95:278|157:301,1,120,4|2,0:0|0:0,0:0:0:0:
232,353,2889,2,0,L|303:345,1,60,2|0,0:0|0:0,0:0:0:0:
318,306,3365,2,0,L|377:312,1,60,2|0,0:0|0:0,0:0:0:0:
419,335,3841,2,0,P|433:279|421:199,1,120,2|2,0:0|0:0,0:0:0:0:
358,150,4794,1,2,0:0:0:0:
294,221,5270,2,0,L|222:229,1,60,2|0,0:0|0:0,0:0:0:0:
186,234,5746,5,2,0:0:0:0:
145,207,5984,2,0,L|82:197,2,60,2|2|0,0:0|0:0|0:0,0:0:0:0:
183,177,6698,1,2,0:0:0:0:
255,113,7175,1,2,0:0:0:0:
326,177,7651,2,0,P|370:176|441:204,1,120,2|2,3:2|3:2,0:0:0:0:
421,297,8603,2,0,P|377:298|306:270,1,120,2|2,3:2|3:2,0:0:0:0:
222,224,9556,5,2,3:2:0:0:
170,305,10032,1,8,0:0:0:0:
92,247,10508,1,2,3:2:0:0:
97,199,10746,1,0,0:0:0:0:
105,151,10984,2,0,P|138:143|174:142,1,60,8|2,0:0|3:2,0:0:0:0:
211,148,11460,5,2,3:2:0:0:
303,121,11936,1,8,0:0:0:0:
376,51,12413,2,0,P|388:80|399:125,1,60,2|0,3:2|0:0,0:0:0:0:
404,154,12889,1,8,0:0:0:0:
420,199,13127,1,0,0:0:0:0:
426,246,13365,6,0,L|417:371,1,120,2|8,3:2|0:0,0:0:0:0:
326,327,14317,2,0,B|269:315|269:357|189:338,1,120,2|8,3:2|0:0,0:0:0:0:
124,307,15270,2,0,L|113:175,2,120,2|0|0,3:2|0:0|0:0,0:0:0:0:
212,345,16698,1,8,3:0:0:0:
288,286,17175,6,0,P|284:238|274:199,1,60,6|2,1:2|0:0,0:0:0:0:
270,179,17651,2,0,L|199:167,1,60,2|2,1:2|0:0,0:0:0:0:
163,164,18127,2,0,P|151:114|185:31,1,120,2|2,1:2|1:2,0:0:0:0:
260,82,19079,1,2,1:2:0:0:
304,100,19317,2,0,L|374:95,2,60,2|2|2,0:0|1:2|0:0,0:0:0:0:
273,137,20032,2,0,P|268:192|289:267,1,120,2|0,1:2|1:2,0:0:0:0:
336,334,20984,6,0,L|460:342,1,120,2|0,1:2|0:0,0:0:0:0:
503,345,21698,1,2,0:0:0:0:
482,301,21936,2,0,P|469:226|483:166,1,120,2|0,1:2|0:0,0:0:0:0:
425,101,22889,2,0,P|389:112|301:66,1,120,2|0,1:2|1:0,0:0:0:0:
281,50,23603,1,2,0:0:0:0:
279,97,23841,2,0,L|276:238,1,120,2|2,1:2|1:2,0:0:0:0:
271,313,24794,5,2,1:2:0:0:
194,371,25270,1,2,1:2:0:0:
135,294,25746,1,0,1:2:0:0:
209,233,26222,1,0,1:2:0:0:
122,190,26698,2,0,P|113:152|106:113,2,60,2|0|2,1:2|0:0|1:2,0:0:0:0:
139,234,27413,1,0,0:0:0:0:
161,276,27651,1,2,1:2:0:0:
248,236,28127,2,0,P|263:285|264:306,1,60,2|0,1:2|0:0,0:0:0:0:
285,336,28603,6,0,L|422:348,1,120,2|2,1:2|1:2,0:0:0:0:
472,278,29556,2,0,P|480:247|480:201,2,60,2|2|2,1:2|0:0|1:2,0:0:0:0:
394,220,30508,1,2,1:2:0:0:
309,174,30984,2,0,L|302:112,1,60,2|0,1:2|0:0,0:0:0:0:
298,66,31460,1,2,1:2:0:0:
211,108,31936,1,2,1:2:0:0:
136,47,32413,6,0,P|121:96|152:178,1,120,2|2,1:2|1:2,0:0:0:0:
145,256,33365,2,0,L|206:269,1,60,2|2,1:2|0:0,0:0:0:0:
230,308,33841,2,0,L|294:298,1,60,2|0,1:2|0:0,0:0:0:0:
336,290,34317,2,0,L|346:153,1,120,2|2,1:2|1:2,0:0:0:0:
356,74,35270,1,2,1:2:0:0:
269,114,35746,1,2,1:2:0:0:
190,59,36222,6,0,P|180:90|200:191,1,120,2|2,1:2|1:2,0:0:0:0:
213,268,37175,1,2,1:2:0:0:
284,204,37651,1,2,1:2:0:0:
311,296,38127,6,0,L|372:305,1,60,6|0,1:2|1:2,0:0:0:0:
404,338,38603,2,0,L|468:328,1,60,6|0,1:2|1:2,0:0:0:0:
486,286,39079,2,0,L|494:150,1,120,2|2,1:2|0:1,0:0:0:0:
472,72,40032,6,0,P|416:68|374:111,1,120,4|6,0:0|0:0,0:0:0:0:
332,197,40984,2,0,P|273:200|233:157,1,120,6|6,0:0|0:0,0:0:0:0:
213,64,41936,1,6,0:0:0:0:
117,50,42413,1,6,0:0:0:0:
101,144,42889,1,6,0:0:0:0:
192,173,43365,1,4,0:0:0:0:
205,220,43603,1,0,0:0:0:0:
221,265,43841,6,0,L|355:279,1,120,6|4,0:0|0:0,0:0:0:0:
414,335,44794,2,0,P|428:292|411:214,1,120,6|6,0:0|0:0,0:0:0:0:
389,178,45508,1,0,0:0:0:0:
365,136,45746,1,4,0:0:0:0:
288,193,46222,1,4,0:0:0:0:
238,115,46698,1,4,0:0:0:0:
313,55,47175,1,4,0:0:0:0:
221,25,47651,6,0,P|180:32|150:114,1,120,4|4,0:0|0:0,0:0:0:0:
158,191,48603,1,4,0:0:0:0:
113,210,48841,1,0,0:0:0:0:
69,228,49079,1,4,0:0:0:0:
146,285,49556,2,0,L|282:303,1,120,12|0,0:0|0:0,0:0:0:0:
302,270,50270,2,0,P|349:264|411:320,1,120,12|0,0:0|0:0,0:0:0:0:
431,345,50984,1,12,0:0:0:0:
491,270,51460,6,0,L|497:132,1,120,8|0,0:0|0:0,0:0:0:0:
473,102,52175,2,0,P|413:103|362:48,1,120,8|0,0:0|0:0,0:0:0:0:
344,24,52889,1,8,0:0:0:0:
256,189,53365,5,6,1:2:0:0:
356,348,60984,6,0,L|466:342,2,90,2|0|0,1:2|0:0|0:0,0:0:0:0:
312,327,61936,2,0,L|202:321,2,90,2|0|2,1:2|0:0|0:0,0:0:0:0:
348,295,62889,2,0,P|373:241|325:57,1,240,2|0,1:2|1:0,0:0:0:0:
168,163,64794,6,0,L|73:152,2,90,2|2|2,1:2|0:0|1:2,0:0:0:0:
205,192,65746,2,0,L|300:181,2,90,2|0|0,1:2|1:2|1:2,0:0:0:0:
172,227,66698,2,0,P|203:324|349:334,1,240,2|0,1:2|0:0,0:0:0:0:
447,196,68603,5,6,1:2:0:0:
413,162,68841,2,0,L|354:155,2,60,2|2|0,0:0|0:0|0:0,0:0:0:0:
447,128,69556,1,2,0:2:0:0:
377,61,70032,1,2,1:2:0:0:
288,98,70508,5,2,0:0:0:0:
245,76,70746,2,0,L|240:15,2,60,2|2|2,0:0|0:0|0:0,0:0:0:0:
223,118,71460,2,0,P|177:130|102:98,1,120,2|2,1:2|0:0,0:0:0:0:
72,194,72413,5,2,1:2:0:0:
109,223,72651,2,0,L|170:215,2,60,2|2|2,0:0|0:0|0:0,0:0:0:0:
63,239,73365,1,2,0:0:0:0:
112,321,73841,1,2,0:0:0:0:
204,296,74317,5,2,0:0:0:0:
244,321,74556,2,0,L|319:329,2,60,2|2|0,0:0|0:0|0:0,0:0:0:0:
204,348,75270,2,0,L|85:358,1,120,2|2,1:2|0:0,0:0:0:0:
76,262,76222,6,0,P|88:207|71:137,1,120,2|2,0:0|0:0,0:0:0:0:
59,110,76936,2,0,L|-6:101,2,60,0|2|0,0:0|0:0|0:0,0:0:0:0:
99,83,77651,1,2,1:2:0:0:
185,41,78127,5,2,0:0:0:0:
226,64,78365,2,0,L|221:125,2,60,2|2|2,0:0|0:0|0:0,0:0:0:0:
265,36,79079,1,2,0:0:0:0:
345,89,79556,1,2,0:0:0:0:
421,31,80032,6,0,P|441:72|431:150,1,120,2|2,1:2|0:0,0:0:0:0:
417,189,80746,1,0,0:0:0:0:
394,231,80984,2,0,L|262:246,1,120,2|0,1:2|0:0,0:0:0:0:
258,339,81936,6,0,L|132:323,1,120,2|2,1:2|0:0,0:0:0:0:
104,289,82651,2,0,P|89:245|110:159,1,120,2|2,1:2|1:2,0:0:0:0:
143,151,83365,2,0,L|216:141,1,60,2|2,1:2|1:2,0:0:0:0:
250,136,83841,5,6,1:2:0:0:
342,153,84317,2,0,P|397:155|461:122,2,120,10|2|10,0:0|1:2|0:0,0:0:0:0:
257,198,85746,2,0,L|250:328,1,120,0|10,1:2|0:0,0:0:0:0:
247,365,86460,1,0,0:0:0:0:
214,329,86698,2,0,P|173:317|91:354,1,120,2|10,1:2|0:0,0:0:0:0:
54,258,87651,5,6,1:2:0:0:
91,227,87889,2,0,L|163:222,2,60,2|10|2,0:0|0:0|0:0,0:0:0:0:
50,201,88603,1,2,1:2:0:0:
106,123,89079,1,10,0:0:0:0:
197,153,89556,6,0,P|249:162|321:120,1,120,2|10,1:2|0:0,0:0:0:0:
351,113,90270,2,0,L|342:245,1,120,0|2,0:0|0:0,0:0:0:0:
338,280,90984,1,10,0:0:0:0:
261,221,91460,6,0,L|253:148,2,60,6|0|10,1:2|0:0|0:0,0:0:0:0:
230,258,92175,2,0,B|198:261|198:261|166:296|166:296|124:301,1,120,2|2,0:0|0:0,0:0:0:0:
78,308,92889,1,10,0:0:0:0:
131,228,93365,1,2,1:2:0:0:
102,189,93603,2,0,P|93:160|89:123,2,60,2|10|2,0:0|0:0|0:0,0:0:0:0:
148,201,94317,1,2,1:2:0:0:
225,143,94794,1,10,0:0:0:0:
294,209,95270,6,0,P|388:218|435:89,1,240,2|2,1:2|1:2,0:0:0:0:
372,30,96698,1,10,0:0:0:0:
356,124,97175,5,2,1:2:0:0:
313,102,97413,1,2,1:2:0:0:
270,79,97651,1,2,1:2:0:0:
265,174,98127,2,0,L|199:181,1,60,2|2,1:2|1:2,0:0:0:0:
199,227,98603,2,0,L|115:218,1,60,2|2,0:3|0:3,0:0:0:0:
91,213,99079,5,4,1:2:0:0:
137,128,99556,2,0,P|131:94|123:58,1,60,10|2,0:0|0:0,0:0:0:0:
109,23,100032,2,0,L|245:33,1,120,2|10,1:2|0:0,0:0:0:0:
324,24,100984,5,2,1:2:0:0:
308,69,101222,2,0,P|299:120|316:201,1,120
320,233,101936,1,2,1:2:0:0:
348,324,102413,1,10,0:0:0:0:
252,324,102889,6,0,P|189:328|122:365,1,120,2|10,1:2|0:0,0:0:0:0:
96,375,103603,1,0,0:0:0:0:
71,333,103841,2,0,L|64:192,1,120,2|10,1:2|0:0,0:0:0:0:
37,121,104794,5,2,1:2:0:0:
123,161,105270,1,10,0:0:0:0:
170,162,105508,1,2,0:0:0:0:
212,140,105746,1,2,1:2:0:0:
291,193,106222,2,0,P|303:232|308:265,1,60,10|0,0:0|0:0,0:0:0:0:
328,293,106698,6,0,L|459:299,1,120,2|10,1:2|0:0,0:0:0:0:
459,251,107413,2,0,P|450:206|463:109,1,120,2|0,0:0|0:0,0:0:0:0:
475,89,108127,1,10,0:0:0:0:
391,59,108603,5,2,1:2:0:0:
351,85,108841,1,2,0:0:0:0:
303,83,109079,1,10,0:0:0:0:
214,45,109556,1,2,1:2:0:0:
230,139,110032,1,10,0:0:0:0:
256,192,110508,12,2,112413,1:2:0:0:
93,344,114317,5,6,1:2:0:0:
162,277,114794,1,10,0:0:0:0:
143,232,115032,2,0,P|134:183|149:109,1,120,2|0,0:0|0:0,0:0:0:0:
168,72,115746,1,10,0:0:0:0:
250,121,116222,5,2,1:2:0:0:
274,79,116460,2,0,L|267:11,2,60,2|10|2,0:0|0:0|0:0,0:0:0:0:
310,110,117175,1,2,1:2:0:0:
394,63,117651,1,0,0:0:0:0:
384,159,118127,6,0,P|378:206|393:286,1,120,2|10,1:2|0:0,0:0:0:0:
406,322,118841,1,0,0:0:0:0:
422,367,119079,2,0,L|298:377,1,120,2|10,1:2|0:0,0:0:0:0:
209,352,120032,5,2,1:2:0:0:
177,339,120270,2,0,L|170:271,1,60,2|10,0:0|0:0,0:0:0:0:
205,245,120746,2,0,L|212:179,1,60,0|2,0:0|1:2,0:0:0:0:
118,210,121460,1,10,0:2:0:0:
45,168,121936,6,0,P|34:118|47:47,1,120,6|8,1:2|0:0,0:0:0:0:
69,9,122651,1,2,0:0:0:0:
139,74,123127,1,0,0:0:0:0:
184,57,123365,1,10,0:0:0:0:
228,39,123603,6,0,L|365:53,1,120,2|2,0:0|0:0,0:0:0:0:
394,58,124317,1,10,0:0:0:0:
441,67,124556,1,0,0:0:0:0:
487,80,124794,2,0,P|502:138|491:208,1,120,2|10,1:2|0:0,0:0:0:0:
442,277,125746,5,0,1:0:0:0:
353,239,126222,1,10,0:0:0:0:
314,268,126460,1,0,0:0:0:0:
266,267,126698,1,0,0:0:0:0:
279,171,127175,1,10,0:0:0:0:
256,192,127651,12,4,129556,0:0:0:0:
297,351,137175,6,0,L|432:362,1,120,8|8,0:0|0:0,0:0:0:0:
484,293,138127,2,0,P|496:225|480:153,1,120,8|8,0:0|0:0,0:0:0:0:
447,88,139079,2,0,L|320:79,1,120,8|8,0:0|0:0,0:0:0:0:
247,133,140032,2,0,P|235:201|251:273,1,120,8|8,0:0|0:0,0:0:0:0:
282,337,140984,5,8,0:0:0:0:
346,266,141460,1,8,0:0:0:0:
417,329,141936,1,8,0:0:0:0:
482,258,142413,1,8,0:0:0:0:
406,198,142889,2,0,P|397:147|404:62,2,120,8|8|8,0:0|0:0|0:0,0:0:0:0:
293,353,144794,5,6,1:2:0:0:
179,333,145270,1,10,0:0:0:0:
121,327,145508,1,2,0:0:0:0:
74,361,145746,1,0,1:2:0:0:
35,252,146222,1,10,0:0:0:0:
134,193,146698,2,0,P|158:146|115:58,1,143.999995605469,6|10,1:2|0:0,0:0:0:0:
79,31,147413,2,0,L|234:29,1,143.999995605469,2|0,0:0|0:0,0:0:0:0:
280,26,148127,1,10,0:0:0:0:
374,92,148603,6,0,P|393:142|374:251,1,143.999995605469,6|10,1:2|0:0,0:0:0:0:
366,285,149317,1,0,0:0:0:0:
342,337,149556,2,0,L|193:350,1,143.999995605469,2|10,1:2|0:0,0:0:0:0:
118,266,150508,1,2,1:2:0:0:
69,252,150746,2,0,L|-14:238,2,71.9999978027344,0|10|0,0:0|0:0|0:0,0:0:0:0:
114,216,151460,2,0,P|128:151|107:73,1,143.999995605469,2|10,1:2|0:0,0:0:0:0:
209,20,152413,5,6,1:2:0:0:
311,72,152889,2,0,P|345:69|389:57,1,71.9999978027344,10|2,0:0|0:0,0:0:0:0:
434,36,153365,1,0,1:0:0:0:
489,21,153603,2,0,L|485:109,1,71.9999978027344,2|8,0:0|0:0,0:0:0:0:
480,207,154317,2,0,P|472:265|384:281,1,143.999995605469,6|10,1:2|0:0,0:0:0:0:
342,274,155032,1,2,0:0:0:0:
291,301,155270,2,0,L|137:314,1,143.999995605469,2|10,1:2|0:0,0:0:0:0:
65,232,156222,5,6,1:2:0:0:
69,174,156460,1,0,0:0:0:0:
78,117,156698,1,10,0:0:0:0:
126,24,157175,1,0,1:2:0:0:
203,100,157651,1,10,0:0:0:0:
237,146,157889,1,2,0:0:0:0:
293,157,158127,1,2,0:0:0:0:
455,54,159079,6,0,L|374:64,1,60,2|2,0:3|0:3,0:0:0:0:
367,100,159556,2,0,L|299:92,1,60,2|2,0:3|0:3,0:0:0:0:
250,86,160032,5,4,0:0:0:0:
136,64,160508,2,0,P|138:113|146:155,1,71.9999978027344,8|0,0:0|0:0,0:0:0:0:
154,191,160984,1,0,1:0:0:0:
179,242,161222,2,0,L|265:259,1,71.9999978027344,0|8,0:0|0:0,0:0:0:0:
339,168,161936,1,2,0:0:0:0:
424,245,162413,1,8,0:0:0:0:
436,301,162651,1,2,0:0:0:0:
426,357,162889,1,0,1:0:0:0:
330,291,163365,1,8,0:0:0:0:
240,363,163841,6,0,L|93:375,1,143.999995605469,2|8,1:0|0:0,0:0:0:0:
48,342,164556,1,0,0:0:0:0:
19,292,164794,2,0,P|4:232|25:140,1,143.999995605469,2|8,1:0|0:0,0:0:0:0:
93,64,165746,1,0,0:0:0:0:
164,154,166222,1,8,0:0:0:0:
277,105,166698,6,0,L|269:177,1,71.9999978027344,2|2,1:0|0:0,0:0:0:0:
265,234,167175,2,0,L|274:318,1,71.9999978027344,2|2,1:0|0:0,0:0:0:0:
308,350,167651,6,0,L|466:360,1,143.999995605469,4|8,0:0|0:0,0:0:0:0:
444,244,168603,2,0,P|436:201|436:160,1,71.9999978027344,0|0,1:0|0:0,0:0:0:0:
449,117,169079,1,8,0:0:0:0:
341,159,169556,1,0,1:0:0:0:
304,114,169794,2,0,L|295:36,2,71.9999978027344,0|8|0,0:0|0:0|0:0,0:0:0:0:
286,168,170508,1,0,1:0:0:0:
205,85,170984,1,8,0:0:0:0:
189,199,171460,6,0,P|198:271|184:364,1,143.999995605469,2|8,1:0|0:0,0:0:0:0:
134,356,172175,1,0,0:0:0:0:
76,362,172413,1,2,1:0:0:0:
48,250,172889,1,8,0:0:0:0:
56,193,173127,1,2,1:0:0:0:
65,145,173365,5,8,0:0:0:0:
256,192,173484,12,0,175151,0:0:0:0:
