osu file format v14

[General]
AudioFilename: audio.mp3
AudioLeadIn: 0
PreviewTime:1937
Countdown: 0
SampleSet: Soft
StackLeniency: 0.5
Mode: 0
LetterboxInBreaks: 0
WidescreenStoryboard: 1

[Editor]
DistanceSpacing: 1.2
BeatDivisor: 4
GridSize: 4
TimelineZoom: 1.8

[Metadata]
Title:DECADE OF POP
TitleUnicode:DECADE OF POP
Artist:DJ Earworm
ArtistUnicode:DJ Earworm
Creator:Leader
Version:Hard
Source:
Tags:schoolboy Komore English Pop Mashup Adele Ariana Grande Avicii B.o.B. Hayley Williams Bastille Billie Eilish Bruno Mars Calvin Harris Rihanna Camila Cabello Young Thug Cardi Bad Bunny Balvin Carly Rae Jepsen CeeLo Green Chainsmokers Coldplay Clean Bandit Jess Glynne Daft Punk Pharrell David Guetta Sia Designer DJ Snake Lilon Drake WizKid Kyla Dua Lipa Ed Sheeran Ellie Goulding Flo Rida French Montana Swae Lee Fun Janelle Monae Gotye Kimbra Halsey Iggy Azalea Charli XCX Imagine Dragons DeRulo Nicki Minaj Jessie John Legend Juice WRLD Justin Bieber Timberlake Katy Perry Ke$ha Kesha Kelly Clarkson Kendrick Lamar Lil Nas Billy Ray Cyrus Lizzo LMFAO Lorde Macklemore Ryan Lewis MAGIC! Major Lazer Mark Ronson Maroon 5 Christina Aguilera Marshmello Meghan Trainor Mike Posner Miley One Direction Republic Panic At The Disco Pink Pitbull Post Malone 21 Savage Sam Smith Shawn Mendes Taio Cruz Taylor Swift Lumineers Weeknd Train Twenty Pilots Usher will.i.am Walk Moon Charlie Puth Zedd
BeatmapID:2250532
BeatmapSetID:1075546

[Difficulty]
HPDrainRate:6
CircleSize:4
OverallDifficulty:7
ApproachRate:8
SliderMultiplier:1.4
SliderTickRate:1

[Events]
//Background and Video events
0,0,"gregory-wong-woong-ming-LhymUiV3LxI-unsplash.jpg"
Video,0,"ED_no_audio.mp4"
//Break Periods
2,127851,128806
//Storyboard Layer 0 (Background)
//Storyboard Layer 1 (Fail)
//Storyboard Layer 2 (Pass)
//Storyboard Layer 3 (Foreground)
//Storyboard Layer 4 (Overlay)
//Storyboard Sound Samples

[TimingPoints]
1937,476.190476190476,4,2,10,60,1,0
15746,-100,4,2,10,40,0,0
16222,-100,4,2,10,40,0,0
16698,-100,4,2,10,40,0,0
17175,-100,4,2,10,60,0,0
40032,-100,4,2,10,60,0,1
53365,-100,4,2,10,60,0,0
66698,-100,4,2,10,50,0,0
67532,-100,4,2,10,40,0,0
68603,-100,4,2,0,50,0,0
83841,-100,4,2,10,60,0,0
144794,-100,4,2,10,60,0,1
159079,-100,4,2,10,60,0,0
160032,-83.3333333333333,4,2,10,60,0,1
173365,-100,4,2,10,60,0,0
173841,-100,4,2,10,50,0,0
174317,-100,4,2,10,40,0,0
174794,-100,4,2,10,30,0,0
174913,-100,4,2,10,20,0,0
175032,-100,4,2,10,10,0,0
175151,-100,4,2,10,5,0,0

[Colours]
Combo1 : 17,254,176
Combo2 : 173,255,95
Combo3 : 255,88,100
Combo4 : 255,94,55

[HitObjects]
61,191,1937,6,0,P|70:227|75:266,1,70,4|0,0:0|0:0,0:0:0:0:
105,337,2413,2,0,L|176:343,1,70,2|0,0:0|0:0,0:0:0:0:
253,312,2889,1,2,0:0:0:0:
253,312,3127,1,0,0:0:0:0:
322,359,3365,1,2,0:0:0:0:
322,359,3603,1,0,0:0:0:0:
384,302,3841,6,0,P|394:252|374:159,1,140,2|2,0:0|0:0,0:0:0:0:
310,114,4556,1,0,0:0:0:0:
310,114,4794,2,0,L|154:98,1,140,2|2,0:0|0:0,0:0:0:0:
103,49,5508,1,0,0:0:0:0:
103,49,5746,1,2,0:0:0:0:
54,117,5984,5,2,0:0:0:0:
124,162,6222,2,0,P|133:203|124:252,1,70,2|0,0:0|0:0,0:0:0:0:
112,312,6698,2,0,L|186:326,1,70,2|0,0:0|0:0,0:0:0:0:
256,362,7175,2,0,L|329:353,1,70,2|0,0:0|0:0,0:0:0:0:
391,301,7651,6,0,L|401:151,1,140,2|2,3:2|3:2,0:0:0:0:
408,77,8365,1,0,0:0:0:0:
336,121,8603,2,0,P|286:131|194:78,1,140,2|2,3:2|3:2,0:0:0:0:
150,33,9317,1,0,0:0:0:0:
92,94,9556,5,2,3:2:0:0:
35,252,10032,1,8,0:0:0:0:
119,345,10389,1,0,0:0:0:0:
119,345,10508,2,0,L|108:257,2,70,2|0|8,3:2|0:0|0:0,0:0:0:0:
198,371,11222,1,2,3:2:0:0:
272,331,11460,6,0,B|337:317|338:369|430:343,1,140,2|8,3:2|0:0,0:0:0:0:
485,313,12175,1,0,0:0:0:0:
414,267,12413,1,2,3:2:0:0:
472,206,12651,1,0,0:0:0:0:
472,206,12770,1,0,0:0:0:0:
472,206,12889,1,8,0:0:0:0:
414,267,13127,1,0,0:0:0:0:
335,236,13365,6,0,P|318:190|333:95,1,140,2|8,3:2|0:0,0:0:0:0:
403,62,14079,1,0,0:0:0:0:
403,62,14317,2,0,L|486:52,2,70,2|0|8,3:2|0:0|0:0,0:0:0:0:
319,72,15032,1,0,0:0:0:0:
256,192,15270,12,8,16698,3:0:0:0:
86,83,17175,5,6,1:2:0:0:
132,152,17413,1,2,0:0:0:0:
132,152,17532,1,0,0:0:0:0:
132,152,17651,2,0,L|137:229,1,70,2|2,1:2|0:0,0:0:0:0:
148,304,18127,2,0,P|198:315|227:326,1,70,2|0,1:2|0:0,0:0:0:0:
288,363,18603,1,2,1:2:0:0:
288,363,19079,5,2,1:2:0:0:
354,311,19317,1,2,0:0:0:0:
354,311,19436,1,2,0:0:0:0:
354,311,19556,2,0,L|430:307,1,70,2|2,1:2|0:0,0:0:0:0:
476,242,20032,2,0,P|492:180|446:86,1,140,2|0,1:2|1:2,0:0:0:0:
412,171,20746,1,2,0:0:0:0:
412,171,20984,6,0,P|376:183|340:208,1,70,2|0,1:2|0:0,0:0:0:0:
313,222,21341,2,0,L|219:227,1,70,2|0,1:2|0:0,0:0:0:0:
201,227,21698,1,2,0:0:0:0:
238,152,21936,2,0,P|250:105|226:39,1,105,2|2,1:2|1:2,0:0:0:0:
235,51,22413,2,0,L|142:44,1,70
86,30,22889,5,2,1:2:0:0:
86,30,23127,1,2,0:0:0:0:
52,108,23365,1,0,1:0:0:0:
52,108,23603,1,2,0:0:0:0:
107,177,23841,1,2,1:2:0:0:
107,177,24079,1,2,0:0:0:0:
83,260,24317,1,2,1:2:0:0:
83,260,24556,1,2,0:0:0:0:
120,335,24794,6,0,L|194:343,1,70,2|0,1:2|0:0,0:0:0:0:
258,270,25270,2,0,L|189:264,1,70,2|0,1:2|0:0,0:0:0:0:
279,356,25746,2,0,L|353:364,1,70,0|0,1:2|0:0,0:0:0:0:
415,285,26222,2,0,L|345:278,1,70,0|2,1:2|0:0,0:0:0:0:
290,214,26698,6,0,P|285:178|287:135,1,70,2|0,1:2|0:0,0:0:0:0:
362,110,27175,2,0,P|367:146|365:189,1,70,2|0,1:2|0:0,0:0:0:0:
351,262,27651,1,2,1:2:0:0:
294,323,27889,1,2,0:0:0:0:
294,323,28008,1,2,0:0:0:0:
294,323,28127,2,0,L|203:336,1,70,2|0,1:2|0:0,0:0:0:0:
144,308,28603,6,0,P|137:268|122:220,1,70,2|0,1:2|0:0,0:0:0:0:
66,183,29079,2,0,L|57:107,1,70,2|0,1:2|0:0,0:0:0:0:
147,64,29556,2,0,L|139:134,1,70,2|2,1:2|0:0,0:0:0:0:
139,133,30032,1,2,1:2:0:0:
224,96,30270,1,2,0:0:0:0:
303,69,30508,6,0,P|349:60|426:124,1,140,2|2,1:2|1:2,0:0:0:0:
451,188,31222,1,0,0:0:0:0:
383,238,31460,2,0,P|337:247|260:183,1,140,2|2,1:2|1:2,0:0:0:0:
226,121,32175,1,2,0:0:0:0:
180,191,32413,6,0,L|177:271,1,70,2|0,1:2|0:0,0:0:0:0:
96,158,32889,2,0,L|93:88,1,70,2|0,1:2|0:0,0:0:0:0:
35,226,33365,1,2,1:2:0:0:
35,226,33603,1,2,0:0:0:0:
103,291,33841,1,2,1:2:0:0:
103,291,34317,6,0,P|151:291|234:349,1,140,2|2,1:2|1:2,0:0:0:0:
300,380,35032,1,2,0:0:0:0:
371,336,35270,2,0,L|510:326,1,140,2|2,1:2|1:2,0:0:0:0:
470,162,36222,5,2,1:2:0:0:
387,177,36460,1,2,1:2:0:0:
412,97,36698,1,2,1:2:0:0:
387,177,36936,1,2,1:2:0:0:
320,124,37175,1,2,1:2:0:0:
309,207,37413,1,2,1:2:0:0:
236,163,37651,1,2,1:2:0:0:
232,246,37889,1,2,1:2:0:0:
158,205,38127,6,0,P|137:203|115:202,3,35,6|0|0|0,1:2|1:2|1:2|0:0,0:0:0:0:
121,244,38603,2,0,P|100:246|78:247,3,35,6|0|0|0,1:2|1:2|1:2|0:0,0:0:0:0:
88,204,39079,2,0,P|67:202|45:201,3,35,2|2|2|2,1:2|1:2|1:2|1:2,0:0:0:0:
17,223,39556,5,2,0:1:0:0:
133,344,40032,6,0,L|204:353,1,70,4|0,0:0|0:0,0:0:0:0:
252,285,40508,2,0,L|181:276,1,70,6|0,0:0|0:0,0:0:0:0:
284,364,40984,2,0,L|355:373,1,70,6|0,0:0|0:0,0:0:0:0:
403,305,41460,2,0,L|332:296,1,70,6|0,0:0|0:0,0:0:0:0:
214,237,41936,6,0,L|285:228,1,70,6|0,0:0|0:0,0:0:0:0:
333,296,42412,2,0,L|262:305,1,70,6|0,0:0|0:0,0:0:0:0:
365,217,42888,2,0,L|436:208,1,70,6|0,0:0|0:0,0:0:0:0:
484,276,43364,2,0,L|413:285,1,70,4|0,0:0|0:0,0:0:0:0:
273,209,43841,6,0,P|259:163|271:55,1,140,6|4,0:0|0:0,0:0:0:0:
339,32,44556,1,0,0:0:0:0:
339,32,44794,2,0,L|179:33,1,140,6|6,0:0|0:0,0:0:0:0:
115,37,45508,1,0,0:0:0:0:
153,113,45746,6,0,P|164:157|168:193,1,70,4|0,0:0|0:0,0:0:0:0:
89,227,46222,2,0,P|78:183|74:147,1,70,4|0,0:0|0:0,0:0:0:0:
192,264,46698,2,0,P|203:308|207:344,1,70,4|0,0:0|0:0,0:0:0:0:
128,377,47174,2,0,P|117:333|113:297,1,70,4|0,0:0|0:0,0:0:0:0:
161,239,47651,6,0,B|209:244|209:244|235:280|235:280|285:287,1,140,4|4,0:0|0:0,0:0:0:0:
365,296,48365,1,0,0:0:0:0:
327,221,48603,2,0,P|320:178|318:143,2,70,4|0|4,0:0|0:0|0:0,0:0:0:0:
365,296,49317,1,0,0:0:0:0:
421,233,49556,6,0,L|430:91,1,140,12|0,0:0|0:0,0:0:0:0:
351,62,50270,2,0,P|300:73|217:18,1,140,12|0,0:0|0:0,0:0:0:0:
151,70,50984,2,0,L|163:142,1,70,12|0,0:0|0:0,0:0:0:0:
225,194,51460,6,0,B|273:201|273:201|302:235|302:235|359:242,1,140,8|0,0:0|0:0,0:0:0:0:
354,324,52175,2,0,B|309:330|309:330|280:364|280:364|223:371,1,140,8|0,0:0|0:0,0:0:0:0:
146,363,52889,1,8,0:0:0:0:
146,363,53127,1,0,0:0:0:0:
80,309,53365,5,6,1:2:0:0:
151,205,53722,1,2,0:0:0:0:
151,205,53841,2,0,P|149:161|140:122,1,70,10|2,0:0|0:0,0:0:0:0:
82,78,54317,2,0,L|203:78,1,105,0|0,1:2|0:0,0:0:0:0:
216,48,54794,1,10,0:0:0:0:
263,117,55032,1,0,0:0:0:0:
326,61,55270,6,0,P|345:107|325:175,1,105,2|2,1:2|0:0,0:0:0:0:
306,191,55746,1,8,0:0:0:0:
222,202,55984,1,2,0:0:0:0:
155,253,56222,2,0,L|51:232,2,105,0|0|0,1:2|0:0|0:0,0:0:0:0:
234,282,57175,5,2,1:2:0:0:
338,352,57532,1,2,0:0:0:0:
338,352,57651,2,0,L|417:361,1,70,10|0,0:0|0:0,0:0:0:0:
475,311,58127,2,0,P|484:260|468:198,1,105,2|0,1:2|0:0,0:0:0:0:
448,174,58603,1,10,0:0:0:0:
399,242,58841,1,2,0:0:0:0:
335,187,59079,6,0,L|230:172,2,105,0|2|2,0:0|0:0|0:0,0:0:0:0:
375,112,60032,2,0,L|480:97,2,105,2|2|2,1:2|0:0|0:0,0:0:0:0:
291,115,60984,5,2,1:2:0:0:
172,71,61341,1,0,0:0:0:0:
108,180,61698,1,0,0:0:0:0:
108,180,61936,5,2,1:2:0:0:
226,223,62294,1,0,0:0:0:0:
293,116,62651,1,2,0:0:0:0:
368,153,62889,6,0,P|371:120|354:29,2,105,2|0|2,1:2|0:0|0:0,0:0:0:0:
351,237,63841,2,0,P|348:270|365:361,2,105,0|0|2,1:0|0:0|0:0,0:0:0:0:
286,182,64794,5,2,1:2:0:0:
169,229,65151,1,2,0:0:0:0:
272,301,65508,1,2,1:2:0:0:
272,301,65746,5,2,1:2:0:0:
169,229,66103,1,0,1:2:0:0:
288,188,66460,1,0,1:2:0:0:
218,140,66698,2,0,P|202:134|181:129,3,35,2|0|2|0,1:2|0:0|0:0|0:0,0:0:0:0:
152,157,67175,2,0,P|135:161|118:167,3,35,2|0|0|2,0:0|0:0|0:0|0:0,0:0:0:0:
83,144,67651,2,0,P|67:138|46:133,3,35,0|2|0|2,0:0|0:0|0:0|0:0,0:0:0:0:
17,161,68127,1,0,0:0:0:0:
64,230,68365,1,2,1:2:0:0:
56,313,68603,5,6,1:2:0:0:
143,296,68841,1,2,0:0:0:0:
143,296,68960,1,0,0:0:0:0:
143,296,69079,2,0,P|179:299|224:310,1,70,2|0,0:0|0:0,0:0:0:0:
288,342,69556,2,0,B|358:329|360:378|441:359,1,140,2|2,0:2|1:2,0:0:0:0:
500,212,70508,5,2,0:0:0:0:
426,253,70746,1,2,0:0:0:0:
426,253,70865,1,0,0:0:0:0:
426,253,70984,1,2,0:0:0:0:
349,287,71222,1,2,0:0:0:0:
296,221,71460,2,0,L|287:148,1,70,2|0,1:2|0:0,0:0:0:0:
370,162,71936,2,0,L|375:92,1,70,2|0,0:0|0:0,0:0:0:0:
318,29,72413,5,2,1:2:0:0:
252,81,72651,1,2,0:0:0:0:
252,81,72770,1,0,0:0:0:0:
252,81,72889,1,2,0:0:0:0:
183,130,73127,1,2,0:0:0:0:
117,77,73365,2,0,L|45:67,2,70,2|0|2,0:0|0:0|0:0,0:0:0:0:
183,130,74079,5,0,0:0:0:0:
183,130,74198,1,0,0:0:0:0:
183,130,74317,2,0,P|192:171|196:207,1,70,2|2,0:0|0:0,0:0:0:0:
208,282,74794,2,0,L|285:293,1,70,2|0,0:0|0:0,0:0:0:0:
352,329,75270,2,0,L|439:321,2,70,2|0|2,1:2|0:0|0:0,0:0:0:0:
281,375,75984,1,0,0:0:0:0:
204,340,76222,6,0,P|143:340|69:380,1,140,2|2,0:0|0:0,0:0:0:0:
17,313,76936,2,0,L|9:233,2,70,0|2|0,0:0|0:0|0:0,0:0:0:0:
87,170,77651,1,2,1:2:0:0:
87,170,77889,1,0,0:0:0:0:
155,225,78127,6,0,P|170:179|129:88,1,140,2|2,0:0|0:0,0:0:0:0:
204,44,78841,1,2,0:0:0:0:
204,44,78960,1,0,0:0:0:0:
204,44,79079,2,0,L|296:58,1,70,2|0,0:0|0:0,0:0:0:0:
308,131,79556,2,0,L|384:122,1,70,2|0,0:0|0:0,0:0:0:0:
442,176,80032,2,0,P|459:226|452:297,1,105,2|0,1:2|0:0,0:0:0:0:
441,316,80508,2,0,L|362:329,1,70,2|0,0:0|0:0,0:0:0:0:
290,346,80984,6,0,P|242:361|142:257,1,210,2|0,1:2|0:0,0:0:0:0:
171,182,81936,2,0,L|174:141,3,35,2|0|2|0,1:2|0:0|1:2|0:0,0:0:0:0:
136,125,82413,2,0,L|133:84,3,35,2|0|2|0,0:0|0:0|1:2|0:0,0:0:0:0:
125,48,82889,1,2,1:2:0:0:
241,92,83246,1,0,0:0:0:0:
359,47,83603,1,2,1:2:0:0:
359,47,83841,6,0,P|368:103|368:136,1,70,6|0,1:2|0:0,0:0:0:0:
374,157,84198,2,0,L|456:175,1,70
482,185,84556,1,2,0:0:0:0:
458,265,84794,2,0,B|415:272|415:272|379:313|379:313|323:321,1,140,2|10,1:2|0:0,0:0:0:0:
175,364,85746,6,0,P|172:320|148:244,1,105,0|2,1:2|0:0,0:0:0:0:
155,261,86222,2,0,L|80:251,1,70,10|0,0:0|0:0,0:0:0:0:
35,184,86698,2,0,P|20:136|67:36,1,140,2|10,1:2|0:0,0:0:0:0:
200,124,87651,5,6,1:2:0:0:
270,78,87889,1,2,0:0:0:0:
270,78,88008,1,0,0:0:0:0:
270,78,88127,1,10,0:0:0:0:
318,146,88365,1,2,0:0:0:0:
373,83,88603,2,0,P|395:118|357:220,1,140,2|10,1:2|0:0,0:0:0:0:
280,349,89556,5,2,1:2:0:0:
280,349,89675,1,0,0:0:0:0:
280,349,89794,1,2,0:0:0:0:
202,380,90032,1,10,0:0:0:0:
208,296,90270,1,0,0:0:0:0:
208,296,90389,1,2,0:0:0:0:
208,296,90508,1,2,1:2:0:0:
134,336,90746,1,2,0:0:0:0:
124,252,90984,2,0,P|118:214|106:175,1,70,10|0,0:0|0:0,0:0:0:0:
64,112,91460,6,0,L|70:77,3,35,6|0|0|2,1:2|0:0|0:0|0:0,0:0:0:0:
79,36,91936,1,10,0:0:0:0:
148,83,92175,1,2,0:0:0:0:
226,53,92413,2,0,L|348:38,1,105,2|0,1:2|0:0,0:0:0:0:
371,35,92889,2,0,P|380:88|382:116,1,70,10|2,0:0|0:0,0:0:0:0:
342,178,93365,5,2,1:2:0:0:
415,219,93603,1,2,0:0:0:0:
415,219,93722,1,0,0:0:0:0:
415,219,93841,2,0,P|423:256|426:290,1,70,10|2,0:0|0:0,0:0:0:0:
385,361,94317,2,0,L|259:372,1,105,2|0,1:2|0:0,0:0:0:0:
240,356,94794,1,10,0:0:0:0:
107,253,95270,5,2,1:2:0:0:
170,197,95508,1,0,0:0:0:0:
170,197,95627,1,2,1:2:0:0:
170,197,95746,2,0,L|167:121,1,70,0|2,0:0|1:2,0:0:0:0:
162,43,96222,1,2,1:2:0:0:
235,84,96460,1,2,0:0:0:0:
235,84,96579,1,0,0:0:0:0:
235,84,96698,2,0,P|275:75|325:61,1,70,10|2,0:0|1:2,0:0:0:0:
386,81,97175,6,0,L|394:121,3,35,2|2|2|2,1:2|1:2|1:2|1:2,0:0:0:0:
377,154,97651,2,0,L|369:194,3,35,2|2|2|2,1:2|1:2|1:2|1:2,0:0:0:0:
392,223,98127,5,2,1:2:0:0:
394,240,98246,1,2,1:2:0:0:
397,257,98365,1,2,1:2:0:0:
399,274,98484,1,2,1:2:0:0:
402,292,98603,2,0,L|400:326,3,35,2|0|2|0,0:3|0:0|0:3|0:0,0:0:0:0:
398,342,99079,6,0,P|341:351|298:360,1,70,4|0,1:2|0:0,0:0:0:0:
288,342,99436,1,0,0:0:0:0:
288,342,99556,2,0,P|280:298|280:256,1,70,10|2,0:0|0:0,0:0:0:0:
340,215,100032,2,0,P|292:225|237:175,1,105,2|0,1:2|0:0,0:0:0:0:
231,157,100508,2,0,L|220:70,1,70,10|0,0:0|0:0,0:0:0:0:
181,13,100984,5,2,1:2:0:0:
115,65,101222,1,0,0:0:0:0:
115,65,101341,1,0,0:0:0:0:
115,65,101460,1,10,0:0:0:0:
154,139,101698,1,0,0:0:0:0:
70,147,101936,2,0,P|64:183|76:250,1,105,2|0,1:2|0:0,0:0:0:0:
96,286,102413,2,0,L|175:298,1,70,10|0,0:0|0:0,0:0:0:0:
248,305,102889,5,2,1:2:0:0:
315,355,103127,1,2,0:0:0:0:
315,355,103246,1,0,0:0:0:0:
315,355,103365,1,10,0:0:0:0:
369,291,103603,1,0,0:0:0:0:
310,230,103841,2,0,P|301:172|317:106,1,105,2|0,1:2|0:0,0:0:0:0:
341,100,104317,2,0,L|378:95,3,35,10|0|2|0,0:0|0:0|0:0|0:0,0:0:0:0:
413,114,104794,6,0,P|425:154|429:201,1,70,2|2,1:2|0:0,0:0:0:0:
425,223,105151,1,2,0:0:0:0:
425,223,105270,2,0,P|413:263|409:310,1,70,10|2,0:0|0:0,0:0:0:0:
357,357,105746,1,2,1:2:0:0:
284,314,105984,2,0,L|276:270,2,35,0|0|10,0:0|0:0|0:0,0:0:0:0:
213,360,106460,1,0,0:0:0:0:
133,332,106698,5,2,1:2:0:0:
196,277,106936,1,2,0:0:0:0:
196,277,107056,1,0,0:0:0:0:
196,277,107175,1,10,0:0:0:0:
115,253,107413,1,2,0:0:0:0:
177,197,107651,1,2,1:2:0:0:
103,173,107889,1,0,0:0:0:0:
163,114,108127,2,0,P|167:77|146:7,1,105,10|0,0:0|0:0,0:0:0:0:
117,5,108603,5,2,1:2:0:0:
80,80,108841,1,2,0:0:0:0:
80,80,108960,1,0,0:0:0:0:
80,80,109079,1,10,0:0:0:0:
25,143,109317,1,0,0:0:0:0:
68,214,109556,2,0,P|84:254|92:300,1,70,2|0,1:2|0:0,0:0:0:0:
93,322,109913,1,0,0:0:0:0:
93,322,110032,2,0,L|172:336,1,70,10|0,0:0|0:0,0:0:0:0:
239,302,110508,5,2,1:2:0:0:
302,357,110746,1,2,0:0:0:0:
302,357,110865,1,0,0:0:0:0:
302,357,110984,2,0,L|352:358,3,35,2|0|0|0,1:2|0:0|0:0|0:0,0:0:0:0:
378,357,111460,5,2,1:2:0:0:
342,280,111698,1,2,0:0:0:0:
425,289,111936,1,2,1:2:0:0:
390,212,112175,1,2,1:2:0:0:
454,158,112413,1,2,1:2:0:0:
454,158,112532,1,0,0:0:0:0:
454,158,112651,2,0,L|446:70,1,70
429,50,113008,2,0,P|388:61|357:63,1,70,2|0,0:0|0:0,0:0:0:0:
320,51,113365,1,0,0:0:0:0:
41,238,114317,6,0,P|94:264|101:326,1,105,6|0,1:2|0:0,0:0:0:0:
121,344,114794,2,0,L|211:354,1,70,10|2,0:0|0:0,0:0:0:0:
268,321,115270,1,0,0:0:0:0:
268,321,115389,2,0,P|318:327|353:346,1,70,2|0,0:0|0:0,0:0:0:0:
372,355,115746,2,0,L|456:353,1,70,10|2,0:0|0:0,0:0:0:0:
494,287,116222,5,2,1:2:0:0:
426,236,116460,2,0,P|416:200|412:144,2,70,2|10|2,0:0|0:0|0:0,0:0:0:0:
488,178,117175,1,2,1:2:0:0:
488,178,117294,2,0,L|490:95,1,70,2|2,0:0|0:0,0:0:0:0:
489,66,117651,2,0,P|452:75|400:80,1,70,0|2,0:0|0:0,0:0:0:0:
360,138,118127,6,0,P|308:135|250:172,1,105,2|2,1:2|0:0,0:0:0:0:
233,189,118603,2,0,L|152:180,1,70,10|0,0:0|0:0,0:0:0:0:
131,260,119079,1,2,1:2:0:0:
131,260,119198,2,0,L|71:270,1,35
152,346,119556,1,10,0:0:0:0:
152,346,119675,1,2,0:0:0:0:
152,346,119794,1,2,0:0:0:0:
226,307,120032,6,0,P|269:312|326:353,1,105,2|0,1:2|0:0,0:0:0:0:
354,368,120508,2,0,L|445:360,1,70,10|0,0:0|0:0,0:0:0:0:
469,291,120984,2,0,P|479:251|483:216,2,70,2|2|10,1:2|0:0|0:2,0:0:0:0:
396,248,121698,1,2,0:0:0:0:
396,248,121936,6,0,L|388:129,1,105,6|0,1:2|0:0,0:0:0:0:
385,101,122413,1,8,0:0:0:0:
373,17,122651,1,2,0:0:0:0:
311,74,122889,1,0,0:0:0:0:
311,74,123008,2,0,P|271:69|241:60,1,70,2|0,0:0|0:0,0:0:0:0:
206,39,123365,2,0,L|209:118,1,70,10|2,0:0|0:0,0:0:0:0:
215,192,123841,5,0,1:0:0:0:
131,179,124079,1,2,0:0:0:0:
162,256,124317,1,10,0:0:0:0:
215,192,124556,1,0,0:0:0:0:
245,270,124794,1,2,1:2:0:0:
245,270,124913,2,0,P|263:306|272:338,1,70
284,374,125270,2,0,L|357:382,1,70,10|2,0:0|0:0,0:0:0:0:
412,321,125746,6,0,L|419:200,1,105,0|0,1:0|0:0,0:0:0:0:
420,174,126222,1,10,0:0:0:0:
349,128,126460,1,0,0:0:0:0:
425,93,126698,1,0,0:0:0:0:
425,93,126817,2,0,L|430:42,1,35,0|2,0:0|0:0,0:0:0:0:
345,40,127175,1,10,0:0:0:0:
277,89,127413,1,2,0:0:0:0:
194,71,127651,5,6,1:2:0:0:
194,71,129556,6,0,L|183:173,1,70,4|0,0:0|0:0,0:0:0:0:
264,110,130032,2,0,L|275:212,1,70,8|0,0:0|0:0,0:0:0:0:
200,224,130508,2,0,L|189:326,1,70,8|0,0:0|0:0,0:0:0:0:
270,263,130984,2,0,L|281:365,1,70,8|0,0:0|0:0,0:0:0:0:
356,362,131460,6,0,P|421:367|464:319,1,105,8|0,0:0|0:0,0:0:0:0:
478,313,131936,1,8,0:0:0:0:
401,276,132175,1,0,0:0:0:0:
471,230,132413,2,0,L|472:141,1,70,8|0,0:0|0:0,0:0:0:0:
393,128,132889,2,0,L|392:217,1,70,8|0,0:0|0:0,0:0:0:0:
333,257,133365,6,0,P|274:268|219:237,1,105,8|0,0:0|0:0,0:0:0:0:
197,230,133841,1,8,0:0:0:0:
263,178,134079,1,0,0:0:0:0:
183,150,134317,2,0,P|177:105|186:53,1,70,8|0,0:0|0:0,0:0:0:0:
255,45,134794,2,0,L|337:35,1,70,8|0,0:0|0:0,0:0:0:0:
405,57,135270,6,0,P|423:104|415:169,1,105,8|0,0:0|0:0,0:0:0:0:
404,196,135746,1,8,0:0:0:0:
320,185,135984,1,0,0:0:0:0:
345,264,136222,2,0,L|231:282,1,105,8|0,0:0|0:0,0:0:0:0:
199,285,136698,1,8,0:0:0:0:
223,204,136936,1,0,0:0:0:0:
139,216,137175,6,0,P|125:164|154:95,1,105,8|0,0:0|0:0,0:0:0:0:
159,79,137651,1,8,0:0:0:0:
220,135,137889,1,0,0:0:0:0:
289,87,138127,2,0,P|332:71|423:136,1,140,8|8,0:0|0:0,0:0:0:0:
425,277,139079,6,0,L|298:293,1,105,8|0,0:0|0:0,0:0:0:0:
278,295,139556,1,8,0:0:0:0:
302,214,139794,1,0,0:0:0:0:
220,232,140032,2,0,P|163:229|107:277,1,105,8|0,0:0|0:0,0:0:0:0:
96,285,140508,1,8,0:0:0:0:
31,230,140746,1,0,0:0:0:0:
87,167,140984,6,0,L|74:48,1,105,8|0,0:0|0:0,0:0:0:0:
65,21,141460,1,8,0:0:0:0:
144,47,141698,1,0,0:0:0:0:
220,81,141936,2,0,P|266:80|324:52,1,105,8|0,0:0|0:0,0:0:0:0:
353,30,142413,2,0,L|369:112,1,70,8|0,0:0|0:0,0:0:0:0:
385,180,142889,5,8,0:0:0:0:
385,180,143365,1,8,0:0:0:0:
336,248,143603,1,0,0:0:0:0:
419,257,143841,2,0,P|385:316|304:319,1,140,8|8,0:0|0:0,0:0:0:0:
248,278,144556,1,0,0:0:0:0:
219,357,144794,6,0,L|127:367,1,70,6|2,1:2|0:0,0:0:0:0:
108,372,145151,1,2,0:0:0:0:
66,377,145270,1,10,0:0:0:0:
91,297,145508,1,2,0:0:0:0:
45,226,145746,1,0,1:2:0:0:
128,215,145984,1,0,0:0:0:0:
128,215,146103,1,0,0:0:0:0:
128,215,146222,2,0,P|130:166|117:118,1,70,10|2,0:0|0:0,0:0:0:0:
96,67,146698,6,0,P|143:58|199:102,1,105,6|2,1:2|0:0,0:0:0:0:
216,119,147175,1,10,0:0:0:0:
277,62,147413,1,2,0:0:0:0:
320,133,147651,1,2,1:2:0:0:
396,97,147889,1,0,0:0:0:0:
354,23,148127,1,10,0:0:0:0:
403,103,148365,5,2,0:0:0:0:
403,103,148484,1,0,0:0:0:0:
403,103,148603,2,0,P|411:150|403:197,1,70,6|0,1:2|0:0,0:0:0:0:
390,253,149079,2,0,L|299:269,1,70,10|0,0:0|0:0,0:0:0:0:
253,214,149556,1,2,1:2:0:0:
233,295,149794,1,0,0:0:0:0:
233,295,149913,1,0,0:0:0:0:
233,295,150032,1,10,0:0:0:0:
163,247,150270,1,0,0:0:0:0:
143,328,150508,6,0,L|66:332,1,70,2|0,1:2|0:0,0:0:0:0:
49,297,150865,1,2,0:0:0:0:
49,297,150984,2,0,P|41:263|43:213,1,70,10|0,0:0|0:0,0:0:0:0:
117,193,151460,2,0,L|194:197,1,70,2|0,1:2|0:0,0:0:0:0:
211,162,151817,1,0,0:0:0:0:
211,162,151936,2,0,P|219:128|217:78,1,70,10|0,0:0|0:0,0:0:0:0:
137,115,152413,5,6,1:2:0:0:
61,79,152651,1,2,0:0:0:0:
61,79,152770,1,2,0:0:0:0:
61,79,152889,1,10,0:0:0:0:
137,115,153127,1,2,0:0:0:0:
68,163,153365,2,0,P|54:213|76:282,1,105,0|0,1:0|0:0,0:0:0:0:
85,300,153841,1,8,0:0:0:0:
158,258,154079,1,2,0:0:0:0:
195,333,154317,5,6,1:2:0:0:
271,296,154556,1,2,0:0:0:0:
271,296,154675,1,2,0:0:0:0:
271,296,154794,2,0,P|319:304|354:318,1,70,10|2,0:0|0:0,0:0:0:0:
414,347,155270,1,2,1:2:0:0:
433,265,155508,1,0,0:0:0:0:
433,265,155627,1,0,0:0:0:0:
433,265,155746,2,0,L|439:190,1,70,10|0,0:0|0:0,0:0:0:0:
450,112,156222,5,6,1:2:0:0:
373,145,156460,1,0,0:0:0:0:
373,145,156579,1,0,0:0:0:0:
373,145,156698,1,10,0:0:0:0:
297,108,156936,1,2,0:0:0:0:
297,108,157175,1,0,1:2:0:0:
262,184,157413,5,2,0:0:0:0:
262,184,157532,1,0,0:0:0:0:
262,184,157651,2,0,B|195:169|191:212|125:194,1,140,10|2,0:0|0:0,0:0:0:0:
43,172,158365,1,2,0:0:0:0:
43,172,158603,1,2,0:0:0:0:
43,172,158841,1,2,0:0:0:0:
76,248,159079,5,2,0:3:0:0:
76,248,159198,1,2,0:3:0:0:
76,248,159317,2,0,L|83:297,1,35,2|0,0:3|0:0,0:0:0:0:
93,323,159556,5,2,0:3:0:0:
93,323,159675,1,2,0:3:0:0:
93,323,159794,2,0,L|146:326,1,35,2|0,0:3|0:0,0:0:0:0:
178,325,160032,5,4,0:0:0:0:
259,383,160270,1,0,0:0:0:0:
259,383,160389,1,0,0:0:0:0:
259,383,160508,1,8,0:0:0:0:
331,313,160746,1,0,0:0:0:0:
422,355,160984,2,0,L|431:249,1,83.9999974365235,0|0,1:0|0:0,0:0:0:0:
445,171,161460,1,8,0:0:0:0:
357,220,161698,6,0,P|352:173|358:127,1,83.9999974365235,2|2,1:0|0:0,0:0:0:0:
360,35,162175,1,0,0:0:0:0:
267,75,162413,6,0,B|216:71|160:49,1,83.9999974365235,8|2,0:0|0:0,0:0:0:0:
88,30,162889,1,0,1:0:0:0:
45,121,163127,1,0,0:0:0:0:
45,121,163246,1,0,0:0:0:0:
45,121,163365,1,8,0:0:0:0:
138,159,163603,6,0,P|156:214|163:246,1,83.9999974365235,0|2,0:0|1:0,0:0:0:0:
186,337,164079,1,0,0:0:0:0:
186,337,164198,1,0,0:0:0:0:
186,337,164317,6,0,L|278:348,1,83.9999974365235,8|0,0:0|0:0,0:0:0:0:
347,282,164794,1,2,1:0:0:0:
429,339,165032,1,0,0:0:0:0:
429,339,165151,1,0,0:0:0:0:
429,339,165270,1,8,0:0:0:0:
423,238,165508,6,0,P|435:170|445:133,1,83.9999974365235,2|0,1:0|0:0,0:0:0:0:
456,56,165984,1,2,1:0:0:0:
456,56,166103,1,0,0:0:0:0:
456,56,166222,1,8,0:0:0:0:
372,112,166460,1,2,1:0:0:0:
276,79,166698,5,2,1:0:0:0:
255,76,166817,1,0,0:0:0:0:
234,74,166936,1,2,0:0:0:0:
213,71,167055,1,0,0:0:0:0:
192,69,167175,2,0,L|144:62,3,41.9999987182618,2|0|2|0,1:0|0:0|0:0|0:0,0:0:0:0:
101,55,167651,5,4,0:0:0:0:
60,147,167889,1,0,0:0:0:0:
160,141,168127,1,8,0:0:0:0:
121,234,168365,1,0,0:0:0:0:
121,234,168484,1,0,0:0:0:0:
121,234,168603,2,0,L|128:325,1,83.9999974365235,0|0,1:0|0:0,0:0:0:0:
212,371,169079,1,8,0:0:0:0:
306,336,169317,6,0,P|350:342|414:358,1,83.9999974365235,0|0,0:0|1:0,0:0:0:0:
488,364,169794,1,0,0:0:0:0:
435,277,170032,5,8,0:0:0:0:
334,265,170270,1,0,0:0:0:0:
248,318,170508,2,0,L|154:328,1,83.9999974365235,0|0,1:0|0:0,0:0:0:0:
114,334,170865,1,0,0:0:0:0:
65,346,170984,1,8,0:0:0:0:
100,251,171222,1,0,0:0:0:0:
49,163,171460,5,2,1:0:0:0:
149,172,171698,1,2,1:0:0:0:
149,172,171817,1,0,0:0:0:0:
149,172,171936,2,0,L|159:76,1,83.9999974365235,8|0,0:0|0:0,0:0:0:0:
236,152,172413,6,0,L|246:215,1,41.9999987182618,2|0,1:0|0:0,0:0:0:0:
324,252,172770,2,0,L|317:324,1,41.9999987182618,0|8,0:0|0:0,0:0:0:0:
260,374,173127,1,2,1:0:0:0:
260,374,173365,1,8,0:0:0:0:
256,192,173484,12,0,175151,0:0:0:0:
