osu file format v14

[General]
AudioFilename: audio.mp3
AudioLeadIn: 0
PreviewTime: 1937
Countdown: 0
SampleSet: Soft
StackLeniency: 0.5
Mode: 0
LetterboxInBreaks: 0
WidescreenStoryboard: 0

[Editor]
Bookmarks: 17175,40032,53365,68603,83841,99079,114317,129556,144794,160032,173365
DistanceSpacing: 0.9
BeatDivisor: 4
GridSize: 16
TimelineZoom: 2.3

[Metadata]
Title:DECADE OF POP
TitleUnicode:DECADE OF POP
Artist:DJ Earworm
ArtistUnicode:DJ Earworm
Creator:Leader
Version:Collab Insane
Source:
Tags:schoolboy Komore English Pop Mashup Adele Ariana Grande Avicii B.o.B. Hayley Williams Bastille Billie Eilish Bruno Mars Calvin Harris Rihanna Camila Cabello Young Thug Cardi Bad Bunny Balvin Carly Rae Jepsen CeeLo Green Chainsmokers Coldplay Clean Bandit Jess Glynne Daft Punk Pharrell David Guetta Sia Designer DJ Snake Lilon Drake WizKid Kyla Dua Lipa Ed Sheeran Ellie Goulding Flo Rida French Montana Swae Lee Fun Janelle Monae Gotye Kimbra Halsey Iggy Azalea Charli XCX Imagine Dragons DeRulo Nicki Minaj Jessie John Legend Juice WRLD Justin Bieber Timberlake Katy Perry Ke$ha Kesha Kelly Clarkson Kendrick Lamar Lil Nas Billy Ray Cyrus Lizzo LMFAO Lorde Macklemore Ryan Lewis MAGIC! Major Lazer Mark Ronson Maroon 5 Christina Aguilera Marshmello Meghan Trainor Mike Posner Miley One Direction Republic Panic At The Disco Pink Pitbull Post Malone 21 Savage Sam Smith Shawn Mendes Taio Cruz Taylor Swift Lumineers Weeknd Train Twenty Pilots Usher will.i.am Walk Moon Charlie Puth Zedd
BeatmapID:2250533
BeatmapSetID:1075546

[Difficulty]
HPDrainRate:7
CircleSize:4.5
OverallDifficulty:8
ApproachRate:9
SliderMultiplier:1.7
SliderTickRate:1

[Events]
//Background and Video events
0,0,"gregory-wong-woong-ming-LhymUiV3LxI-unsplash.jpg",0,0
Video,0,"ED_no_audio.mp4"
//Break Periods
//Storyboard Layer 0 (Background)
//Storyboard Layer 1 (Fail)
//Storyboard Layer 2 (Pass)
//Storyboard Layer 3 (Foreground)
//Storyboard Layer 4 (Overlay)
//Storyboard Sound Samples

[TimingPoints]
1937,476.190476190476,4,2,10,60,1,0
15746,-100,4,2,10,40,0,0
17175,-100,4,2,10,60,0,0
24079,-181.818181818181,4,2,10,60,0,0
25270,-100,4,2,10,60,0,0
28127,-83.3333333333333,4,2,10,60,0,0
28603,-100,4,2,10,60,0,0
38127,-66.6666666666667,4,2,10,60,0,0
39556,-333.333333333333,4,2,10,60,0,0
40032,-66.6666666666667,4,2,10,60,0,1
53365,-40,4,2,10,60,0,0
53841,-100,4,2,10,60,0,0
66698,-133.333333333333,4,2,10,50,0,0
67532,-133.333333333333,4,2,10,40,0,0
68603,-100,4,2,0,50,0,0
83841,-76.9230769230769,4,2,10,60,0,0
84317,-100,4,2,10,60,0,0
96222,-125,4,2,10,60,0,0
99079,-100,4,2,10,60,0,0
114317,-83.3333333333333,4,2,10,60,0,0
115032,-100,4,2,10,60,0,0
121460,-133.333333333333,4,2,10,60,0,0
121936,-76.9230769230769,4,2,10,60,0,0
122651,-100,4,2,10,60,0,0
144794,-100,4,2,10,60,0,1
159079,-100,4,2,10,60,0,0
160032,-83.3333333333333,4,2,10,60,0,1
173365,-100,4,2,10,60,0,0
173841,-100,4,2,10,50,0,0
174317,-100,4,2,10,40,0,0
174794,-100,4,2,10,30,0,0
174913,-100,4,2,10,20,0,0
175032,-100,4,2,10,10,0,0
175151,-100,4,2,10,5,0,0

[Colours]
Combo1 : 17,254,176
Combo2 : 173,255,95
Combo3 : 255,88,100
Combo4 : 255,94,55

[HitObjects]
92,102,1937,6,0,P|108:173|110:224,1,85,4|0,0:0|0:0,0:0:0:0:
163,280,2413,2,0,L|260:296,1,85,2|0,0:0|0:0,0:0:0:0:
445,201,2889,5,2,0:0:0:0:
390,313,3127,1,0,0:0:0:0:
302,220,3365,5,2,0:0:0:0:
390,323,3603,1,0,0:0:0:0:
343,135,3841,6,0,P|290:122|211:215,1,170,2|2,0:0|0:0,0:0:0:0:
192,350,4556,1,0,0:0:0:0:
192,350,4794,2,0,L|101:364,1,85,2|0,0:0|0:0,0:0:0:0:
14,252,5270,2,0,L|105:266,1,85,2|0,0:0|0:0,0:0:0:0:
303,109,5746,5,2,0:0:0:0:
190,88,5984,2,0,L|197:147,1,42.5,2|0,0:0|0:0,0:0:0:0:
207,202,6222,1,2,0:0:0:0:
93,144,6460,1,0,0:0:0:0:
207,202,6698,1,2,0:0:0:0:
39,269,6936,1,0,0:0:0:0:
155,339,7175,2,0,P|201:347|264:350,1,85,2|0,0:0|0:0,0:0:0:0:
410,202,7651,5,2,3:2:0:0:
409,210,7889,1,0,0:0:0:0:
322,204,8127,5,2,3:2:0:0:
326,224,8365,1,0,0:0:0:0:
424,291,8603,5,2,3:2:0:0:
349,309,8841,1,0,0:0:0:0:
492,357,9079,5,2,3:2:0:0:
266,292,9317,1,0,0:0:0:0:
399,54,9556,5,2,3:2:0:0:
399,54,9675,2,0,P|392:108|380:154,1,85
335,185,10032,2,0,L|239:196,1,85,8|0,0:0|0:0,0:0:0:0:
123,127,10508,1,2,3:2:0:0:
127,159,10627,1,0,0:0:0:0:
125,189,10746,1,0,0:0:0:0:
120,219,10865,1,0,0:0:0:0:
111,249,10984,2,0,L|57:258,1,42.5,8|0,0:0|0:0,0:0:0:0:
162,320,11222,5,2,3:2:0:0:
162,320,11460,2,0,B|241:300|240:354|332:333,1,170,2|8,3:2|0:0,0:0:0:0:
481,287,12175,1,0,0:0:0:0:
378,184,12413,2,0,P|381:144|385:107,1,42.5,2|0,3:2|0:0,0:0:0:0:
419,52,12651,1,0,0:0:0:0:
419,52,12770,1,0,0:0:0:0:
419,52,12889,2,0,P|379:67|325:67,1,85,8|0,0:0|0:0,0:0:0:0:
175,51,13365,5,2,3:2:0:0:
63,241,13603,2,0,L|154:254,1,85,0|8,0:0|0:0,0:0:0:0:
313,206,14079,1,0,0:0:0:0:
132,330,14317,1,2,3:2:0:0:
336,289,14556,1,0,0:0:0:0:
200,288,14794,1,8,0:0:0:0:
200,288,15032,1,0,0:0:0:0:
395,344,15270,1,2,3:2:0:0:
256,192,15389,12,8,16698,3:0:0:0:
467,117,17175,5,6,1:2:0:0:
467,117,17413,2,0,L|457:65,1,42.5,2|0,0:0|0:0,0:0:0:0:
392,206,17651,2,0,L|398:164,1,42.5,2|0,1:2|0:0,0:0:0:0:
464,253,17889,1,2,0:0:0:0:
464,253,18008,1,2,0:0:0:0:
386,301,18127,2,0,P|343:295|301:291,1,85,2|0,1:2|0:0,0:0:0:0:
12,160,18603,2,0,P|53:163|91:144,1,85,2|0,1:2|0:0,0:0:0:0:
150,70,19079,5,2,1:2:0:0:
97,325,19317,1,2,0:0:0:0:
151,265,19436,1,2,0:0:0:0:
72,249,19556,1,2,1:2:0:0:
282,363,19794,1,2,0:0:0:0:
388,149,20032,1,2,1:2:0:0:
178,35,20270,1,2,0:0:0:0:
181,42,20508,1,0,1:2:0:0:
127,170,20746,1,2,0:0:0:0:
194,130,20865,1,2,0:0:0:0:
127,170,20984,6,0,L|-7:159,2,127.5,2|2|2,1:2|1:2|0:0,0:0:0:0:
402,278,21936,2,0,L|314:295,1,85,2|0,1:2|0:0,0:0:0:0:
238,303,22294,2,0,B|205:269|205:269|236:159,1,127.5,2|0,1:2|0:0,0:0:0:0:
402,21,22889,6,0,L|425:83,1,42.5,2|0,1:2|0:0,0:0:0:0:
331,67,23127,1,2,0:0:0:0:
331,67,23246,2,0,L|320:116,1,42.5,2|0,0:0|1:0,0:0:0:0:
262,22,23484,1,2,0:0:0:0:
262,22,23603,6,0,L|208:33,1,42.5,2|0,0:0|0:0,0:0:0:0:
141,53,23841,1,2,1:2:0:0:
28,212,24079,6,0,L|23:176,1,23.3750007133484,2|0,0:0|0:0,0:0:0:0:
97,201,24317,2,0,L|92:165,1,23.3750007133484,2|0,1:2|0:0,0:0:0:0:
166,191,24556,2,0,L|161:155,1,23.3750007133484,2|0,0:0|0:0,0:0:0:0:
28,223,24794,5,2,1:2:0:0:
28,223,25270,2,0,P|70:225|111:251,1,85,2|0,1:2|0:0,0:0:0:0:
166,298,25627,2,0,L|174:365,1,42.5,2|0,0:0|1:2,0:0:0:0:
243,217,25865,2,0,L|251:284,1,42.5,2|0,0:0|0:0,0:0:0:0:
162,141,26103,2,0,L|170:208,1,42.5,2|0,0:0|1:2,0:0:0:0:
161,127,26341,1,2,0:0:0:0:
213,24,26460,2,0,L|221:91,1,42.5,2|0,0:0|0:0,0:0:0:0:
304,122,26698,6,0,L|403:111,1,85,2|0,1:2|0:0,0:0:0:0:
474,104,27056,1,2,0:0:0:0:
379,133,27175,6,0,L|294:142,1,85,2|0,1:2|0:0,0:0:0:0:
128,76,27651,1,2,1:2:0:0:
128,76,27889,2,0,L|88:80,3,21.25,2|2|2|2,0:0|0:0|0:0|0:0,0:0:0:0:
18,92,28127,6,0,P|78:97|100:184,1,152.999995330811,2|0,1:2|0:0,0:0:0:0:
90,194,28603,6,0,L|193:180,1,85,2|0,1:2|0:0,0:0:0:0:
402,105,29079,2,0,P|361:91|319:88,1,85,2|0,1:2|0:0,0:0:0:0:
275,279,29436,2,0,P|292:240|297:198,1,85,2|0,0:0|0:0,0:0:0:0:
214,127,29794,2,0,L|219:169,1,42.5,2|0,0:0|0:0,0:0:0:0:
157,223,30032,1,2,1:2:0:0:
309,116,30151,1,2,0:0:0:0:
138,43,30270,1,2,0:0:0:0:
133,54,30508,6,0,P|98:78|57:89,1,85,2|0,1:2|0:0,0:0:0:0:
231,246,30984,2,0,L|314:262,1,85,2|0,1:2|0:0,0:0:0:0:
461,201,31460,1,2,1:2:0:0:
340,121,31698,1,2,0:0:0:0:
388,367,31936,1,2,1:2:0:0:
391,359,32175,1,2,0:0:0:0:
396,351,32413,6,0,L|278:330,1,85,2|0,1:2|0:0,0:0:0:0:
182,149,32889,2,0,P|198:221|200:251,1,85,2|0,1:2|0:0,0:0:0:0:
129,291,33365,1,2,1:2:0:0:
320,212,33603,1,2,0:0:0:0:
63,134,33841,1,2,1:2:0:0:
63,134,34079,1,2,0:0:0:0:
149,379,34317,6,0,B|246:355|222:406|315:385,1,170,2|2,1:2|1:2,0:0:0:0:
382,331,35032,1,2,0:0:0:0:
306,275,35270,2,0,L|213:288,2,85,2|2|2,1:2|0:0|1:2,0:0:0:0:
382,331,35984,1,2,0:0:0:0:
393,156,36222,5,2,1:2:0:0:
315,384,36460,1,2,1:2:0:0:
190,237,36698,6,0,P|192:214|201:196,1,42.5,2|0,1:2|0:0,0:0:0:0:
132,91,36936,2,0,L|141:148,1,42.5,2|0,1:2|0:0,0:0:0:0:
74,177,37175,2,0,L|8:169,1,42.5,2|0,1:2|0:0,0:0:0:0:
19,169,37413,1,2,1:2:0:0:
215,60,37651,1,2,1:2:0:0:
112,327,37889,1,2,1:2:0:0:
323,263,38127,6,0,L|400:250,1,63.7500024318696,6|0,1:2|1:2,0:0:0:0:
471,242,38306,1,0,1:2:0:0:
471,242,38365,2,0,L|455:303,1,63.7500024318696,0|0,1:2|0:0,0:0:0:0:
284,137,38603,6,0,L|360:123,1,63.7500024318696,6|0,1:2|1:2,0:0:0:0:
431,115,38782,1,0,1:2:0:0:
431,115,38841,2,0,L|415:176,1,63.7500024318696,0|0,1:2|0:0,0:0:0:0:
256,326,39079,5,2,1:2:0:0:
171,338,39198,1,2,1:2:0:0:
100,290,39317,1,2,1:2:0:0:
79,207,39436,1,2,1:2:0:0:
119,132,39556,6,0,L|111:94,1,38.2499988327027,2|0,0:1|0:1,0:1:0:0:
62,58,40032,6,0,L|202:75,1,127.500004863739,4|0,0:0|0:0,0:0:0:0:
438,211,40508,2,0,L|298:228,1,127.500004863739,6|0,0:0|0:0,0:0:0:0:
71,196,40984,1,6,0:0:0:0:
207,173,41222,1,0,0:0:0:0:
239,305,41460,1,6,0:0:0:0:
99,334,41698,1,0,0:0:0:0:
344,77,41936,6,0,L|339:209,1,127.500004863739,6|0,0:0|0:0,0:0:0:0:
172,204,42413,2,0,L|168:77,1,127.500004863739,6|0,0:0|0:0,0:0:0:0:
360,305,42889,2,0,B|288:304|256:368|256:368|224:304|151:305,1,255.000009727478,6|4,0:0|0:0,0:0:0:0:
256,192,43603,1,0,0:0:0:0:
152,79,43841,6,0,B|224:80|256:16|256:16|288:80|360:78,1,255.000009727478,6|4,0:0|0:0,0:0:0:0:
437,6,44556,1,0,0:0:0:0:
437,6,44794,2,0,P|456:73|465:145,1,127.500004863739,6|0,0:0|0:0,0:0:0:0:
338,341,45270,2,0,L|188:364,1,127.500004863739,6|0,0:0|0:0,0:0:0:0:
204,194,45746,5,4,0:0:0:0:
313,218,45984,1,0,0:0:0:0:
132,254,46222,5,4,0:0:0:0:
387,203,46460,1,0,0:0:0:0:
51,179,46698,5,4,0:0:0:0:
442,271,46936,1,0,0:0:0:0:
442,271,47175,1,4,0:0:0:0:
133,136,47413,5,0,0:0:0:0:
133,136,47532,1,0,0:0:0:0:
133,136,47651,2,0,L|148:280,1,127.500004863739,4|0,0:0|0:0,0:0:0:0:
351,259,48127,2,0,L|364:132,1,127.500004863739,4|0,0:0|0:0,0:0:0:0:
461,205,48603,1,4,0:0:0:0:
461,205,48841,1,0,0:0:0:0:
363,132,49079,1,4,0:0:0:0:
475,76,49317,1,0,0:0:0:0:
356,243,49556,6,0,P|288:264|167:132,1,255.000009727478,12|0,0:0|0:0,0:0:0:0:
227,29,50270,2,0,P|295:8|416:140,1,255.000009727478,12|0,0:0|0:0,0:0:0:0:
179,346,50984,2,0,L|46:355,1,127.500004863739,12|0,0:0|0:0,0:0:0:0:
133,32,51460,6,0,P|182:124|159:275,1,255.000009727478,8|0,0:0|0:0,0:0:0:0:
349,268,52175,2,0,P|326:145|379:32,1,255.000009727478,8|0,0:0|0:0,0:0:0:0:
434,174,52889,1,8,0:0:0:0:
235,118,53127,1,0,0:0:0:0:
177,384,53365,6,2,B|274:370|274:370|278:370|278:370|387:355,1,212.5,6|0,1:2|0:0,0:1:0:0:
466,341,53722,5,2,0:0:0:0:
426,238,53841,2,0,L|416:293,1,42.5,10|0,0:0|0:0,0:0:0:0:
489,190,54079,2,0,L|479:135,1,42.5,2|0,0:0|0:0,0:0:0:0:
408,104,54317,2,0,P|436:110|507:51,1,127.5,0|0,1:2|0:0,0:0:0:0:
455,0,54734,1,2,0:0:0:0:
455,0,54794,2,0,P|419:20|377:31,1,85,10|0,0:0|0:0,0:0:0:0:
174,90,55270,6,0,P|191:51|196:9,1,85,2|0,1:2|0:0,0:0:0:0:
265,179,55627,2,0,L|256:268,1,85,2|0,0:0|0:0,0:0:0:0:
179,317,55984,2,0,L|122:325,1,42.5,2|0,0:0|0:0,0:0:0:0:
386,297,56222,5,0,1:2:0:0:
390,304,56460,2,0,L|384:351,1,42.5,2|0,0:0|0:0,0:0:0:0:
499,164,56698,2,0,P|437:166|400:219,1,127.5,10|0,0:0|0:0,0:0:0:0:
391,224,57175,6,0,L|285:205,1,85,2|0,1:2|0:0,0:0:0:0:
255,157,57532,1,2,0:0:0:0:
197,204,57651,2,0,P|145:225|102:219,1,85,10|0,0:0|0:0,0:0:0:0:
47,100,58127,2,0,L|63:16,2,85,2|2|10,1:2|0:0|0:0,0:0:0:0:
11,352,58841,1,2,0:0:0:0:
84,375,58960,6,0,P|132:368|169:340,1,85,2|2,0:0|0:0,0:0:0:0:
312,357,59317,1,2,0:0:0:0:
232,384,59436,2,0,L|247:294,1,85,2|2,0:0|0:0,0:0:0:0:
266,152,59794,1,2,0:0:0:0:
287,218,60032,5,2,1:2:0:0:
210,112,60151,1,2,0:0:0:0:
334,152,60270,1,2,0:0:0:0:
287,87,60389,1,2,0:0:0:0:
210,193,60508,1,10,0:0:0:0:
201,190,60746,2,0,L|140:204,1,42.5,2|0,0:0|0:0,0:0:0:0:
0,235,60984,6,0,P|53:237|113:289,1,127.5,2|0,1:2|0:0,0:0:0:0:
177,329,61460,2,0,P|146:360|96:363,1,85,8|0,0:0|0:0,0:0:0:0:
291,190,61936,2,0,L|305:251,1,42.5,2|0,1:2|0:0,0:0:0:0:
375,140,62175,2,0,L|367:192,1,42.5,2|0,0:0|0:0,0:0:0:0:
425,238,62413,1,10,0:0:0:0:
233,117,62651,1,2,0:0:0:0:
471,24,62889,5,2,1:2:0:0:
471,24,63127,2,0,L|455:114,1,85,2|8,0:0|0:0,0:0:0:0:
496,358,63603,2,0,P|501:315|486:274,1,85,2|0,0:0|1:0,0:0:0:0:
415,229,64079,2,0,L|358:241,1,42.5,2|0,0:0|0:0,0:0:0:0:
300,299,64317,2,0,L|293:340,1,42.5,10|0,0:0|0:0,0:0:0:0:
197,224,64556,2,0,L|207:285,1,42.5,2|0,0:0|0:0,0:0:0:0:
119,333,64794,6,0,L|24:349,1,85,2|0,1:2|0:0,0:0:0:0:
114,255,65151,1,2,0:0:0:0:
0,201,65270,2,0,L|40:213,1,42.5,10|0,0:0|0:0,0:0:0:0:
123,168,65508,2,0,L|136:109,1,42.5,2|0,1:2|0:0,0:0:0:0:
147,39,65746,6,0,P|102:82|41:73,2,127.5,2|0|0,1:2|1:2|1:2,0:0:0:0:
242,157,66698,2,0,L|249:198,1,31.8750012159348,2|0,1:2|0:0,0:0:0:0:
321,127,66936,2,0,L|313:168,1,31.8750012159348,2|0,0:0|0:0,0:0:0:0:
389,160,67175,2,0,L|393:198,1,31.8750012159348,2|0,0:0|0:0,0:0:0:0:
392,191,67532,5,2,0:0:0:0:
454,91,67770,1,2,0:0:0:0:
408,207,68008,1,2,0:0:0:0:
364,0,68365,1,2,1:2:0:0:
364,0,68603,6,0,P|338:10|308:18,1,42.5,6|0,1:2|0:0,0:0:0:0:
295,105,68841,2,0,P|275:97|254:90,1,42.5,2|0,0:0|0:0,0:0:0:0:
168,46,69079,1,2,0:0:0:0:
36,179,69317,1,0,0:0:0:0:
107,108,69556,2,0,P|124:168|125:217,1,85,2|0,0:2|0:0,0:0:0:0:
103,352,70032,2,0,L|151:357,1,42.5,2|0,1:2|0:0,0:0:0:0:
173,332,70270,2,0,L|225:325,1,42.5
255,351,70508,5,2,0:0:0:0:
448,280,70746,1,2,0:0:0:0:
260,258,70984,1,2,0:0:0:0:
357,313,71222,1,2,0:0:0:0:
380,209,71460,2,0,P|367:152|397:15,1,170,2|2,1:2|0:0,0:0:0:0:
459,131,72175,1,0,0:0:0:0:
349,318,72413,6,0,L|291:326,1,42.5,2|0,1:2|0:0,0:0:0:0:
238,368,72651,2,0,L|195:362,1,42.5,2|0,0:0|0:0,0:0:0:0:
119,341,72889,1,2,0:0:0:0:
275,257,73127,1,2,0:0:0:0:
153,143,73365,2,0,P|160:184|164:230,1,85,2|0,0:0|0:0,0:0:0:0:
66,212,73841,1,2,0:0:0:0:
265,54,74079,5,0,0:0:0:0:
265,54,74198,1,0,0:0:0:0:
265,54,74317,2,0,P|277:99|280:122,1,42.5,2|0,0:0|0:0,0:0:0:0:
329,188,74556,2,0,P|334:168|341:148,1,42.5,2|0,0:0|0:0,0:0:0:0:
381,79,74794,2,0,L|473:72,1,85,2|0,0:0|0:0,0:0:0:0:
474,289,75270,5,2,1:2:0:0:
474,289,75508,1,0,0:0:0:0:
474,289,75746,1,2,0:0:0:0:
375,352,75984,5,0,0:0:0:0:
375,352,76103,1,0,0:0:0:0:
375,352,76222,2,0,P|339:365|310:369,1,42.5,2|0,0:0|0:0,0:0:0:0:
322,281,76460,2,0,P|301:275|281:267,1,42.5,2|0,0:0|0:0,0:0:0:0:
357,195,76698,1,2,0:0:0:0:
224,355,76936,1,0,0:0:0:0:
224,355,77175,2,0,L|132:366,1,85,2|0,0:0|0:0,0:0:0:0:
46,195,77651,2,0,P|105:203|111:281,1,127.5,2|0,1:2|0:0,0:0:0:0:
113,292,78127,6,0,L|180:303,1,42.5,2|0,0:0|0:0,0:0:0:0:
226,313,78365,2,0,L|293:324,1,42.5,2|0,0:0|0:0,0:0:0:0:
423,266,78603,1,2,0:0:0:0:
423,266,78722,1,0,0:0:0:0:
481,324,78841,2,0,L|474:374,1,42.5,2|0,0:0|0:0,0:0:0:0:
423,266,79079,2,0,L|413:167,1,85,2|0,0:0|0:0,0:0:0:0:
306,65,79556,2,0,L|316:164,1,85,2|0,0:0|0:0,0:0:0:0:
150,194,80032,1,2,1:2:0:0:
272,348,80270,2,0,L|276:300,1,42.5,2|0,0:0|0:0,0:0:0:0:
285,231,80508,1,2,0:0:0:0:
285,231,80627,1,0,0:0:0:0:
285,231,80746,1,0,0:0:0:0:
108,124,80984,6,0,B|219:123|229:2|147:0|100:50|132:120|254:97,1,297.5,2|0,1:2|0:0,0:0:0:0:
264,76,81936,6,0,L|259:123,1,42.5,2|0,1:2|0:0,0:0:0:0:
224,181,82175,2,0,L|229:228,1,42.5,2|0,1:2|0:0,0:0:0:0:
239,297,82413,1,2,0:0:0:0:
241,310,82651,6,0,L|194:305,1,42.5,2|0,1:2|0:0,0:0:0:0:
151,361,82890,2,0,L|100:369,1,42.5,2|0,1:2|0:0,0:0:0:0:
36,262,83127,6,0,L|83:267,1,42.5,2|0,1:2|0:0,0:0:0:0:
141,224,83365,2,0,L|184:215,1,42.5,2|0,1:2|0:0,0:0:0:0:
343,190,83603,1,2,1:2:0:0:
343,190,83841,6,0,B|264:175|275:229|183:216,1,165.749992412568,6|0,1:2|0:0,0:0:0:0:
109,120,84317,2,0,L|117:162,1,42.5,10|0,0:0|0:0,0:0:0:0:
117,265,84556,2,0,L|108:307,1,42.5,2|0,0:0|0:0,0:0:0:0:
54,215,84794,1,2,1:2:0:0:
219,349,85032,1,2,0:0:0:0:
225,354,85151,1,2,0:0:0:0:
230,359,85270,2,0,P|294:353|357:347,1,127.5,10|0,0:0|0:0,0:0:0:0:
368,340,85746,6,0,P|388:302|388:260,1,85,0|2,1:2|0:0,0:0:0:0:
339,204,86103,1,2,0:0:0:0:
398,158,86222,2,0,L|487:136,1,85,10|0,0:0|0:0,0:0:0:0:
198,52,86698,1,2,1:2:0:0:
218,133,86936,1,2,0:0:0:0:
292,36,87175,1,10,0:0:0:0:
312,116,87413,1,2,0:0:0:0:
86,73,87651,5,6,1:2:0:0:
86,73,87889,2,0,L|76:10,1,42.5,2|0,0:0|0:0,0:0:0:0:
119,246,88127,1,10,0:0:0:0:
86,31,88365,2,0,L|92:72,1,42.5,2|0,0:0|0:0,0:0:0:0:
104,158,88603,2,0,P|68:180|26:176,1,85,2|0,1:2|0:0,0:0:0:0:
303,74,89079,2,0,P|365:84|428:95,1,127.5,10|0,0:0|0:0,0:0:0:0:
508,116,89556,6,0,L|500:57,1,42.5,2|0,1:2|0:0,0:0:0:0:
437,258,89794,2,0,L|448:204,1,42.5,2|0,0:0|0:0,0:0:0:0:
453,211,90032,1,10,0:0:0:0:
364,224,90151,2,0,L|353:170,1,42.5,2|0,0:0|0:0,0:0:0:0:
508,298,90389,1,2,0:0:0:0:
392,384,90508,2,0,L|403:330,1,42.5,2|0,1:2|0:0,0:0:0:0:
333,299,90746,6,0,L|290:303,1,42.5,2|0,0:0|0:0,0:0:0:0:
211,368,90984,2,0,P|159:332|96:332,1,127.5,10|0,0:0|0:0,0:0:0:0:
85,336,91460,6,0,P|68:296|65:254,1,85,6|0,1:2|0:0,0:0:0:0:
123,193,91817,1,2,0:0:0:0:
5,158,91936,2,0,L|45:169,1,42.5,10|0,0:0|0:0,0:0:0:0:
117,69,92175,2,0,L|108:114,1,42.5,2|0,0:0|0:0,0:0:0:0:
31,17,92413,5,2,1:2:0:0:
33,25,92651,1,2,0:0:0:0:
237,182,92889,1,10,0:0:0:0:
245,144,93008,1,2,0:0:0:0:
252,106,93127,1,2,0:0:0:0:
318,46,93365,5,2,1:2:0:0:
318,46,93603,2,0,L|376:37,1,42.5,2|0,0:0|0:0,0:0:0:0:
483,19,93841,2,0,L|425:28,1,42.5,10|0,0:0|0:0,0:0:0:0:
411,237,94079,1,2,0:0:0:0:
486,196,94198,1,2,0:0:0:0:
414,150,94317,6,0,B|327:127|341:177|248:156,1,170,2|10,1:2|0:0,0:0:0:0:
143,44,95032,2,0,L|150:100,1,42.5,2|0,0:0|0:0,0:0:0:0:
156,170,95270,6,0,P|104:192|23:153,2,127.5,2|2|2,1:2|1:2|1:2,0:0:0:0:
295,10,96222,2,0,L|306:52,1,34,2|0,1:2|0:0,0:0:0:0:
221,91,96460,2,0,L|230:39,1,34,2|0,0:0|0:0,0:0:0:0:
302,130,96698,5,10,0:0:0:0:
315,128,96817,1,2,0:0:0:0:
328,126,96936,1,2,1:2:0:0:
341,124,97056,1,2,0:0:0:0:
354,122,97175,5,2,1:2:0:0:
378,85,97294,1,2,1:2:0:0:
421,78,97413,1,2,1:2:0:0:
460,98,97532,1,2,1:2:0:0:
473,140,97651,1,2,1:2:0:0:
458,181,97770,1,2,1:2:0:0:
417,197,97889,1,2,1:2:0:0:
384,227,98008,1,2,1:2:0:0:
376,270,98127,1,2,1:2:0:0:
401,305,98246,1,2,1:2:0:0:
442,319,98365,1,2,1:2:0:0:
483,302,98484,1,2,1:2:0:0:
497,260,98603,5,2,0:3:0:0:
482,262,98682,1,2,0:3:0:0:
468,268,98761,1,2,0:3:0:0:
456,277,98841,1,2,0:3:0:0:
448,289,98920,1,2,0:3:0:0:
443,304,98999,1,2,0:3:0:0:
442,319,99079,6,0,L|294:342,1,127.5,4|0,1:2|0:0,0:0:0:0:
316,338,99556,1,10,0:0:0:0:
345,235,99794,1,2,0:0:0:0:
160,272,100032,2,0,P|152:222|140:184,1,85,2|0,1:2|0:0,0:0:0:0:
74,88,100508,2,0,L|144:102,1,42.5,10|0,0:0|0:0,0:0:0:0:
188,132,100746,2,0,L|229:123,1,42.5
296,69,100984,5,2,1:2:0:0:
460,136,101222,1,0,0:0:0:0:
454,155,101341,2,0,P|450:184|449:214,1,42.5,0|10,0:0|0:0,0:0:0:0:
410,298,101698,2,0,P|414:327|415:357,1,42.5
348,375,101936,2,0,L|260:389,1,85,2|0,1:2|0:0,0:0:0:0:
154,283,102413,2,0,L|240:293,1,85,10|0,0:0|0:0,0:0:0:0:
34,367,102889,5,2,1:2:0:0:
222,220,103127,1,2,0:0:0:0:
222,220,103246,1,0,0:0:0:0:
222,220,103365,2,0,P|214:175|192:106,1,85,10|0,0:0|0:0,0:0:0:0:
73,33,103841,2,0,L|225:48,1,127.5,2|0,1:2|0:0,0:0:0:0:
199,45,104317,1,10,0:0:0:0:
224,72,104436,5,0,0:0:0:0:
263,86,104555,1,2,0:0:0:0:
305,82,104674,1,0,0:0:0:0:
341,60,104793,1,2,1:2:0:0:
460,141,105032,6,0,L|468:193,1,42.5,2|2,0:0|0:0,0:0:0:0:
478,253,105270,1,10,0:0:0:0:
407,234,105389,1,0,0:0:0:0:
407,234,105508,2,0,P|377:246|364:253,1,42.5,2|0,0:0|0:0,0:0:0:0:
305,297,105746,1,2,1:2:0:0:
114,353,105984,6,0,L|110:288,1,42.5
106,238,106222,1,10,0:0:0:0:
288,373,106460,1,0,0:0:0:0:
334,168,106698,6,0,L|339:117,1,42.5,2|0,1:2|0:0,0:0:0:0:
176,168,106936,2,0,L|171:117,1,42.5,2|0,0:0|0:0,0:0:0:0:
257,228,107175,1,10,0:0:0:0:
392,348,107413,1,2,0:0:0:0:
392,348,107532,1,0,0:0:0:0:
392,348,107651,2,0,L|491:357,1,85,2|0,1:2|0:0,0:0:0:0:
426,116,108127,2,0,B|399:98|399:98|423:159|420:203,1,127.5,10|0,0:0|0:0,0:0:0:0:
391,259,108603,6,0,L|330:270,1,42.5,2|0,1:2|0:0,0:0:0:0:
319,350,108841,2,0,L|277:342,1,42.5,2|0,0:0|0:0,0:0:0:0:
204,333,109079,1,10,0:0:0:0:
266,273,109198,1,0,0:0:0:0:
204,333,109317,1,0,0:0:0:0:
113,215,109556,2,0,L|105:114,1,85,2|0,1:2|0:0,0:0:0:0:
216,34,110032,2,0,L|224:135,1,85,10|0,0:0|0:0,0:0:0:0:
298,210,110508,5,2,1:2:0:0:
338,222,110627,1,0,0:0:0:0:
379,214,110746,2,0,L|390:275,1,42.5,2|0,0:0|0:0,0:0:0:0:
369,333,110984,5,2,1:2:0:0:
348,337,111103,1,0,0:0:0:0:
327,341,111222,1,0,0:0:0:0:
306,346,111341,1,0,0:0:0:0:
285,351,111460,2,0,L|238:361,1,42.5,2|0,1:2|0:0,0:0:0:0:
131,326,111698,5,2,0:0:0:0:
90,313,111817,1,0,0:0:0:0:
49,321,111936,2,0,L|38:260,1,42.5,2|0,1:2|0:0,0:0:0:0:
104,222,112175,1,2,1:2:0:0:
145,209,112294,1,0,0:0:0:0:
186,217,112413,6,0,L|234:227,3,42.5,2|0|0|0,1:2|0:0|0:0|0:0,0:0:0:0:
301,205,113008,2,0,L|342:196,3,42.5,2|0|0|0,0:0|0:0|0:0|0:0,0:0:0:0:
301,205,114317,6,0,B|354:145|430:160|430:160|401:169|392:201,1,203.999993774414,6|10,1:2|0:0,0:0:0:0:
392,201,115032,2,0,L|378:263,1,42.5,2|0,0:0|0:0,0:0:0:0:
441,284,115389,2,0,P|427:298|414:317,1,42.5,2|0,0:0|0:0,0:0:0:0:
310,256,115746,2,0,P|317:277|320:297,1,42.5,10|0,0:0|0:0,0:0:0:0:
356,361,115984,1,2,0:0:0:0:
243,330,116222,6,0,P|188:338|146:354,1,85,2|2,1:2|0:0,0:0:0:0:
1,240,116698,1,10,0:0:0:0:
201,168,116936,1,2,0:0:0:0:
70,48,117175,5,2,1:2:0:0:
107,158,117294,2,0,L|114:116,1,42.5,2|0,0:0|0:0,0:0:0:0:
206,9,117532,2,0,P|224:47|227:89,1,85,2|0,0:0|0:0,0:0:0:0:
301,133,117889,2,0,L|348:124,1,42.5,2|0,0:0|0:0,0:0:0:0:
428,114,118127,6,0,L|440:30,1,85,2|0,1:2|0:0,0:0:0:0:
501,227,118484,1,2,0:0:0:0:
498,215,118603,2,0,L|509:130,1,85,10|0,0:0|0:0,0:0:0:0:
369,279,118960,1,2,0:0:0:0:
366,267,119079,2,0,L|377:182,1,85,2|0,1:2|0:0,0:0:0:0:
512,326,119556,1,10,0:0:0:0:
444,355,119675,1,2,0:0:0:0:
512,326,119794,1,2,0:0:0:0:
296,355,120032,5,2,1:2:0:0:
288,358,120270,2,0,L|235:351,1,42.5,2|0,0:0|0:0,0:0:0:0:
161,342,120508,2,0,P|141:304|136:262,1,85,10|0,0:0|0:0,0:0:0:0:
247,122,120984,1,2,1:2:0:0:
221,220,121222,1,2,0:0:0:0:
16,174,121460,6,0,L|58:168,1,31.8750012159348,10|0,0:2|0:0,0:0:0:0:
124,156,121698,2,0,L|166:150,1,31.8750012159348,2|0,0:0|0:0,0:0:0:0:
235,319,121936,6,0,B|120:295|145:383|25:364,1,220.999989883423,6|8,1:2|0:0,0:0:0:0:
27,365,122651,2,0,P|37:344|42:310,1,42.5,2|0,0:0|0:0,0:0:0:0:
92,272,123008,2,0,P|83:250|62:223,1,42.5,2|0,0:0|0:0,0:0:0:0:
13,194,123365,1,10,0:0:0:0:
215,11,123603,6,0,P|226:51|229:94,1,85,2|0,0:0|1:0,0:0:0:0:
433,258,124079,1,2,0:0:0:0:
328,379,124317,2,0,P|331:336|342:295,1,85,10|0,0:0|0:0,0:0:0:0:
266,209,124794,2,0,L|273:257,1,42.5,2|0,1:2|0:0,0:0:0:0:
206,295,125032,1,2,0:0:0:0:
383,192,125270,1,10,0:0:0:0:
169,117,125508,6,0,P|113:108|76:87,1,85,2|0,0:0|1:0,0:0:0:0:
300,266,125984,2,0,L|352:259,1,42.5,2|0,0:0|0:0,0:0:0:0:
422,315,126222,2,0,P|423:274|431:230,1,85,10|0,0:0|0:0,0:0:0:0:
487,90,126579,2,0,L|500:175,1,85,2|0,0:0|0:0,0:0:0:0:
438,227,126936,1,2,0:0:0:0:
331,24,127175,1,10,0:0:0:0:
272,95,127413,2,0,L|268:139,1,42.5,2|0,0:0|0:0,0:0:0:0:
257,225,127651,6,0,P|204:190|141:186,1,127.5,6|2,1:2|1:2,0:0:0:0:
6,41,128365,1,2,1:2:0:0:
63,115,128841,2,0,L|51:242,1,127.5,2|2,1:2|1:2,0:0:0:0:
275,355,129556,6,0,L|264:254,1,85,4|0,0:0|0:0,0:0:0:0:
270,84,130032,2,0,L|281:185,1,85,8|0,0:0|0:0,0:0:0:0:
139,226,130508,2,0,L|240:215,1,85,8|0,0:0|0:0,0:0:0:0:
410,221,130984,2,0,L|309:232,1,85,8|0,0:0|0:0,0:0:0:0:
74,291,131460,6,0,P|57:243|73:159,1,127.5,8|0,0:0|0:0,0:0:0:0:
139,226,131936,1,8,0:0:0:0:
44,85,132175,1,0,0:0:0:0:
205,157,132413,1,8,0:0:0:0:
51,71,132651,1,0,0:0:0:0:
276,104,132889,2,0,P|289:160|288:203,1,85,8|0,0:0|0:0,0:0:0:0:
187,341,133365,6,0,L|320:354,1,127.5,8|0,0:0|0:0,0:0:0:0:
338,336,133841,1,8,0:0:0:0:
266,271,134079,1,0,0:0:0:0:
429,317,134317,1,8,0:0:0:0:
257,254,134556,1,0,0:0:0:0:
441,304,134794,2,0,L|451:214,1,85,8|0,0:0|0:0,0:0:0:0:
232,20,135270,6,0,P|223:64|248:159,1,127.5,8|0,0:0|0:0,0:0:0:0:
302,180,135746,2,0,L|414:192,1,85,8|0,0:0|0:0,0:0:0:0:
489,123,136222,1,8,0:0:0:0:
381,273,136460,1,0,0:0:0:0:
333,98,136698,1,8,0:0:0:0:
377,291,136936,1,0,0:0:0:0:
324,113,137175,6,0,P|267:112|198:97,1,127.5,8|0,0:0|0:0,0:0:0:0:
200,102,137651,1,8,0:0:0:0:
267,24,137889,1,0,0:0:0:0:
201,194,138127,2,0,L|116:204,1,85,8|0,0:0|0:0,0:0:0:0:
183,297,138603,2,0,L|98:310,1,85,8|0,0:0|0:0,0:0:0:0:
276,362,139079,6,0,L|418:372,1,127.5,8|0,0:0|0:0,0:0:0:0:
403,370,139556,1,8,0:0:0:0:
310,186,139794,1,0,0:0:0:0:
286,50,140032,1,8,0:0:0:0:
430,33,140270,1,0,0:0:0:0:
443,182,140508,2,0,L|436:284,1,85,8|0,0:0|0:0,0:0:0:0:
279,343,140984,6,0,B|197:320|197:371|108:349,1,170,8|8,0:0|0:0,0:0:0:0:
39,289,141698,1,0,0:0:0:0:
268,254,141936,1,8,0:0:0:0:
118,94,142175,1,0,0:0:0:0:
165,288,142413,1,8,0:0:0:0:
168,267,142532,2,0,L|174:218,1,42.5
164,29,142889,6,0,P|109:20|41:72,2,127.5,8|0|0,0:0|0:0|0:0,0:0:0:0:
218,103,143841,2,0,P|258:118|333:69,1,127.5,8|0,0:0|0:0,0:0:0:0:
348,51,144317,1,8,0:0:0:0:
348,51,144675,1,0,0:0:0:0:
348,51,144794,5,6,1:2:0:0:
223,161,145032,1,2,0:0:0:0:
219,140,145151,1,2,0:0:0:0:
216,119,145270,1,10,0:0:0:0:
349,244,145508,2,0,P|352:203|361:160,1,85,2|0,0:0|1:2,0:0:0:0:
147,283,145984,1,0,0:0:0:0:
143,262,146103,1,0,0:0:0:0:
140,241,146222,1,10,0:0:0:0:
256,375,146460,2,0,L|250:292,1,42.5,2|0,0:0|0:0,0:0:0:0:
247,243,146698,5,6,1:2:0:0:
434,357,146936,1,2,0:0:0:0:
355,345,147055,1,2,0:0:0:0:
434,357,147175,1,10,0:0:0:0:
487,268,147413,1,2,0:0:0:0:
437,162,147651,1,2,1:2:0:0:
317,153,147889,1,0,0:0:0:0:
230,249,148127,2,0,L|137:239,1,85,10|2,0:0|0:0,0:0:0:0:
91,189,148484,1,0,0:0:0:0:
40,247,148603,6,0,P|31:288|34:344,1,85,6|0,1:2|0:0,0:0:0:0:
91,189,148960,1,2,0:0:0:0:
41,136,149079,2,0,L|26:46,1,85,10|0,0:0|0:0,0:0:0:0:
302,230,149556,2,0,P|254:189|192:194,1,127.5,2|0,1:2|0:0,0:0:0:0:
118,304,150032,2,0,P|180:309|228:270,1,127.5,10|0,0:0|0:0,0:0:0:0:
159,147,150508,6,0,L|155:232,1,85,2|0,1:2|0:0,0:0:0:0:
227,66,150865,1,2,0:0:0:0:
165,134,150984,2,0,P|104:138|40:52,2,170,10|2|10,0:0|1:2|0:0,0:0:0:0:
426,49,152294,1,2,1:2:0:0:
352,17,152413,6,0,L|341:119,1,85,6|2,1:2|0:0,0:0:0:0:
470,221,152770,1,2,0:0:0:0:
391,252,152889,2,0,L|401:172,1,42.5,10|0,0:0|0:0,0:0:0:0:
512,121,153127,6,0,L|425:132,1,85,2|0,0:0|1:0,0:0:0:0:
125,150,153484,1,2,0:0:0:0:
213,163,153603,2,0,L|300:174,1,85,2|8,0:0|0:0,0:0:0:0:
349,103,154079,2,0,L|336:44,1,42.5,2|0,0:0|0:0,0:0:0:0:
269,17,154317,5,6,1:2:0:0:
323,273,154556,1,2,0:0:0:0:
380,220,154675,1,2,0:0:0:0:
323,273,154794,2,0,P|266:281|223:299,1,85,10|2,0:0|0:0,0:0:0:0:
58,118,155270,1,2,1:2:0:0:
9,188,155389,2,0,L|117:202,1,85,2|0,0:0|0:0,0:0:0:0:
168,149,155746,2,0,P|181:108|182:66,1,85,10|0,0:0|0:0,0:0:0:0:
129,14,156103,1,2,0:0:0:0:
236,192,156222,6,0,B|323:169|309:219|402:198,1,170,6|10,1:2|0:0,0:0:0:0:
488,134,156936,2,0,L|497:81,2,42.5,2|0|0,0:0|0:0|1:2,0:0:0:0:
476,224,157294,1,2,0:0:0:0:
476,224,157413,2,0,L|462:288,1,42.5,2|0,0:0|0:0,0:0:0:0:
499,345,157651,5,10,0:0:0:0:
344,271,157889,1,2,0:0:0:0:
346,283,158008,1,2,0:0:0:0:
348,295,158127,1,2,0:0:0:0:
408,185,158365,1,2,0:0:0:0:
213,271,158603,1,2,0:0:0:0:
418,364,158841,1,2,0:0:0:0:
284,138,159079,5,2,0:3:0:0:
314,229,159198,1,2,0:3:0:0:
284,138,159317,2,0,L|293:64,1,42.5,2|0,0:3|0:0,0:0:0:0:
234,33,159556,5,2,0:3:0:0:
399,152,159675,1,2,0:3:0:0:
213,219,159794,2,0,L|152:209,1,42.5,2|0,0:3|0:0,0:0:0:0:
97,179,160032,6,0,L|90:107,1,50.9999984436036,4|0,0:0|0:0,0:0:0:0:
50,40,160270,2,0,P|82:48|108:51,1,50.9999984436036
197,37,160508,1,8,0:0:0:0:
197,37,160746,1,0,0:0:0:0:
197,37,160984,2,0,L|207:138,1,101.999996887207,0|0,1:0|0:0,0:0:0:0:
216,211,161341,1,0,0:0:0:0:
340,96,161460,1,8,0:0:0:0:
340,96,161698,2,0,P|358:132|363:151,1,50.9999984436036,2|0,1:0|0:0,0:0:0:0:
374,230,161936,6,0,L|371:298,1,50.9999984436036,2|0,0:0|0:0,0:0:0:0:
285,349,162175,2,0,L|282:298,1,50.9999984436036
182,223,162413,2,0,L|179:291,1,50.9999984436036,8|0,0:0|0:0,0:0:0:0:
83,326,162651,1,2,0:0:0:0:
160,366,162770,1,0,0:0:0:0:
83,326,162889,2,0,L|72:214,1,101.999996887207,0|0,1:0|0:0,0:0:0:0:
193,51,163246,1,0,0:0:0:0:
193,51,163365,2,0,P|213:94|185:199,1,152.999995330811,8|0,0:0|0:0,0:0:0:0:
128,120,163841,5,2,1:0:0:0:
294,187,164079,1,0,0:0:0:0:
153,330,164317,2,0,L|271:342,1,101.999996887207,8|0,0:0|0:0,0:0:0:0:
333,346,164675,1,0,0:0:0:0:
294,278,164794,1,2,1:0:0:0:
294,278,165032,1,0,0:0:0:0:
333,346,165151,1,0,0:0:0:0:
379,280,165270,2,0,L|383:228,1,50.9999984436036,8|0,0:0|0:0,0:0:0:0:
283,50,165508,6,0,L|296:119,1,50.9999984436036,2|0,1:0|0:0,0:0:0:0:
317,177,165746,1,0,0:0:0:0:
317,177,165984,1,2,1:0:0:0:
240,193,166103,1,0,0:0:0:0:
294,249,166222,1,8,0:0:0:0:
294,249,166460,1,2,1:0:0:0:
102,125,166698,5,2,1:0:0:0:
132,216,166817,1,0,0:0:0:0:
102,125,166936,2,0,L|112:39,1,50.9999984436036,2|0,0:0|0:0,0:0:0:0:
220,237,167175,5,2,1:0:0:0:
190,328,167294,1,0,0:0:0:0:
220,237,167413,2,0,L|210:151,1,50.9999984436036,2|0,0:0|0:0,0:0:0:0:
180,106,167651,6,0,P|211:103|249:91,1,50.9999984436036,4|0,0:0|0:0,0:0:0:0:
391,201,167889,2,0,L|334:189,1,50.9999984436036
227,243,168127,1,8,0:0:0:0:
227,243,168365,1,0,0:0:0:0:
227,243,168603,2,0,L|237:344,1,101.999996887207,0|0,1:0|0:0,0:0:0:0:
311,369,168960,1,0,0:0:0:0:
375,322,169079,1,8,0:0:0:0:
375,322,169317,2,0,L|377:262,1,50.9999984436036
388,174,169556,6,0,P|365:179|328:180,1,50.9999984436036,0|0,1:0|0:0,0:0:0:0:
246,62,169794,2,0,P|269:57|306:56,1,50.9999984436036
306,279,170032,2,0,P|283:284|246:285,1,50.9999984436036,8|0,0:0|0:0,0:0:0:0:
164,167,170271,2,0,P|187:162|224:161,1,50.9999984436036
73,224,170508,5,0,1:0:0:0:
79,237,170627,1,0,0:0:0:0:
81,261,170746,1,0,0:0:0:0:
74,308,170865,1,0,0:0:0:0:
108,298,170984,2,0,L|177:311,1,50.9999984436036,8|0,0:0|0:0,0:0:0:0:
226,365,171222,2,0,L|295:352,1,50.9999984436036
358,340,171460,5,2,1:0:0:0:
235,255,171698,1,2,1:0:0:0:
378,204,171936,2,0,L|496:216,1,101.999996887207,8|0,0:0|0:0,0:0:0:0:
447,138,172294,1,0,0:0:0:0:
479,214,172413,1,2,1:0:0:0:
250,350,172651,1,2,1:0:0:0:
257,278,172770,2,0,L|261:226,1,50.9999984436036,0|8,0:0|0:0,0:0:0:0:
261,228,173127,6,0,P|238:236|207:240,1,50.9999984436036,2|0,1:0|0:0,0:0:0:0:
51,179,173365,1,8,0:0:0:0:
256,192,173484,12,0,175151,0:0:0:0:
