osu file format v14

[General]
AudioFilename: One Night.mp3
AudioLeadIn: 0
PreviewTime: 14632
Countdown: 1
SampleSet: Soft
StackLeniency: 0.7
Mode: 0
LetterboxInBreaks: 1
WidescreenStoryboard: 1

[Editor]
DistanceSpacing: 1.1
BeatDivisor: 4
GridSize: 4
TimelineZoom: 2.2

[Metadata]
Title:One Night
TitleUnicode:One Night
Artist:DJ Doc
ArtistUnicode:DJ Doc
Creator:Dromadan
Version:Insane
Source:Pump It Up NX
Tags:k-pop pump it up nx
BeatmapID:710480
BeatmapSetID:319145

[Difficulty]
HPDrainRate:7
CircleSize:4
OverallDifficulty:8
ApproachRate:8.6
SliderMultiplier:1.6
SliderTickRate:4

[Events]
//Background and Video events
0,0,"title.png",0,0
//Break Periods
//Storyboard Layer 0 (Background)
//Storyboard Layer 1 (Fail)
//Storyboard Layer 2 (Pass)
//Storyboard Layer 3 (Foreground)
//Storyboard Sound Samples

[TimingPoints]
5550,454.545454545455,4,2,0,100,1,0
14640,-66.6666666666667,4,1,0,100,0,1
29186,-100,4,2,0,100,0,0
65322,-66.6666666666667,4,1,0,100,0,1
94640,-66.6666666666667,4,1,0,100,0,0

[HitObjects]
260,216,5549,5,0,0:0:0:0:
260,148,5777,5,0,0:0:0:0:
260,148,5890,1,0,0:0:0:0:
260,148,6004,1,2,0:0:0:0:
336,196,6231,1,0,0:0:0:0:
336,196,6345,1,0,0:0:0:0:
336,196,6459,1,2,0:0:0:0:
412,184,6686,2,0,L|412:224,3,40
308,304,7140,6,0,P|248:288|200:264,1,80,0|8,0:0|0:0,0:0:0:0:
136,228,7595,1,0,0:0:0:0:
208,120,7822,2,0,P|268:96|320:88,1,80
360,128,8277,1,8,0:0:0:0:
384,148,8390,1,0,0:0:0:0:
400,176,8504,1,0,0:0:0:0:
408,208,8618,1,0,0:0:0:0:
400,240,8731,1,4,0:0:0:0:
300,272,8959,5,0,0:0:0:0:
176,228,9186,1,8,0:0:0:0:
164,200,9300,1,0,0:0:0:0:
164,168,9413,1,0,0:0:0:0:
176,140,9527,1,0,0:0:0:0:
196,112,9640,2,0,L|228:80,1,40
256,72,9868,1,0,0:0:0:0:
288,64,9981,1,0,0:0:0:0:
320,60,10095,1,12,0:0:0:0:
408,192,10322,6,0,P|368:236|336:256,1,80
96,240,10777,2,0,P|136:196|168:176,1,80,0|8,0:0|0:0,0:0:0:0:
324,68,11231,2,0,P|364:104|388:140,1,80
304,320,11686,1,0,0:0:0:0:
280,300,11800,1,0,0:0:0:0:
252,284,11913,1,8,0:0:0:0:
116,248,12140,2,0,P|88:224|72:184,1,80,0|4,0:0|0:0,0:0:0:0:
256,192,12595,5,4,0:0:0:0:
152,36,12822,1,4,0:0:0:0:
104,304,13050,2,4,P|164:344|200:344,1,80,2|4,0:0|0:0,0:0:0:0:
356,40,13504,1,4,0:0:0:0:
408,304,13731,2,4,P|348:344|312:344,1,80,2|4,0:0|0:0,0:0:0:0:
292,40,14186,2,4,P|256:28|216:44,1,80
80,108,14640,5,8,0:0:0:0:
96,136,14754,1,0,0:0:0:0:
120,156,14868,1,2,0:0:0:0:
216,104,15095,1,0,0:0:0:0:
352,176,15322,1,0,0:0:0:0:
348,268,15550,5,8,0:0:0:0:
320,280,15663,1,0,0:0:0:0:
288,284,15777,1,2,0:0:0:0:
92,260,16004,1,0,0:0:0:0:
160,140,16231,1,0,0:0:0:0:
72,316,16459,5,8,0:0:0:0:
104,308,16572,1,0,0:0:0:0:
136,300,16686,1,0,0:0:0:0:
168,292,16800,1,0,0:0:0:0:
200,284,16913,1,2,0:0:0:0:
280,172,17140,1,0,0:0:0:0:
368,260,17368,1,8,0:0:0:0:
396,244,17481,1,0,0:0:0:0:
424,224,17595,1,0,0:0:0:0:
316,64,17822,6,0,P|304:92|228:148,1,120.000004577637
80,124,18277,1,8,0:0:0:0:
76,156,18390,1,0,0:0:0:0:
80,188,18504,1,2,0:0:0:0:
112,308,18731,1,0,0:0:0:0:
272,252,18959,1,0,0:0:0:0:
384,116,19186,1,8,0:0:0:0:
352,108,19300,1,0,0:0:0:0:
320,104,19413,1,2,0:0:0:0:
76,56,19640,2,0,P|60:92|84:172,1,120.000004577637
60,260,20095,5,0,0:0:0:0:
252,332,20322,1,0,0:0:0:0:
284,328,20436,1,0,0:0:0:0:
312,316,20550,1,0,0:0:0:0:
340,300,20663,1,2,0:0:0:0:
76,72,21004,1,4,0:0:0:0:
56,304,21231,1,4,0:0:0:0:
272,212,21459,1,4,0:0:0:0:
272,56,21686,2,0,P|336:68|404:112,1,120.000004577637
424,116,22027,5,0,0:0:0:0:
460,148,22140,1,2,0:0:0:0:
364,296,22368,2,8,P|320:312|240:312,1,120.000004577637,8|0,0:0|0:0,0:0:0:0:
96,276,22822,1,0,0:0:0:0:
72,236,22936,1,0,0:0:0:0:
68,188,23050,1,2,0:0:0:0:
292,44,23277,2,0,P|368:52|420:80,1,120.000004577637,8|0,0:0|0:0,0:0:0:0:
404,204,23731,5,0,0:0:0:0:
364,232,23845,1,0,0:0:0:0:
320,252,23959,1,0,0:0:0:0:
276,272,24072,1,0,0:0:0:0:
232,288,24186,1,10,0:0:0:0:
116,244,24413,1,0,0:0:0:0:
48,116,24640,1,0,0:0:0:0:
88,88,24754,1,0,0:0:0:0:
132,64,24868,1,0,0:0:0:0:
180,56,24981,1,0,0:0:0:0:
228,48,25095,1,10,0:0:0:0:
280,128,25322,5,0,0:0:0:0:
368,168,25550,1,0,0:0:0:0:
404,200,25663,1,0,0:0:0:0:
428,244,25777,1,0,0:0:0:0:
160,308,26004,2,0,P|100:288|76:236,1,120.000004577637,10|0,0:0|0:0,0:0:0:0:
136,88,26459,1,0,0:0:0:0:
184,80,26572,1,0,0:0:0:0:
232,76,26686,1,0,0:0:0:0:
384,104,26913,2,0,P|424:128|460:196,1,120.000004577637,10|0,0:0|0:0,0:0:0:0:
360,284,27368,5,0,0:0:0:0:
212,288,27595,1,0,0:0:0:0:
168,272,27709,1,0,0:0:0:0:
124,252,27822,1,0,0:0:0:0:
88,220,27936,1,2,0:0:0:0:
472,76,28277,5,4,0:0:0:0:
440,272,28504,1,4,0:0:0:0:
256,144,28731,1,4,0:0:0:0:
88,284,28959,1,4,0:0:0:0:
284,312,29186,2,10,P|336:296|408:220,1,160,2|10,0:0|0:0,0:0:0:0:
256,188,29868,2,0,P|216:188|144:176,1,80
48,268,30322,1,0,0:0:0:0:
128,312,30550,2,0,P|176:328|232:312,1,80,8|0,0:0|0:0,0:0:0:0:
316,92,31004,2,2,P|292:72|188:48,2,120
356,224,31913,1,0,0:0:0:0:
244,336,32140,5,0,0:0:0:0:
104,256,32368,2,2,P|68:228|48:184,1,80,10|2,0:0|0:0,0:0:0:0:
280,64,32822,2,2,P|336:68|400:92,2,120
76,200,33731,2,2,P|76:240|120:304,2,120
412,116,34640,2,2,P|456:184|456:236,2,120
112,88,35550,2,8,P|68:128|48:152,1,80,8|0,0:0|0:0,0:0:0:0:
256,36,36004,5,0,0:0:0:0:
256,196,36231,1,0,0:0:0:0:
176,320,36459,1,0,0:0:0:0:
328,320,36686,1,0,0:0:0:0:
256,192,36913,1,8,0:0:0:0:
92,192,37140,1,0,0:0:0:0:
436,192,37368,1,0,0:0:0:0:
296,76,37595,2,2,P|240:72|192:80,1,80,2|10,0:0|0:0,0:0:0:0:
116,296,38050,1,0,0:0:0:0:
224,112,38277,2,0,L|268:112,1,40
416,196,38618,1,0,0:0:0:0:
96,192,38845,1,0,0:0:0:0:
256,40,39072,2,2,P|312:56|368:92,1,120
124,328,39640,6,2,P|96:288|96:248,1,80,10|2,0:0|0:0,0:0:0:0:
256,188,40095,1,0,0:0:0:0:
256,188,40209,1,0,0:0:0:0:
256,188,40322,1,0,0:0:0:0:
332,76,40550,2,2,P|372:88|416:128,1,80,10|2,0:0|0:0,0:0:0:0:
104,112,41004,1,0,0:0:0:0:
104,112,41118,1,0,0:0:0:0:
104,112,41231,1,0,0:0:0:0:
88,224,41459,2,2,P|120:292|132:304,1,80,10|2,0:0|0:0,0:0:0:0:
256,192,41913,12,0,43277,0:0:0:0:
336,312,43504,6,0,P|376:288|412:260,1,80
396,184,43959,1,0,0:0:0:0:
360,160,44072,1,0,0:0:0:0:
320,144,44186,1,8,0:0:0:0:
276,132,44300,1,0,0:0:0:0:
232,128,44413,2,0,P|176:128|132:132,1,80
92,296,44868,1,0,0:0:0:0:
136,296,44981,1,0,0:0:0:0:
184,288,45095,2,0,P|232:272|276:240,1,80,8|0,0:0|0:0,0:0:0:0:
396,116,45550,5,0,0:0:0:0:
360,97,45663,1,0,0:0:0:0:
324,80,45777,1,0,0:0:0:0:
286,67,45890,1,0,0:0:0:0:
247,58,46004,1,0,0:0:0:0:
207,54,46118,1,0,0:0:0:0:
168,58,46231,1,0,0:0:0:0:
131,72,46345,1,0,0:0:0:0:
101,99,46459,1,0,0:0:0:0:
81,133,46572,1,0,0:0:0:0:
72,172,46686,1,0,0:0:0:0:
68,212,46800,1,0,0:0:0:0:
68,244,46913,2,0,P|84:268|144:296,1,80
408,264,47368,6,2,P|424:216|420:176,1,80
320,240,47822,1,8,0:0:0:0:
304,128,48050,1,0,0:0:0:0:
260,132,48163,1,0,0:0:0:0:
216,140,48277,1,0,0:0:0:0:
184,168,48390,1,0,0:0:0:0:
152,196,48504,2,2,P|108:240|96:260,1,80,2|10,0:0|0:0,0:0:0:0:
352,60,48959,5,0,0:0:0:0:
388,84,49072,1,0,0:0:0:0:
416,116,49186,1,0,0:0:0:0:
256,192,49413,1,0,0:0:0:0:
256,192,49527,1,0,0:0:0:0:
256,192,49640,12,0,50777,0:0:0:0:
304,316,51004,5,0,0:0:0:0:
344,300,51118,1,0,0:0:0:0:
384,284,51231,1,0,0:0:0:0:
224,80,51459,2,0,P|168:112|152:128,1,80,8|0,0:0|0:0,0:0:0:0:
128,152,51800,1,0,0:0:0:0:
104,208,51913,1,0,0:0:0:0:
320,64,52140,1,0,0:0:0:0:
356,88,52254,1,0,0:0:0:0:
392,116,52368,1,8,0:0:0:0:
124,304,52595,1,0,0:0:0:0:
344,320,52822,5,0,0:0:0:0:
384,304,52936,1,0,0:0:0:0:
420,280,53050,1,0,0:0:0:0:
320,28,53277,2,2,P|236:16|200:20,1,120,10|2,0:0|0:0,0:0:0:0:
164,40,53731,1,0,0:0:0:0:
124,60,53845,1,0,0:0:0:0:
60,200,54072,1,0,0:0:0:0:
104,212,54186,1,8,0:0:0:0:
148,224,54300,1,0,0:0:0:0:
188,232,54413,1,0,0:0:0:0:
312,288,54640,2,2,P|276:308|180:312,2,120
356,272,55436,1,0,0:0:0:0:
396,252,55550,1,0,0:0:0:0:
256,136,55777,5,0,0:0:0:0:
84,136,56004,1,8,0:0:0:0:
96,180,56118,1,0,0:0:0:0:
124,212,56231,2,0,P|160:240|212:244,1,80
336,328,56686,2,0,P|388:288|408:252,1,80,0|8,0:0|0:0,0:0:0:0:
320,40,57140,1,0,0:0:0:0:
276,52,57254,1,0,0:0:0:0:
232,64,57368,1,0,0:0:0:0:
188,76,57481,1,0,0:0:0:0:
152,100,57595,2,0,P|120:144|108:168,1,80,0|8,0:0|0:0,0:0:0:0:
112,304,58050,6,0,P|160:296|200:276,1,80
264,260,58390,1,0,0:0:0:0:
304,308,58561,2,0,P|360:288|396:252,1,80
396,208,59015,2,2,B|368:160|372:76|292:40,1,200,2|10,0:0|0:0,0:0:0:0:
48,304,59868,6,0,P|96:252|132:232,1,80
144,236,60209,1,0,0:0:0:0:
380,280,60379,2,0,P|384:196|376:164,1,80
288,20,60834,2,2,B|256:68|264:108|252:168,1,120
192,288,61459,1,8,0:0:0:0:
364,208,61686,1,0,0:0:0:0:
460,316,61913,5,0,0:0:0:0:
460,316,62027,1,0,0:0:0:0:
196,304,62254,2,2,P|212:256|232:204,1,80
328,224,62709,2,2,P|368:184|388:108,1,120
256,44,63277,1,0,0:0:0:0:
256,44,63504,1,0,0:0:0:0:
120,76,63731,5,4,0:0:0:0:
420,304,63959,1,4,0:0:0:0:
112,304,64186,1,4,0:0:0:0:
412,80,64413,1,4,0:0:0:0:
108,56,64640,1,4,0:0:0:0:
144,80,64754,1,0,0:0:0:0:
184,100,64868,1,0,0:0:0:0:
220,124,64981,1,0,0:0:0:0:
256,152,65095,1,0,0:0:0:0:
292,180,65209,1,0,0:0:0:0:
288,228,65322,6,10,P|376:124|216:96,1,360.000013732911
416,168,66231,1,0,0:0:0:0:
264,56,66459,1,0,0:0:0:0:
264,276,66686,1,0,0:0:0:0:
84,104,66913,2,2,B|72:164|84:188|72:252,1,120.000004577637,10|2,0:0|0:0,0:0:0:0:
84,272,67254,1,0,0:0:0:0:
116,308,67368,1,0,0:0:0:0:
260,196,67595,1,0,0:0:0:0:
344,116,67822,1,8,0:0:0:0:
144,64,68050,2,2,P|112:72|40:128,2,120.000004577637
196,104,68731,2,2,P|232:148|288:184,1,120.000004577637,10|2,0:0|0:0,0:0:0:0:
256,344,69186,5,0,0:0:0:0:
260,64,69413,1,0,0:0:0:0:
100,188,69640,1,8,0:0:0:0:
432,188,69868,1,0,0:0:0:0:
256,272,70095,1,0,0:0:0:0:
256,272,70322,1,0,0:0:0:0:
200,96,70550,2,0,P|216:92|332:96,1,120.000004577637,8|0,0:0|0:0,0:0:0:0:
336,248,71004,2,2,P|212:336|104:304,2,240.000009155274,2|10|2,0:0|0:0|0:0,0:0:0:0:
256,56,72140,1,0,0:0:0:0:
120,184,72368,1,8,0:0:0:0:
372,52,72595,6,2,P|416:108|456:276,1,240.000009155274
256,72,73277,1,8,0:0:0:0:
256,268,73504,1,0,0:0:0:0:
256,160,73731,1,0,0:0:0:0:
256,344,73959,1,0,0:0:0:0:
76,192,74186,1,8,0:0:0:0:
124,60,74413,5,0,0:0:0:0:
172,56,74527,1,0,0:0:0:0:
220,56,74640,1,0,0:0:0:0:
368,112,74868,1,0,0:0:0:0:
320,220,75095,1,8,0:0:0:0:
276,240,75209,1,0,0:0:0:0:
228,252,75322,1,0,0:0:0:0:
380,64,75550,6,0,L|428:104,2,60.0000022888184
292,192,76004,2,0,L|340:276,2,60.0000022888184
316,356,76459,5,0,0:0:0:0:
195,356,76686,1,0,0:0:0:0:
104,279,76913,1,0,0:0:0:0:
83,161,77140,1,0,0:0:0:0:
143,57,77368,1,0,0:0:0:0:
256,16,77595,1,0,0:0:0:0:
368,57,77822,1,0,0:0:0:0:
428,161,78050,1,0,0:0:0:0:
256,192,78277,12,8,79640,0:0:0:0:
44,112,80095,5,0,0:0:0:0:
100,92,80209,1,0,0:0:0:0:
156,76,80322,1,0,0:0:0:0:
256,192,80550,1,8,0:0:0:0:
256,192,80777,1,0,0:0:0:0:
312,320,81004,1,0,0:0:0:0:
364,288,81118,1,0,0:0:0:0:
400,240,81231,1,0,0:0:0:0:
256,88,81459,1,8,0:0:0:0:
256,88,81686,1,0,0:0:0:0:
464,80,81913,5,0,0:0:0:0:
440,136,82027,1,0,0:0:0:0:
404,184,82140,1,0,0:0:0:0:
360,224,82254,1,0,0:0:0:0:
316,264,82368,1,8,0:0:0:0:
88,320,82595,1,0,0:0:0:0:
364,320,82822,1,0,0:0:0:0:
388,264,82936,1,0,0:0:0:0:
380,204,83050,1,0,0:0:0:0:
368,144,83163,1,0,0:0:0:0:
332,96,83277,1,8,0:0:0:0:
220,52,83504,1,0,0:0:0:0:
24,272,83731,5,0,0:0:0:0:
84,280,83845,1,0,0:0:0:0:
144,280,83959,1,0,0:0:0:0:
328,96,84186,1,8,0:0:0:0:
432,176,84413,1,0,0:0:0:0:
392,332,84640,1,0,0:0:0:0:
336,316,84754,1,0,0:0:0:0:
288,280,84868,1,0,0:0:0:0:
136,136,85095,1,8,0:0:0:0:
304,68,85322,1,0,0:0:0:0:
416,152,85550,5,0,0:0:0:0:
328,296,85777,1,0,0:0:0:0:
268,292,85890,1,0,0:0:0:0:
212,276,86004,1,0,0:0:0:0:
156,252,86118,1,0,0:0:0:0:
256,20,86459,5,0,0:0:0:0:
256,316,86686,1,0,0:0:0:0:
416,132,86913,1,8,0:0:0:0:
92,136,87140,1,0,0:0:0:0:
48,288,87368,5,0,0:0:0:0:
112,296,87481,1,0,0:0:0:0:
180,296,87595,1,0,0:0:0:0:
256,188,87822,1,8,0:0:0:0:
256,188,88050,1,0,0:0:0:0:
464,96,88277,1,0,0:0:0:0:
400,88,88390,1,0,0:0:0:0:
332,88,88504,1,0,0:0:0:0:
336,316,88731,2,2,P|264:332|176:296,1,120.000004577637,10|2,0:0|0:0,0:0:0:0:
136,48,89186,5,0,0:0:0:0:
200,40,89300,1,0,0:0:0:0:
268,40,89413,1,0,0:0:0:0:
336,40,89527,1,0,0:0:0:0:
400,60,89640,1,8,0:0:0:0:
256,208,89868,1,0,0:0:0:0:
408,316,90095,1,0,0:0:0:0:
344,324,90209,1,0,0:0:0:0:
280,332,90322,1,0,0:0:0:0:
216,336,90436,1,0,0:0:0:0:
152,340,90550,1,8,0:0:0:0:
120,212,90777,1,0,0:0:0:0:
392,64,91004,5,0,0:0:0:0:
428,120,91118,1,0,0:0:0:0:
452,184,91231,1,0,0:0:0:0:
172,180,91459,1,8,0:0:0:0:
140,108,91686,1,0,0:0:0:0:
384,280,91913,5,0,0:0:0:0:
328,316,92027,1,0,0:0:0:0:
264,340,92140,1,0,0:0:0:0:
104,144,92368,1,8,0:0:0:0:
224,88,92595,1,0,0:0:0:0:
64,336,92822,5,0,0:0:0:0:
128,320,92936,1,0,0:0:0:0:
192,304,93050,1,0,0:0:0:0:
256,287,93163,1,0,0:0:0:0:
318,265,93277,1,0,0:0:0:0:
375,233,93390,1,0,0:0:0:0:
426,191,93504,1,0,0:0:0:0:
465,138,93618,1,0,0:0:0:0:
460,76,93731,1,0,0:0:0:0:
404,43,93845,1,0,0:0:0:0:
340,30,93959,1,0,0:0:0:0:
274,34,94072,1,0,0:0:0:0:
210,48,94186,1,0,0:0:0:0:
150,76,94300,1,0,0:0:0:0:
108,125,94413,1,0,0:0:0:0:
116,189,94527,1,0,0:0:0:0:
164,240,94640,1,0,0:0:0:0:
