osu file format v14

[General]
AudioFilename: audio.mp3
AudioLeadIn: 0
PreviewTime: 8746
Countdown: 0
SampleSet: None
StackLeniency: 0.7
Mode: 0
LetterboxInBreaks: 0
WidescreenStoryboard: 1

[Editor]
Bookmarks: 26360,45110,92382
DistanceSpacing: 1.3
BeatDivisor: 4
GridSize: 4
TimelineZoom: 1

[Metadata]
Title:Run to you
TitleUnicode:Run to you
Artist:DJ DOC
ArtistUnicode:DJ DOC
Creator:Bakari
Version:Hard
Source:Pump It Up The PREX 3
Tags:djdoc rap the kife do blues 5% five percent
BeatmapID:1608546
BeatmapSetID:764542

[Difficulty]
HPDrainRate:5
CircleSize:3.5
OverallDifficulty:6
ApproachRate:7
SliderMultiplier:1.5
SliderTickRate:1

[Events]
//Background and Video events
0,0,"big_1496373414_image.jpg",0,0
Video,28,"runtomebaby.avi"
//Break Periods
//Storyboard Layer 0 (Background)
//Storyboard Layer 1 (Fail)
//Storyboard Layer 2 (Pass)
//Storyboard Layer 3 (Foreground)
//Storyboard Sound Samples

[TimingPoints]
5110,454.545454545455,4,3,0,54,1,0
30564,-100,4,3,0,54,0,1
30791,-100,4,3,0,54,0,0
45110,-100,4,3,0,54,0,1
59428,-100,4,3,0,54,0,0
59655,-100,4,3,0,54,0,1
72382,-100,4,3,0,54,0,0
92496,-100,4,2,0,5,0,0

[Colours]
Combo1 : 189,176,66
Combo2 : 150,180,152
Combo3 : 155,89,89
Combo4 : 82,105,143
SliderBorder : 190,79,79
SliderTrackOverride : 79,79,190

[HitObjects]
100,312,5110,5,4,1:0:0:0:
436,340,6019,1,4,1:0:0:0:
100,312,6928,5,4,1:0:0:0:
264,272,7382,1,4,0:0:0:0:
220,108,7837,1,4,1:0:0:0:
56,144,8291,1,4,1:0:0:0:
163,355,8746,5,4,0:0:0:0:
228,300,8973,2,0,L|212:208,2,75,0|8|0,0:0|0:0|0:0,0:0:0:0:
338,361,9655,2,0,L|325:277,1,75,2|0,0:0|0:0,0:0:0:0:
372,216,10110,1,8,0:0:0:0:
420,288,10337,1,0,0:0:0:0:
261,145,10791,6,0,L|281:50,2,75,0|8|0,0:0|0:0|0:0,0:0:0:0:
143,180,11473,2,0,L|163:85,1,75,0|0,0:0|0:0,0:0:0:0:
132,24,11928,1,8,0:0:0:0:
72,84,12155,1,0,0:0:0:0:
152,288,12610,6,0,L|53:280,2,75,0|0|0,0:0|0:0|0:0,0:0:0:0:
249,204,13291,2,0,L|150:196,1,75,0|0,0:0|0:0,0:0:0:0:
96,164,13746,1,8,0:0:0:0:
164,116,13973,1,0,0:0:0:0:
20,125,14200,5,4,1:0:0:0:
322,72,14655,1,4,1:0:0:0:
20,125,15110,1,4,1:0:0:0:
322,72,15565,1,4,1:0:0:0:
219,20,15791,5,0,0:0:0:0:
244,100,16019,2,0,L|228:268,1,150,12|8,0:0|0:0,0:0:0:0:
244,328,16700,1,0,0:0:0:0:
308,272,16928,2,0,L|392:256,2,75,2|0|8,0:0|0:0|0:0,0:0:0:0:
321,356,17610,6,0,L|372:346,2,37.5,0|0|12,0:0|0:0|0:0,0:0:0:0:
244,328,18064,1,0,0:0:0:0:
164,300,18291,1,8,0:0:0:0:
80,320,18519,1,0,0:0:0:0:
20,380,18746,1,2,0:0:0:0:
72,220,19200,2,0,P|48:196|4:176,1,75,8|0,0:0|0:0,0:0:0:0:
0,92,19655,5,12,0:0:0:0:
84,72,19882,1,0,0:0:0:0:
164,100,20110,1,8,0:0:0:0:
204,176,20337,1,0,0:0:0:0:
204,260,20564,2,0,P|196:288|172:340,1,75,2|0,0:0|0:0,0:0:0:0:
92,344,21019,1,8,0:0:0:0:
92,344,21246,1,0,0:0:0:0:
18,251,21473,5,12,0:0:0:0:
18,251,21700,1,0,0:0:0:0:
94,212,21928,1,8,0:0:0:0:
94,212,22155,1,0,0:0:0:0:
166,168,22382,1,2,0:0:0:0:
28,20,22837,2,0,L|20:116,1,75,8|0,0:0|0:0,0:0:0:0:
20,180,23291,5,12,0:0:0:0:
100,148,23519,2,0,L|104:93,2,37.5,0|0|8,0:0|0:0|0:0,0:0:0:0:
176,188,23973,1,0,0:0:0:0:
320,104,24428,2,0,L|327:13,2,75,0|8|0,0:0|0:0|0:0,0:0:0:0:
380,164,25110,5,12,0:0:0:0:
452,120,25337,2,0,L|456:76,2,37.5,0|0|8,0:0|0:0|0:0,0:0:0:0:
504,188,25791,1,0,0:0:0:0:
432,236,26019,1,2,0:0:0:0:
276,172,26473,2,0,L|168:160,1,75,8|0,0:0|0:0,0:0:0:0:
140,220,26928,5,12,0:0:0:0:
124,136,27155,1,0,0:0:0:0:
72,296,27610,1,0,0:0:0:0:
140,220,27837,1,2,0:0:0:0:
136,368,28291,5,8,0:0:0:0:
72,296,28519,1,0,0:0:0:0:
136,368,28746,5,12,0:0:0:0:
72,296,28973,1,0,0:0:0:0:
124,228,29200,1,0,0:0:0:0:
104,144,29428,1,0,0:0:0:0:
168,92,29655,1,2,0:0:0:0:
307,218,30110,5,8,0:0:0:0:
307,218,30337,1,2,0:0:0:0:
353,116,30564,6,0,L|368:11,1,75,12|0,0:0|0:0,0:0:0:0:
430,189,31019,1,8,0:0:0:0:
430,189,31246,1,0,0:0:0:0:
387,320,31473,1,2,0:0:0:0:
316,276,31700,1,0,0:0:0:0:
232,292,31928,1,8,0:0:0:0:
172,356,32155,1,0,0:0:0:0:
17,292,32382,6,0,L|111:301,1,75,12|0,0:0|0:0,0:0:0:0:
7,192,32837,1,8,0:0:0:0:
7,192,33064,1,0,0:0:0:0:
207,72,33519,1,0,0:0:0:0:
276,124,33746,1,8,0:0:0:0:
196,156,33973,1,0,0:0:0:0:
207,72,34200,5,12,0:0:0:0:
368,124,34655,1,8,0:0:0:0:
320,196,34882,1,0,0:0:0:0:
272,268,35110,2,0,L|284:360,1,75,2|0,0:0|0:0,0:0:0:0:
196,332,35564,2,0,L|184:240,1,75,8|0,0:0|0:0,0:0:0:0:
232,184,36019,5,12,0:0:0:0:
368,284,36473,1,8,0:0:0:0:
368,284,36700,1,0,0:0:0:0:
476,202,36928,2,0,L|461:285,1,75,2|0,0:0|0:0,0:0:0:0:
422,128,37382,1,8,0:0:0:0:
422,128,37610,1,0,0:0:0:0:
337,226,37837,6,0,L|329:172,3,37.5,12|0|0|0,0:0|0:0|0:0|0:0,0:0:0:0:
296,164,38291,2,0,L|316:113,3,37.5,8|0|0|0,0:0|0:0|0:0|0:0,0:0:0:0:
284,92,38746,2,0,L|326:58,3,37.5,2|0|0|0,0:0|0:0|0:0|0:0,0:0:0:0:
308,28,39200,1,8,0:0:0:0:
348,16,39314,1,0,0:0:0:0:
392,16,39428,1,0,0:0:0:0:
494,88,39655,6,0,P|506:122|510:185,1,75,12|0,0:0|0:0,0:0:0:0:
444,212,40110,1,8,0:0:0:0:
444,212,40337,1,0,0:0:0:0:
326,196,40564,6,0,P|314:162|310:99,1,75,4|0,0:0|0:0,0:0:0:0:
368,60,41019,1,0,0:0:0:0:
368,60,41246,1,0,0:0:0:0:
443,183,41473,5,4,1:0:0:0:
24,153,42382,1,4,1:0:0:0:
459,30,43291,5,4,1:0:0:0:
406,251,43746,1,4,1:0:0:0:
459,30,44200,1,4,1:0:0:0:
406,251,44655,1,4,1:0:0:0:
198,177,45110,6,0,P|163:195|129:309,1,150,12|8,0:0|0:0,0:0:0:0:
176,376,45791,1,0,0:0:0:0:
248,312,46019,2,0,L|340:300,1,75,2|0,0:0|0:0,0:0:0:0:
408,348,46473,1,8,0:0:0:0:
488,292,46700,1,0,0:0:0:0:
366,111,47155,6,0,P|311:83|280:5,1,150,0|0,0:0|0:0,0:0:0:0:
181,91,47837,2,0,P|139:96|85:84,1,75,2|0,0:0|0:0,0:0:0:0:
36,156,48291,1,8,0:0:0:0:
76,244,48519,1,0,0:0:0:0:
28,366,48746,6,0,P|88:346|194:372,1,150,12|8,0:0|0:0,0:0:0:0:
260,316,49428,1,0,0:0:0:0:
344,364,49655,1,2,0:0:0:0:
440,348,49882,1,0,0:0:0:0:
484,260,50110,2,0,P|492:228|488:164,1,75,8|0,0:0|0:0,0:0:0:0:
389,124,50564,6,0,L|401:214,1,75,12|0,0:0|0:0,0:0:0:0:
336,296,51019,1,8,0:0:0:0:
268,228,51246,1,0,0:0:0:0:
84,296,51700,1,0,0:0:0:0:
112,104,52155,1,0,0:0:0:0:
204,132,52382,6,0,P|172:180|58:186,1,150,0|8,0:0|0:0,0:0:0:0:
16,132,53064,1,0,0:0:0:0:
36,36,53291,1,2,0:0:0:0:
112,104,53519,1,0,0:0:0:0:
20,276,53973,6,0,P|80:292|120:368,1,150,0|0,0:0|0:0,0:0:0:0:
204,316,54655,1,8,0:0:0:0:
148,236,54882,2,0,L|160:128,1,75,0|0,0:0|0:0,0:0:0:0:
344,35,55564,1,8,0:0:0:0:
472,221,56019,6,0,L|460:329,1,75,12|0,0:0|0:0,0:0:0:0:
392,364,56473,1,8,0:0:0:0:
316,304,56700,2,0,P|248:280|116:372,1,225,0|8,0:0|0:0,0:0:0:0:
36,312,57610,1,0,0:0:0:0:
92,232,57837,6,0,L|76:132,1,75,12|0,0:0|0:0,0:0:0:0:
174,77,58291,1,8,0:0:0:0:
160,172,58519,1,0,0:0:0:0:
72,132,58746,1,2,0:0:0:0:
282,26,59200,1,8,0:0:0:0:
284,124,59428,1,0,0:0:0:0:
407,114,59655,5,12,0:0:0:0:
384,196,59882,1,0,0:0:0:0:
488,280,60110,2,0,P|488:320|476:368,1,75,8|0,0:0|0:0,0:0:0:0:
392,316,60564,1,2,0:0:0:0:
392,316,60791,1,0,0:0:0:0:
392,198,61019,2,0,L|384:110,1,75,8|0,0:0|0:0,0:0:0:0:
157,35,61700,5,0,0:0:0:0:
92,108,61928,2,0,L|8:96,1,75,8|0,0:0|0:0,0:0:0:0:
111,199,62382,1,2,0:0:0:0:
298,65,62837,1,8,0:0:0:0:
298,65,63064,1,0,0:0:0:0:
364,136,63291,6,0,L|348:228,1,75,12|0,0:0|0:0,0:0:0:0:
392,300,63746,1,8,0:0:0:0:
392,300,63973,1,0,0:0:0:0:
296,276,64200,1,2,0:0:0:0:
216,332,64428,1,0,0:0:0:0:
124,300,64655,2,0,P|112:276|96:220,1,75,8|0,0:0|0:0,0:0:0:0:
144,144,65110,5,12,0:0:0:0:
307,344,65564,1,8,0:0:0:0:
307,344,65791,1,0,0:0:0:0:
506,185,66246,1,0,0:0:0:0:
416,152,66473,1,8,0:0:0:0:
436,248,66700,1,0,0:0:0:0:
506,185,66928,6,0,L|488:28,2,150,12|8|2,0:0|0:0|0:0,0:0:0:0:
432,248,68064,2,0,P|424:284|432:348,2,75,0|8|0,0:0|0:0|0:0,0:0:0:0:
380,168,68746,5,12,0:0:0:0:
212,264,69200,1,8,0:0:0:0:
212,264,69428,2,0,L|220:180,1,75,0|0,0:0|0:0,0:0:0:0:
48,344,70337,1,0,0:0:0:0:
16,252,70564,6,0,P|28:212|48:168,1,75,12|0,0:0|0:0,0:0:0:0:
116,120,71019,1,8,0:0:0:0:
164,204,71246,2,0,L|136:360,1,150,0|0,0:0|0:0,0:0:0:0:
427,143,72382,5,12,0:0:0:0:
336,104,72610,2,0,L|312:12,2,75,0|8|0,0:0|0:0|0:0,0:0:0:0:
296,192,73291,1,2,0:0:0:0:
208,152,73519,1,0,0:0:0:0:
296,192,73746,2,0,P|264:232|216:252,1,75,8|0,0:0|0:0,0:0:0:0:
208,152,74200,6,0,P|246:108|345:116,2,150,4|8|2,0:0|0:0|0:0,0:0:0:0:
148,232,75337,2,0,P|132:204|92:172,2,75,0|8|0,0:0|0:0|0:0,0:0:0:0:
220,296,76019,6,0,P|244:260|340:224,2,150,4|8|2,0:0|0:0|0:0,0:0:0:0:
284,368,77155,1,0,0:0:0:0:
372,328,77382,1,8,0:0:0:0:
464,360,77610,1,0,0:0:0:0:
338,258,77837,5,4,0:0:0:0:
360,164,78064,2,0,L|364:68,2,75,0|8|0,0:0|0:0|0:0,0:0:0:0:
247,237,78746,2,0,L|251:141,1,75,2|0,0:0|0:0,0:0:0:0:
172,108,79200,1,8,0:0:0:0:
144,200,79428,1,0,0:0:0:0:
292,348,79882,6,0,L|384:340,2,75,0|8|0,0:0|0:0|0:0,0:0:0:0:
196,360,80564,2,0,P|168:312|4:324,1,225,2|0,0:0|0:0,0:0:0:0:
132,156,81700,6,0,L|116:48,2,75,0|8|0,0:0|0:0|0:0,0:0:0:0:
262,200,82382,2,0,L|246:92,1,75,2|0,0:0|0:0,0:0:0:0:
316,52,82837,1,8,0:0:0:0:
356,140,83064,1,0,0:0:0:0:
198,263,83519,6,0,L|210:177,2,75,0|8|0,0:0|0:0|0:0,0:0:0:0:
244,348,84200,2,0,P|280:324|456:368,1,225,2|0,0:0|0:0,0:0:0:0:
364,138,85337,6,0,L|380:239,2,75,0|8|0,0:0|0:0|0:0,0:0:0:0:
252,94,86019,2,0,L|268:195,1,75,2|0,0:0|0:0,0:0:0:0:
220,256,86473,1,8,0:0:0:0:
168,172,86700,1,0,0:0:0:0:
341,254,87155,6,0,L|320:342,2,75,0|8|0,0:0|0:0|0:0,0:0:0:0:
464,203,87837,2,0,L|481:130,1,75,2|0,0:0|0:0,0:0:0:0:
452,36,88291,1,8,0:0:0:0:
384,108,88519,1,0,0:0:0:0:
124,117,88973,6,0,L|111:41,2,75,0|8|0,0:0|0:0|0:0,0:0:0:0:
49,237,89655,2,0,L|62:313,1,75,2|0,0:0|0:0,0:0:0:0:
144,368,90110,1,8,0:0:0:0:
156,272,90337,1,0,0:0:0:0:
34,146,90564,5,4,1:0:0:0:
258,258,91019,1,4,1:0:0:0:
83,48,91473,1,4,1:0:0:0:
324,165,91928,1,4,1:0:0:0:
99,302,92382,5,4,1:0:0:0:
256,192,92496,12,0,96019,0:0:0:0:
