osu file format v14

[General]
AudioFilename: audio.mp3
AudioLeadIn: 0
PreviewTime: 8746
Countdown: 0
SampleSet: Soft
StackLeniency: 0.7
Mode: 0
LetterboxInBreaks: 0
WidescreenStoryboard: 0

[Editor]
Bookmarks: 26360,45110,92382
DistanceSpacing: 1.2
BeatDivisor: 4
GridSize: 4
TimelineZoom: 1

[Metadata]
Title:Run to you
TitleUnicode:Run to you
Artist:DJ DOC
ArtistUnicode:DJ DOC
Creator:Bakari
Version:Crazy
Source:Pump It Up The PREX 3
Tags:djdoc rap the kife do blues 5% five percent
BeatmapID:1607642
BeatmapSetID:764542

[Difficulty]
HPDrainRate:6
CircleSize:4
OverallDifficulty:7
ApproachRate:8
SliderMultiplier:1.7
SliderTickRate:1

[Events]
//Background and Video events
0,0,"big_1496373414_image.jpg",0,0
Video,28,"runtomebaby.avi"
//Break Periods
//Storyboard Layer 0 (Background)
//Storyboard Layer 1 (Fail)
//Storyboard Layer 2 (Pass)
//Storyboard Layer 3 (Foreground)
//Storyboard Sound Samples

[TimingPoints]
5110,454.545454545455,4,3,0,54,1,0
30564,-100,4,3,0,54,0,1
30791,-100,4,3,0,54,0,0
45110,-100,4,3,0,54,0,1
59428,-100,4,3,0,54,0,0
59655,-100,4,3,0,54,0,1
72382,-100,4,3,0,54,0,0
92496,-100,4,2,0,5,0,0

[Colours]
Combo1 : 189,176,66
Combo2 : 150,180,152
Combo3 : 155,89,89
Combo4 : 82,105,143
SliderBorder : 190,79,79
SliderTrackOverride : 79,79,190

[HitObjects]
99,322,5110,5,4,1:0:0:0:
280,130,6019,1,4,1:0:0:0:
99,322,6927,5,4,1:0:0:0:
280,130,7382,1,4,0:0:0:0:
503,283,7837,1,4,1:0:0:0:
99,322,8291,2,0,P|156:300|240:360,1,170,4|4,1:0|0:0,0:0:0:0:
229,232,8973,5,0,0:0:0:0:
308,168,9200,1,8,0:0:0:0:
328,268,9428,1,0,0:0:0:0:
213,130,9655,2,0,L|204:31,1,85,2|0,0:0|0:0,0:0:0:0:
144,208,10110,1,8,0:0:0:0:
223,323,10337,2,0,L|123:309,1,85,0|12,0:0|0:0,0:0:0:0:
287,242,10791,5,0,0:0:0:0:
390,217,11019,1,8,0:0:0:0:
362,317,11246,1,0,0:0:0:0:
320,142,11473,2,0,L|311:43,1,85
287,242,11928,1,8,0:0:0:0:
446,328,12155,2,0,L|346:314,1,85,0|12,0:0|0:0,0:0:0:0:
179,362,12610,5,0,0:0:0:0:
96,296,12837,1,0,0:0:0:0:
192,256,13064,1,0,0:0:0:0:
347,331,13291,2,0,L|247:317,1,85
442,369,13746,1,8,0:0:0:0:
424,268,13973,1,0,0:0:0:0:
250,333,14200,6,0,L|150:319,1,85,4|0,1:0|0:0,0:0:0:0:
262,51,14655,2,0,L|362:65,1,85,4|0,1:0|0:0,0:0:0:0:
115,186,15110,2,0,L|129:86,1,85,4|0,1:0|0:0,0:0:0:0:
397,198,15564,2,0,L|383:298,1,85,4|0,1:0|0:0,0:0:0:0:
244,114,16019,6,0,L|259:283,1,170,12|8,0:0|0:0,0:0:0:0:
164,252,16700,1,0,0:0:0:0:
252,200,16928,1,2,0:0:0:0:
344,156,17155,1,0,0:0:0:0:
252,108,17382,1,8,0:0:0:0:
256,289,17610,1,0,0:0:0:0:
256,289,17723,1,0,0:0:0:0:
256,289,17837,5,12,0:0:0:0:
348,244,18064,1,0,0:0:0:0:
270,370,18291,1,8,0:0:0:0:
180,252,18519,1,0,0:0:0:0:
180,252,18632,1,0,0:0:0:0:
180,252,18746,2,0,L|92:244,1,85,2|0,0:0|0:0,0:0:0:0:
221,172,19200,1,8,0:0:0:0:
284,288,19428,1,0,0:0:0:0:
364,224,19655,5,12,0:0:0:0:
460,192,19882,1,0,0:0:0:0:
492,288,20110,1,8,0:0:0:0:
396,320,20337,1,0,0:0:0:0:
486,113,20564,1,2,0:0:0:0:
507,294,20791,1,0,0:0:0:0:
373,204,21019,1,8,0:0:0:0:
476,216,21246,1,0,0:0:0:0:
302,278,21473,5,12,0:0:0:0:
355,103,21700,1,0,0:0:0:0:
373,204,21928,1,8,0:0:0:0:
280,160,22155,1,0,0:0:0:0:
177,31,22382,2,0,L|188:116,1,85,2|0,0:0|0:0,0:0:0:0:
180,240,22837,1,0,0:0:0:0:
112,165,23064,1,8,0:0:0:0:
85,367,23291,5,12,0:0:0:0:
92,262,23519,1,0,0:0:0:0:
92,262,23632,1,0,0:0:0:0:
92,262,23746,1,8,0:0:0:0:
246,343,23973,2,0,L|153:328,1,85
321,275,24428,1,0,0:0:0:0:
400,352,24655,1,8,0:0:0:0:
246,343,24882,1,0,0:0:0:0:
358,204,25110,5,12,0:0:0:0:
328,356,25337,1,0,0:0:0:0:
328,356,25450,1,0,0:0:0:0:
328,356,25564,1,8,0:0:0:0:
218,265,25791,1,0,0:0:0:0:
71,323,26019,2,0,L|173:332,1,85,2|0,0:0|0:0,0:0:0:0:
14,383,26473,1,8,0:0:0:0:
0,284,26700,1,0,0:0:0:0:
144,157,26928,5,12,0:0:0:0:
116,256,27155,1,0,0:0:0:0:
28,204,27382,1,8,0:0:0:0:
56,104,27610,1,0,0:0:0:0:
228,161,27837,2,0,L|142:156,1,85,2|0,0:0|0:0,0:0:0:0:
306,91,28291,1,8,0:0:0:0:
370,192,28519,1,0,0:0:0:0:
423,18,28746,6,0,P|403:60|395:108,2,85,12|0|0,0:0|0:0|0:0,0:0:0:0:
481,146,29428,1,0,0:0:0:0:
370,289,29655,2,0,P|378:247|397:209,1,85,2|4,0:0|0:0,0:0:0:0:
416,370,30110,1,8,0:0:0:0:
292,324,30337,1,2,0:0:0:0:
139,362,30564,6,0,L|239:372,1,85,12|0,0:0|0:0,0:0:0:0:
138,275,31019,1,8,0:0:0:0:
44,316,31246,1,0,0:0:0:0:
151,225,31473,2,0,L|141:292,1,42.5,2|0,0:0|0:0,0:0:0:0:
41,302,31700,2,0,L|51:235,1,42.5
85,166,31928,1,8,0:0:0:0:
117,372,32155,1,0,0:0:0:0:
308,310,32382,6,0,P|279:306|173:338,1,127.5,12|0,0:0|0:0,0:0:0:0:
117,372,32837,1,8,0:0:0:0:
230,233,33064,2,0,L|216:140,1,85,0|2,0:0|0:0,0:0:0:0:
293,310,33519,1,0,0:0:0:0:
372,244,33746,1,8,0:0:0:0:
388,344,33973,1,0,0:0:0:0:
211,364,34200,6,0,P|177:348|61:359,1,127.5,12|0,0:0|0:0,0:0:0:0:
18,375,34655,1,8,0:0:0:0:
145,258,34882,1,0,0:0:0:0:
21,137,35110,2,0,L|34:240,1,85,2|0,0:0|0:0,0:0:0:0:
125,87,35564,1,8,0:0:0:0:
44,28,35791,1,0,0:0:0:0:
218,38,36019,6,0,L|239:172,1,127.5,12|0,0:0|0:0,0:0:0:0:
213,236,36473,1,8,0:0:0:0:
327,154,36700,1,0,0:0:0:0:
228,35,36928,6,0,L|240:170,1,127.5,2|0,0:0|0:0,0:0:0:0:
214,198,37382,1,8,0:0:0:0:
308,133,37609,1,0,0:0:0:0:
224,46,37837,6,0,L|166:33,3,42.5,12|0|0|0,0:0|0:0|0:0|0:0,0:0:0:0:
107,120,38291,2,0,L|148:110,3,42.5,8|0|0|0,0:0|0:0|0:0|0:0,0:0:0:0:
29,50,38746,1,2,0:0:0:0:
0,92,38860,1,0,0:0:0:0:
4,144,38973,1,0,0:0:0:0:
28,188,39087,1,0,0:0:0:0:
68,220,39200,1,8,0:0:0:0:
112,248,39314,1,0,0:0:0:0:
140,292,39428,1,0,0:0:0:0:
12,383,39655,6,0,P|20:352|50:299,1,85,12|0,0:0|0:0,0:0:0:0:
260,235,40110,1,8,0:0:0:0:
191,367,40337,1,0,0:0:0:0:
56,317,40564,6,0,P|64:286|94:233,1,85,4|0,0:0|0:0,0:0:0:0:
261,160,41019,1,0,0:0:0:0:
191,280,41246,1,0,0:0:0:0:
163,83,41473,5,4,1:0:0:0:
163,83,41928,1,0,0:0:0:0:
163,83,42155,1,0,0:0:0:0:
243,245,42382,5,4,1:0:0:0:
243,245,42837,1,0,0:0:0:0:
243,245,43064,1,0,0:0:0:0:
99,369,43291,5,4,1:0:0:0:
289,137,43746,1,4,1:0:0:0:
506,363,44200,1,4,1:0:0:0:
152,212,44655,1,4,1:0:0:0:
416,98,45110,5,12,0:0:0:0:
400,208,45337,1,0,0:0:0:0:
416,98,45564,1,8,0:0:0:0:
400,208,45791,1,0,0:0:0:0:
325,57,46019,1,2,0:0:0:0:
457,23,46246,1,0,0:0:0:0:
431,159,46473,1,8,0:0:0:0:
305,45,46700,2,0,P|361:56|404:79,1,85,0|12,0:0|0:0,0:0:0:0:
255,184,47155,5,0,0:0:0:0:
224,76,47382,1,8,0:0:0:0:
255,184,47610,1,0,0:0:0:0:
224,76,47837,1,2,0:0:0:0:
135,197,48064,1,0,0:0:0:0:
287,119,48291,1,8,0:0:0:0:
135,197,48519,1,0,0:0:0:0:
226,359,48746,5,12,0:0:0:0:
120,332,48973,1,0,0:0:0:0:
20,356,49200,1,8,0:0:0:0:
136,310,49428,1,0,0:0:0:0:
261,279,49655,1,2,0:0:0:0:
360,308,49882,1,0,0:0:0:0:
259,290,50110,1,8,0:0:0:0:
288,184,50337,1,0,0:0:0:0:
184,12,50564,6,0,P|153:67|143:117,1,85,12|0,0:0|0:0,0:0:0:0:
298,201,51019,1,8,0:0:0:0:
156,25,51246,2,0,P|134:84|132:135,1,85,0|2,0:0|0:0,0:0:0:0:
197,246,51700,2,0,P|219:186|221:135,1,85,0|8,0:0|0:0,0:0:0:0:
80,319,52155,2,0,P|164:286|289:379,1,255,0|8,0:0|0:0,0:0:0:0:
460,250,53064,5,0,0:0:0:0:
358,311,53291,1,2,0:0:0:0:
512,275,53519,2,0,L|421:289,1,85,0|8,0:0|0:0,0:0:0:0:
190,155,53973,6,0,L|378:173,1,170,0|0,0:0|0:0,0:0:0:0:
284,84,54655,1,8,0:0:0:0:
212,251,54882,2,0,L|41:270,1,170,0|0,0:0|0:0,0:0:0:0:
87,139,55564,2,0,P|124:170|76:166,1,127.5,8|0,0:0|0:0,0:0:0:0:
12,118,56019,6,0,L|24:6,1,85,12|0,0:0|0:0,0:0:0:0:
13,256,56473,1,8,0:0:0:0:
188,167,56700,2,0,P|260:176|306:358,1,255,0|8,0:0|0:0,0:0:0:0:
152,248,57610,1,0,0:0:0:0:
217,69,57837,6,0,L|206:173,1,85,12|0,0:0|0:0,0:0:0:0:
329,326,58291,1,8,0:0:0:0:
316,202,58519,1,0,0:0:0:0:
197,76,58746,6,0,L|202:180,1,85,2|0,0:0|0:0,0:0:0:0:
348,312,59200,1,8,0:0:0:0:
316,192,59428,1,0,0:0:0:0:
461,78,59655,5,12,0:0:0:0:
436,188,59882,1,0,0:0:0:0:
461,78,60110,1,8,0:0:0:0:
436,188,60337,1,0,0:0:0:0:
391,27,60564,1,2,0:0:0:0:
494,144,60791,1,0,0:0:0:0:
332,248,61019,1,8,0:0:0:0:
191,110,61246,2,0,L|290:126,1,85,0|12,0:0|0:0,0:0:0:0:
111,190,61700,5,0,0:0:0:0:
56,88,61928,1,8,0:0:0:0:
112,192,62155,1,0,0:0:0:0:
56,88,62382,1,2,0:0:0:0:
30,375,62837,1,8,0:0:0:0:
120,300,63064,1,0,0:0:0:0:
14,382,63291,5,12,0:0:0:0:
72,280,63519,1,0,0:0:0:0:
136,376,63746,1,8,0:0:0:0:
180,268,63973,1,0,0:0:0:0:
256,356,64200,1,2,0:0:0:0:
284,244,64428,1,0,0:0:0:0:
372,320,64655,1,8,0:0:0:0:
372,204,64882,1,0,0:0:0:0:
310,25,65110,6,0,P|285:54|243:168,1,127.5,12|0,0:0|0:0,0:0:0:0:
274,206,65564,1,8,0:0:0:0:
382,81,65791,2,0,P|353:50|319:26,1,85,0|2,0:0|0:0,0:0:0:0:
438,173,66246,1,0,0:0:0:0:
380,272,66473,1,8,0:0:0:0:
456,360,66700,1,0,0:0:0:0:
281,353,66928,6,0,P|218:373|100:356,2,170,12|8|2,0:0|0:0|0:0,0:0:0:0:
243,232,68064,1,0,0:0:0:0:
356,260,68291,1,8,0:0:0:0:
472,244,68519,1,0,0:0:0:0:
401,77,68746,6,0,P|401:143|391:183,1,85,12|0,0:0|0:0,0:0:0:0:
331,283,69200,1,8,0:0:0:0:
168,350,69428,2,0,L|71:340,1,85
276,84,70337,1,0,0:0:0:0:
317,245,70564,6,0,L|332:133,1,85,12|0,0:0|0:0,0:0:0:0:
255,322,71019,1,8,0:0:0:0:
366,361,71246,2,0,P|393:301|501:272,2,170,0|0|0,0:0|0:0|0:0,0:0:0:0:
173,354,72382,6,0,L|71:343,1,85,12|0,0:0|0:0,0:0:0:0:
34,211,72837,1,8,0:0:0:0:
99,144,73064,1,0,0:0:0:0:
127,232,73291,1,2,0:0:0:0:
34,211,73519,1,0,0:0:0:0:
99,144,73746,1,8,0:0:0:0:
127,232,73973,1,0,0:0:0:0:
281,352,74200,6,0,P|319:303|431:282,1,170,4|8,0:0|0:0,0:0:0:0:
181,359,75110,1,2,0:0:0:0:
92,336,75337,1,0,0:0:0:0:
181,359,75564,1,8,0:0:0:0:
144,264,75791,1,0,0:0:0:0:
17,214,76019,6,0,P|68:164|52:72,1,170,4|8,0:0|0:0,0:0:0:0:
232,168,76928,1,2,0:0:0:0:
248,260,77155,1,0,0:0:0:0:
232,168,77382,1,8,0:0:0:0:
248,260,77610,1,0,0:0:0:0:
294,113,77837,5,12,0:0:0:0:
172,220,78064,1,0,0:0:0:0:
148,132,78291,1,8,0:0:0:0:
172,220,78519,1,0,0:0:0:0:
167,42,78746,2,0,L|156:133,1,85,2|0,0:0|0:0,0:0:0:0:
98,277,79200,1,8,0:0:0:0:
72,188,79428,1,0,0:0:0:0:
282,64,79882,5,0,0:0:0:0:
272,156,80110,1,8,0:0:0:0:
292,64,80337,1,0,0:0:0:0:
345,241,80564,2,0,P|367:187|480:141,2,170,2|8|12,0:0|0:0|0:0,0:0:0:0:
312,360,81700,5,0,0:0:0:0:
220,344,81928,1,8,0:0:0:0:
312,360,82155,1,0,0:0:0:0:
122,361,82382,2,0,L|220:348,1,85,2|0,0:0|0:0,0:0:0:0:
343,262,82837,1,8,0:0:0:0:
252,244,83064,1,0,0:0:0:0:
147,52,83519,5,0,0:0:0:0:
240,28,83746,1,8,0:0:0:0:
147,52,83973,1,0,0:0:0:0:
320,66,84200,2,0,P|293:124|311:243,2,170,2|8|12,0:0|0:0|0:0,0:0:0:0:
409,178,85337,5,0,0:0:0:0:
500,124,85564,1,8,0:0:0:0:
409,178,85791,1,0,0:0:0:0:
493,39,86019,2,0,L|484:136,1,85,2|0,0:0|0:0,0:0:0:0:
431,263,86473,1,8,0:0:0:0:
512,216,86700,1,0,0:0:0:0:
292,245,87155,5,0,0:0:0:0:
268,336,87382,1,8,0:0:0:0:
292,245,87610,1,0,0:0:0:0:
175,346,87837,2,0,L|269:333,1,85,2|0,0:0|0:0,0:0:0:0:
382,245,88291,1,8,0:0:0:0:
352,336,88519,1,0,0:0:0:0:
502,107,88973,5,0,0:0:0:0:
475,199,89200,1,8,0:0:0:0:
502,107,89428,1,0,0:0:0:0:
489,291,89655,2,0,L|481:196,1,85,2|0,0:0|0:0,0:0:0:0:
402,85,90110,1,8,0:0:0:0:
380,176,90337,1,0,0:0:0:0:
309,357,90564,6,0,L|404:316,1,85,4|0,1:0|0:0,0:0:0:0:
115,294,91019,2,0,L|171:357,1,85,4|0,1:0|0:0,0:0:0:0:
115,89,91473,2,0,L|72:162,1,85,4|0,1:0|0:0,0:0:0:0:
310,26,91928,2,0,L|209:4,1,85,4|0,1:0|0:0,0:0:0:0:
429,192,92382,5,4,1:0:0:0:
256,192,92496,12,0,96019,0:0:0:0:
