osu file format v14

[General]
AudioFilename: audio.mp3
AudioLeadIn: 0
PreviewTime: 58810
Countdown: 0
SampleSet: Normal
StackLeniency: 0.7
Mode: 1
LetterboxInBreaks: 0
WidescreenStoryboard: 0

[Editor]
DistanceSpacing: 1.5
BeatDivisor: 4
GridSize: 32
TimelineZoom: 1.8

[Metadata]
Title:True Blue [DJ Command Mix] (Full Ver.)
TitleUnicode:True Blue [DJ Command Mix] (Full Ver.)
Artist:DJ Command
ArtistUnicode:DJ Command
Creator:iloveyou4ever
Version:Broken Love
Source:REFLEC BEAT VOLZZA
Tags:dj TAKA AiMEE REFLEC BEAT VOLZZA's Pastel-kun to Gakkii-hakase no dokidoki rhythm kenkyujou パステルくんとガッキー博士のドキドキリズム研究所 Earth DE mic アースDEマイク eurobeat REFLEC BEAT 悠久のリフレシア+VOLZZA ORIGINAL SOUNDTRACK
BeatmapID:1364659
BeatmapSetID:643803

[Difficulty]
HPDrainRate:4
CircleSize:2
OverallDifficulty:6
ApproachRate:0
SliderMultiplier:1.4
SliderTickRate:2

[Events]
//Background and Video events
0,0,"blue.png",0,58
//Break Periods
//Storyboard Layer 0 (Background)
//Storyboard Layer 1 (Fail)
//Storyboard Layer 2 (Pass)
//Storyboard Layer 3 (Foreground)
//Storyboard Sound Samples

[TimingPoints]
1039,365.853658536585,4,1,0,50,1,0
1039,-125,4,1,0,50,0,0
12720,365.853658536585,4,1,0,60,1,0
12720,-111.111111111111,4,1,0,60,0,0
24427,365.853658536585,4,1,0,70,1,0
24427,-105.263157894737,4,1,0,70,0,0
44914,-105.263157894737,4,1,0,75,0,0
46371,365.853658536585,4,1,0,85,1,0
46371,-100,4,1,0,85,0,0
52224,-100,4,1,0,90,0,0
58810,-99.2555831265509,4,1,0,90,0,0
58992,-98.5221674876847,4,1,0,90,0,0
59084,-97.799511002445,4,1,0,90,0,0
59175,-97.0873786407767,4,1,0,90,0,0
59267,-96.3855421686747,4,1,0,90,0,0
59358,-95.6937799043062,4,1,0,90,0,0
59450,-95.0118764845606,4,1,0,90,0,0
59541,-94.3396226415094,4,1,0,100,0,1
82956,-94.3396226415094,4,1,0,95,0,0
83047,-100,4,1,0,95,0,0
128505,-98.3671060397403,4,1,0,95,0,0
128779,-96.7773153972709,4,1,0,95,0,0
129053,-95.2380952380952,4,1,0,95,0,0
129236,-94.5179584120983,4,1,0,95,0,0
129328,-93.8086303939962,4,1,0,95,0,0
129419,-93.1098696461825,4,1,0,95,0,0
129511,-92.4214417744917,4,1,0,95,0,0
129602,-91.743119266055,4,1,0,95,0,0
129785,-90.0900900900901,4,1,0,100,0,1
170761,-90.0900900900901,4,1,0,100,0,0
176249,-90.9090909090909,4,1,0,100,0,0
176340,-91.743119266055,4,1,0,100,0,0
176431,-92.5925925925926,4,1,0,100,0,0
176523,-93.4579439252336,4,1,0,100,0,0
176614,-94.3396226415094,4,1,0,100,0,1
188322,-97.0873786407767,4,1,0,90,0,0
194175,-97.0873786407767,4,1,0,95,0,0
200120,-100,4,1,0,95,0,0
222712,-99.2555831265509,4,1,0,95,0,0
222803,-98.5221674876847,4,1,0,95,0,0
222895,-97.799511002445,4,1,0,95,0,0
222986,-97.0873786407767,4,1,0,95,0,0
223078,-96.3855421686747,4,1,0,95,0,0
223169,-95.6937799043062,4,1,0,95,0,0
223261,-95.0118764845606,4,1,0,95,0,0
223444,-94.3396226415094,4,1,0,100,0,1
246858,-94.3396226415094,4,1,0,90,0,0
246950,-111.111111111111,4,1,0,65,0,0
258566,-100,4,1,0,90,0,0
264419,-100,4,1,0,95,0,0
268992,-98.3671060397403,4,1,0,95,0,0
269267,-96.7773153972709,4,1,0,95,0,0
269541,-95.2380952380952,4,1,0,95,0,0
269724,-94.4733112895607,4,1,0,95,0,0
269816,-93.7207122774133,4,1,0,95,0,0
269907,-92.9800092980009,4,1,0,95,0,0
269999,-92.2509225092251,4,1,0,95,0,0
270090,-91.533180778032,4,1,0,95,0,0
270181,-90.8265213442325,4,1,0,95,0,0
270273,-90.0900900900901,4,1,0,100,0,1
293688,-90.0900900900901,4,1,0,90,0,0
293779,-111.111111111111,4,1,0,65,0,0
313810,-111.111111111111,4,1,0,30,0,0

[HitObjects]
384,160,1039,5,8,0:0:0:0:
384,192,2502,1,0,0:0:0:0:
384,192,3965,1,8,0:0:0:0:
480,192,5429,1,0,0:0:0:0:
480,192,5795,1,0,0:0:0:0:
480,192,6160,1,0,0:0:0:0:
480,192,6526,1,8,0:0:0:0:
480,192,6892,1,8,0:0:0:0:
480,192,7258,1,8,0:0:0:0:
480,160,7624,1,0,0:0:0:0:
480,160,7990,1,0,0:0:0:0:
256,160,8356,1,8,0:0:0:0:
448,160,9087,1,8,0:0:0:0:
467,221,9819,1,8,0:0:0:0:
509,201,10185,1,8,0:0:0:0:
467,221,10551,1,0,0:0:0:0:
467,221,10917,1,0,0:0:0:0:
466,220,11282,1,8,0:0:0:0:
466,220,12014,1,0,0:0:0:0:
406,186,12720,1,8,0:0:0:0:
448,192,13085,1,0,0:0:0:0:
406,186,13268,1,0,0:0:0:0:
301,174,13817,1,0,0:0:0:0:
466,177,14000,1,8,0:0:0:0:
500,139,14183,1,0,0:0:0:0:
511,183,14549,1,8,0:0:0:0:
511,183,14732,1,0,0:0:0:0:
510,199,15098,1,8,0:0:0:0:
411,162,15280,1,8,0:0:0:0:
301,174,15463,1,8,0:0:0:0:
405,183,15646,1,0,0:0:0:0:
509,193,15829,1,0,0:0:0:0:
404,184,16012,1,0,0:0:0:0:
450,252,16195,1,0,0:0:0:0:
507,166,16561,1,0,0:0:0:0:
404,187,16744,1,8,0:0:0:0:
502,156,16927,1,0,0:0:0:0:
468,156,17110,1,8,0:0:0:0:
404,187,17659,1,8,0:0:0:0:
494,194,18207,1,0,0:0:0:0:
494,194,18573,1,8,0:0:0:0:
494,194,18939,1,0,0:0:0:0:
392,165,19122,1,8,0:0:0:0:
430,176,19671,1,8,0:0:0:0:
430,176,20037,1,0,0:0:0:0:
430,176,20402,1,8,0:0:0:0:
325,168,20585,1,0,0:0:0:0:
429,177,20768,1,8,0:0:0:0:
324,170,20951,1,8,0:0:0:0:
476,166,21317,1,8,0:0:0:0:
448,224,21500,1,0,0:0:0:0:
476,166,21683,1,0,0:0:0:0:
476,166,21866,1,0,0:0:0:0:
440,203,22049,1,8,0:0:0:0:
480,192,22415,1,0,0:0:0:0:
384,192,22598,1,8,0:0:0:0:
480,160,22963,1,0,0:0:0:0:
480,160,23329,1,0,0:0:0:0:
480,160,23695,1,8,0:0:0:0:
480,160,24061,1,8,0:0:0:0:
282,185,24427,1,0,0:0:0:0:
447,226,25158,1,0,0:0:0:0:
391,190,25890,1,8,0:0:0:0:
480,160,26256,1,0,0:0:0:0:
384,192,26439,1,8,0:0:0:0:
448,160,26805,1,8,0:0:0:0:
448,160,26987,1,8,0:0:0:0:
345,172,27170,1,8,0:0:0:0:
480,256,27353,1,0,0:0:0:0:
512,192,28268,1,0,0:0:0:0:
512,192,28451,1,8,0:0:0:0:
416,224,28634,1,0,0:0:0:0:
466,200,28817,1,0,0:0:0:0:
428,190,29548,1,8,0:0:0:0:
448,160,29914,1,0,0:0:0:0:
480,192,30280,1,8,0:0:0:0:
480,192,31195,1,0,0:0:0:0:
480,192,31378,1,0,0:0:0:0:
384,160,31561,1,8,0:0:0:0:
480,192,31744,1,8,0:0:0:0:
384,160,32109,1,0,0:0:0:0:
480,192,32475,1,8,0:0:0:0:
293,167,32841,1,8,0:0:0:0:
416,160,33207,1,0,0:0:0:0:
320,96,33756,1,8,0:0:0:0:
448,239,34305,1,0,0:0:0:0:
480,192,34487,1,8,0:0:0:0:
384,192,34670,1,0,0:0:0:0:
480,224,35036,1,0,0:0:0:0:
381,63,35402,1,8,0:0:0:0:
448,239,35768,1,0,0:0:0:0:
509,190,36134,1,8,0:0:0:0:
509,190,36317,1,0,0:0:0:0:
509,190,36500,1,0,0:0:0:0:
436,129,36683,1,8,0:0:0:0:
484,169,37048,1,0,0:0:0:0:
484,169,37231,1,8,0:0:0:0:
484,169,37414,1,8,0:0:0:0:
484,169,37597,1,4,0:0:0:0:
484,169,38146,1,12,0:0:0:0:
484,169,38878,1,0,0:0:0:0:
384,179,39061,1,8,0:0:0:0:
469,236,39244,1,0,0:0:0:0:
469,236,39426,1,0,0:0:0:0:
477,141,39609,1,8,0:0:0:0:
325,254,39975,1,0,0:0:0:0:
485,154,40341,1,8,0:0:0:0:
204,195,40890,1,8,0:0:0:0:
485,154,41256,1,0,0:0:0:0:
485,154,41622,1,0,0:0:0:0:
485,154,41987,1,8,0:0:0:0:
509,167,42170,1,8,0:0:0:0:
509,167,42353,1,0,0:0:0:0:
485,154,42536,1,0,0:0:0:0:
485,154,42902,1,0,0:0:0:0:
509,167,43085,1,8,0:0:0:0:
427,171,43268,1,8,0:0:0:0:
448,128,44183,1,0,0:0:0:0:
447,172,44548,1,8,0:0:0:0:
447,172,44731,5,8,0:0:0:0:
394,161,44914,1,4,0:0:0:0:
374,160,46371,1,12,0:0:0:0:
394,161,46553,1,0,0:0:0:0:
447,172,46645,1,0,0:0:0:0:
447,172,46828,1,0,0:0:0:0:
447,172,47011,1,0,0:0:0:0:
499,172,47102,1,8,0:0:0:0:
394,161,47285,1,0,0:0:0:0:
394,161,47377,1,0,0:0:0:0:
394,161,47560,1,0,0:0:0:0:
447,172,47742,1,0,0:0:0:0:
447,172,47834,1,8,0:0:0:0:
447,172,48017,1,0,0:0:0:0:
447,172,48108,1,0,0:0:0:0:
447,172,48291,1,0,0:0:0:0:
447,172,48474,1,8,0:0:0:0:
499,172,48566,1,0,0:0:0:0:
394,160,48749,1,8,0:0:0:0:
447,172,48931,1,8,0:0:0:0:
447,172,49114,1,4,0:0:0:0:
499,172,49297,1,12,0:0:0:0:
447,172,49480,1,0,0:0:0:0:
447,172,49572,1,0,0:0:0:0:
447,172,49755,1,0,0:0:0:0:
447,172,49938,1,0,0:0:0:0:
499,172,50029,1,8,0:0:0:0:
447,172,50212,1,0,0:0:0:0:
447,172,50303,1,0,0:0:0:0:
447,172,50486,1,0,0:0:0:0:
447,172,50669,1,0,0:0:0:0:
447,172,50761,1,8,0:0:0:0:
447,172,50852,1,8,0:0:0:0:
447,172,50944,1,0,0:0:0:0:
394,180,51035,1,0,0:0:0:0:
344,197,51127,1,8,0:0:0:0:
396,200,51218,1,0,0:0:0:0:
497,160,51310,1,0,0:0:0:0:
497,160,51401,1,0,0:0:0:0:
447,172,51492,1,8,0:0:0:0:
497,160,51675,1,8,0:0:0:0:
447,172,51767,1,0,0:0:0:0:
447,172,51858,1,8,0:0:0:0:
447,172,51950,1,8,0:0:0:0:
498,181,52041,1,0,0:0:0:0:
498,181,52133,1,0,0:0:0:0:
445,183,52224,1,8,0:0:0:0:
485,205,52407,1,0,0:0:0:0:
447,172,52499,1,0,0:0:0:0:
447,172,52590,1,8,0:0:0:0:
444,287,52681,1,0,0:0:0:0:
498,181,52773,1,0,0:0:0:0:
348,63,52864,1,0,0:0:0:0:
412,191,52956,1,8,0:0:0:0:
447,172,53139,1,8,0:0:0:0:
444,223,53230,1,0,0:0:0:0:
447,172,53322,1,8,0:0:0:0:
447,172,53505,1,0,0:0:0:0:
447,172,53688,1,8,0:0:0:0:
447,172,53870,1,0,0:0:0:0:
447,172,53962,1,0,0:0:0:0:
447,172,54053,1,8,0:0:0:0:
476,223,54145,1,0,0:0:0:0:
444,223,54236,1,0,0:0:0:0:
412,159,54328,1,0,0:0:0:0:
444,223,54419,1,8,0:0:0:0:
447,172,54511,1,0,0:0:0:0:
447,172,54602,1,8,0:0:0:0:
447,172,54694,1,8,0:0:0:0:
412,159,54877,1,0,0:0:0:0:
447,172,54968,1,8,0:0:0:0:
476,223,55060,1,0,0:0:0:0:
447,172,55151,1,8,0:0:0:0:
444,223,55334,1,8,0:0:0:0:
447,172,55425,1,8,0:0:0:0:
447,172,55608,1,0,0:0:0:0:
412,159,55700,1,8,0:0:0:0:
447,172,55791,1,0,0:0:0:0:
412,159,55883,1,8,0:0:0:0:
447,172,55974,1,8,0:0:0:0:
412,159,56066,1,0,0:0:0:0:
496,154,56157,1,8,0:0:0:0:
496,154,56340,1,0,0:0:0:0:
496,154,56431,1,8,0:0:0:0:
496,154,56523,1,0,0:0:0:0:
496,154,56614,1,0,0:0:0:0:
412,159,56706,1,8,0:0:0:0:
412,159,56797,1,8,0:0:0:0:
412,159,56889,1,0,0:0:0:0:
412,159,56980,1,0,0:0:0:0:
412,159,57072,1,8,0:0:0:0:
412,159,57163,1,8,0:0:0:0:
412,159,57255,1,0,0:0:0:0:
464,164,57346,1,8,0:0:0:0:
464,164,57438,1,0,0:0:0:0:
464,164,57529,1,8,0:0:0:0:
454,215,57620,1,8,0:0:0:0:
412,159,57712,1,0,0:0:0:0:
464,164,57803,1,8,0:0:0:0:
464,164,57895,1,8,0:0:0:0:
464,164,57986,1,8,0:0:0:0:
464,164,58810,1,0,0:0:0:0:
464,164,58992,1,0,0:0:0:0:
464,164,59084,1,0,0:0:0:0:
412,191,59175,1,8,0:0:0:0:
412,191,59267,1,0,0:0:0:0:
412,191,59358,1,8,0:0:0:0:
412,191,59450,1,8,0:0:0:0:
476,191,59541,1,0,0:0:0:0:
476,191,59633,1,0,0:0:0:0:
412,191,59724,1,8,0:0:0:0:
476,191,59816,1,0,0:0:0:0:
412,191,59907,1,8,0:0:0:0:
444,191,60090,1,0,0:0:0:0:
476,191,60181,1,8,0:0:0:0:
444,191,60273,1,0,0:0:0:0:
444,191,60364,1,0,0:0:0:0:
412,191,60456,1,8,0:0:0:0:
476,223,60547,1,0,0:0:0:0:
444,191,60639,1,8,0:0:0:0:
412,191,60822,1,0,0:0:0:0:
412,191,60883,1,0,0:0:0:0:
412,191,60944,1,0,0:0:0:0:
444,191,61005,1,8,0:0:0:0:
412,191,61096,1,8,0:0:0:0:
412,191,61188,1,0,0:0:0:0:
412,191,61279,1,0,0:0:0:0:
444,191,61370,1,8,0:0:0:0:
444,191,61553,1,0,0:0:0:0:
442,138,61645,1,8,0:0:0:0:
487,165,61736,1,0,0:0:0:0:
442,138,61828,1,0,0:0:0:0:
391,153,61919,1,8,0:0:0:0:
442,159,62011,1,0,0:0:0:0:
442,159,62102,1,8,0:0:0:0:
442,138,62285,1,0,0:0:0:0:
442,159,62468,1,8,0:0:0:0:
464,178,62651,1,0,0:0:0:0:
411,174,62742,1,8,0:0:0:0:
411,174,62834,1,0,0:0:0:0:
442,159,62925,1,0,0:0:0:0:
442,159,63017,1,8,0:0:0:0:
391,153,63200,1,0,0:0:0:0:
435,181,63291,1,0,0:0:0:0:
411,174,63383,1,8,0:0:0:0:
411,174,63474,1,0,0:0:0:0:
464,178,63566,1,0,0:0:0:0:
411,174,63657,1,8,0:0:0:0:
442,159,63749,1,8,0:0:0:0:
442,159,63840,1,0,0:0:0:0:
442,159,63931,1,8,0:0:0:0:
412,255,64114,1,0,0:0:0:0:
444,191,64206,1,0,0:0:0:0:
411,174,64297,1,8,0:0:0:0:
411,174,64389,1,8,0:0:0:0:
411,174,64480,1,0,0:0:0:0:
411,174,64572,1,8,0:0:0:0:
411,174,64663,1,8,0:0:0:0:
411,174,64846,1,0,0:0:0:0:
411,174,64938,1,0,0:0:0:0:
411,174,65029,1,8,0:0:0:0:
444,191,65120,1,0,0:0:0:0:
476,159,65212,1,0,0:0:0:0:
476,159,65303,1,0,0:0:0:0:
411,174,65395,1,8,0:0:0:0:
411,174,65486,1,8,0:0:0:0:
444,191,65578,1,0,0:0:0:0:
411,174,65669,1,8,0:0:0:0:
411,174,65761,1,8,0:0:0:0:
380,95,65944,1,0,0:0:0:0:
444,191,66035,1,8,0:0:0:0:
444,191,66127,1,0,0:0:0:0:
444,191,66218,1,0,0:0:0:0:
411,174,66310,1,8,0:0:0:0:
411,174,66401,1,0,0:0:0:0:
411,174,66492,1,8,0:0:0:0:
444,191,66675,1,0,0:0:0:0:
444,191,66736,1,0,0:0:0:0:
444,191,66797,1,0,0:0:0:0:
411,174,66858,1,8,0:0:0:0:
476,191,66950,1,8,0:0:0:0:
476,191,67041,1,0,0:0:0:0:
444,191,67133,1,8,0:0:0:0:
476,191,67224,1,8,0:0:0:0:
476,191,67407,1,0,0:0:0:0:
444,191,67499,1,8,0:0:0:0:
476,191,67590,1,0,0:0:0:0:
444,191,67681,1,0,0:0:0:0:
444,191,67773,1,8,0:0:0:0:
411,174,67864,1,0,0:0:0:0:
444,191,67956,1,8,0:0:0:0:
411,174,68139,1,8,0:0:0:0:
444,287,68322,1,0,0:0:0:0:
508,159,68413,1,0,0:0:0:0:
508,159,68505,1,0,0:0:0:0:
508,159,68596,1,0,0:0:0:0:
444,159,68688,1,8,0:0:0:0:
444,223,68779,1,0,0:0:0:0:
444,159,68870,1,0,0:0:0:0:
476,191,68962,1,0,0:0:0:0:
411,174,69053,1,8,0:0:0:0:
411,174,69145,1,8,0:0:0:0:
476,159,69236,1,0,0:0:0:0:
476,159,69328,1,0,0:0:0:0:
411,174,69419,1,8,0:0:0:0:
411,174,69602,1,8,0:0:0:0:
444,223,69694,1,0,0:0:0:0:
444,191,69785,1,8,0:0:0:0:
476,191,69877,1,0,0:0:0:0:
476,191,69968,1,0,0:0:0:0:
476,191,70060,1,0,0:0:0:0:
476,159,70151,1,8,0:0:0:0:
411,174,70242,1,0,0:0:0:0:
476,159,70334,1,8,0:0:0:0:
476,159,70425,1,8,0:0:0:0:
476,159,70517,1,0,0:0:0:0:
444,159,70608,1,0,0:0:0:0:
444,159,70700,1,8,0:0:0:0:
444,159,70791,1,0,0:0:0:0:
476,159,70883,1,8,0:0:0:0:
444,159,70974,1,8,0:0:0:0:
411,174,71066,1,8,0:0:0:0:
476,159,71157,1,0,0:0:0:0:
444,191,71249,1,8,0:0:0:0:
444,159,71340,1,0,0:0:0:0:
476,159,71431,1,0,0:0:0:0:
476,159,71523,1,0,0:0:0:0:
476,159,71614,1,8,0:0:0:0:
444,159,71797,1,8,0:0:0:0:
476,159,71889,1,0,0:0:0:0:
476,159,71980,1,0,0:0:0:0:
476,159,72072,1,0,0:0:0:0:
444,191,72163,1,8,0:0:0:0:
476,159,72346,1,8,0:0:0:0:
444,159,72438,1,0,0:0:0:0:
444,159,72529,1,0,0:0:0:0:
444,159,72620,1,0,0:0:0:0:
444,159,72712,1,8,0:0:0:0:
444,159,72803,1,8,0:0:0:0:
444,191,72895,1,0,0:0:0:0:
444,191,72986,1,0,0:0:0:0:
476,159,73078,1,8,0:0:0:0:
476,159,73261,1,8,0:0:0:0:
476,159,73352,1,8,0:0:0:0:
444,159,73444,1,0,0:0:0:0:
444,159,73535,1,0,0:0:0:0:
476,159,73627,1,8,0:0:0:0:
476,159,73810,1,8,0:0:0:0:
444,191,73901,1,8,0:0:0:0:
444,191,73992,1,8,0:0:0:0:
444,159,74084,1,0,0:0:0:0:
476,159,74175,1,8,0:0:0:0:
444,159,74267,1,8,0:0:0:0:
444,159,74358,1,0,0:0:0:0:
444,159,74450,1,8,0:0:0:0:
444,159,74541,1,8,0:0:0:0:
348,127,74724,1,8,0:0:0:0:
380,159,74816,1,8,0:0:0:0:
444,159,74907,1,0,0:0:0:0:
380,159,74999,1,8,0:0:0:0:
444,159,75090,1,8,0:0:0:0:
476,255,75273,1,8,0:0:0:0:
444,223,75364,1,8,0:0:0:0:
444,223,75456,1,0,0:0:0:0:
412,191,75547,1,0,0:0:0:0:
476,191,75639,1,8,0:0:0:0:
476,191,75730,1,8,0:0:0:0:
476,191,75822,1,8,0:0:0:0:
412,159,75913,1,8,0:0:0:0:
444,159,76005,1,0,0:0:0:0:
444,159,76096,1,0,0:0:0:0:
444,159,76188,1,0,0:0:0:0:
476,191,76279,1,0,0:0:0:0:
412,191,76370,1,8,0:0:0:0:
476,191,76553,1,0,0:0:0:0:
476,191,76645,1,8,0:0:0:0:
480,256,76736,1,0,0:0:0:0:
480,256,76828,1,0,0:0:0:0:
444,191,76919,1,8,0:0:0:0:
412,191,77102,1,8,0:0:0:0:
412,191,77194,1,0,0:0:0:0:
412,191,77285,1,0,0:0:0:0:
412,191,77377,1,0,0:0:0:0:
444,191,77468,1,8,0:0:0:0:
476,287,77651,1,8,0:0:0:0:
444,223,77742,1,8,0:0:0:0:
412,159,77834,1,0,0:0:0:0:
412,159,77925,1,0,0:0:0:0:
476,159,78017,1,8,0:0:0:0:
412,191,78200,1,8,0:0:0:0:
444,223,78291,1,8,0:0:0:0:
444,223,78383,1,8,0:0:0:0:
412,191,78474,1,0,0:0:0:0:
444,191,78566,1,8,0:0:0:0:
448,192,78657,1,0,0:0:0:0:
412,159,78749,1,0,0:0:0:0:
444,191,78840,1,0,0:0:0:0:
444,191,78931,1,8,0:0:0:0:
384,192,79023,1,8,0:0:0:0:
448,160,79114,1,0,0:0:0:0:
444,191,79206,1,0,0:0:0:0:
444,191,79297,1,8,0:0:0:0:
444,191,79389,1,8,0:0:0:0:
444,191,79480,1,8,0:0:0:0:
412,191,79572,1,0,0:0:0:0:
444,191,79663,1,8,0:0:0:0:
412,191,79755,1,8,0:0:0:0:
476,159,79846,1,0,0:0:0:0:
416,192,80029,1,8,0:0:0:0:
476,159,80120,1,0,0:0:0:0:
476,159,80212,1,8,0:0:0:0:
444,191,80303,1,0,0:0:0:0:
476,159,80395,1,8,0:0:0:0:
476,159,80486,1,8,0:0:0:0:
444,191,80578,1,0,0:0:0:0:
412,223,80669,1,0,0:0:0:0:
444,191,80761,1,8,0:0:0:0:
410,182,80822,1,0,0:0:0:0:
410,182,80883,1,0,0:0:0:0:
424,167,80944,1,8,0:0:0:0:
412,191,81005,1,0,0:0:0:0:
412,191,81066,1,0,0:0:0:0:
424,167,81127,1,8,0:0:0:0:
424,167,81218,1,0,0:0:0:0:
476,159,81310,1,8,0:0:0:0:
424,167,81401,1,8,0:0:0:0:
424,167,81492,1,0,0:0:0:0:
444,191,81675,1,12,0:0:0:0:
444,191,81950,1,12,0:0:0:0:
444,191,82224,1,12,0:0:0:0:
444,191,82590,1,8,0:0:0:0:
444,191,82681,1,8,0:0:0:0:
444,191,82773,1,8,0:0:0:0:
444,191,82864,1,8,0:0:0:0:
444,191,82956,1,4,0:0:0:0:
388,190,83322,1,8,0:0:0:0:
419,193,83505,1,0,0:0:0:0:
419,193,83596,1,0,0:0:0:0:
407,181,83688,1,8,0:0:0:0:
440,172,83870,1,0,0:0:0:0:
407,181,84053,1,8,0:0:0:0:
419,181,84236,1,8,0:0:0:0:
419,181,84328,1,8,0:0:0:0:
418,181,84419,1,0,0:0:0:0:
435,172,84602,1,0,0:0:0:0:
395,170,84694,1,0,0:0:0:0:
407,181,84785,1,8,0:0:0:0:
321,163,84968,1,8,0:0:0:0:
412,191,85151,1,0,0:0:0:0:
412,159,85242,1,0,0:0:0:0:
435,172,85334,1,0,0:0:0:0:
476,159,85425,1,0,0:0:0:0:
380,159,85517,1,8,0:0:0:0:
373,175,85700,1,0,0:0:0:0:
435,176,85883,1,8,0:0:0:0:
444,159,86066,1,0,0:0:0:0:
444,159,86157,1,0,0:0:0:0:
435,172,86249,1,8,0:0:0:0:
392,188,86431,1,8,0:0:0:0:
375,157,86614,1,0,0:0:0:0:
504,183,86706,1,0,0:0:0:0:
376,176,86797,1,8,0:0:0:0:
435,177,86889,1,0,0:0:0:0:
444,159,86980,1,8,0:0:0:0:
364,186,87163,1,8,0:0:0:0:
461,171,87346,1,0,0:0:0:0:
392,188,87438,1,0,0:0:0:0:
435,177,87529,1,0,0:0:0:0:
435,177,87620,1,0,0:0:0:0:
366,173,87712,1,8,0:0:0:0:
414,180,87895,1,0,0:0:0:0:
392,188,87986,1,0,0:0:0:0:
435,177,88078,1,8,0:0:0:0:
414,180,88261,1,8,0:0:0:0:
380,191,88352,1,0,0:0:0:0:
347,161,88444,1,8,0:0:0:0:
414,180,88627,1,8,0:0:0:0:
379,139,88810,1,4,0:0:0:0:
459,156,88992,1,0,0:0:0:0:
379,139,89084,1,0,0:0:0:0:
434,160,89175,1,8,0:0:0:0:
416,150,89358,1,0,0:0:0:0:
434,160,89541,1,8,0:0:0:0:
434,160,89633,1,8,0:0:0:0:
459,156,89724,1,0,0:0:0:0:
459,156,89816,1,0,0:0:0:0:
434,153,89907,1,8,0:0:0:0:
434,160,90090,1,0,0:0:0:0:
416,150,90273,1,8,0:0:0:0:
459,156,90456,1,8,0:0:0:0:
412,159,90547,1,0,0:0:0:0:
459,156,90639,1,8,0:0:0:0:
434,160,90822,1,8,0:0:0:0:
455,176,90913,1,8,0:0:0:0:
403,167,91005,1,0,0:0:0:0:
452,160,91096,1,0,0:0:0:0:
416,150,91188,1,0,0:0:0:0:
412,159,91279,1,0,0:0:0:0:
422,176,91370,1,8,0:0:0:0:
424,162,91553,1,0,0:0:0:0:
448,224,91645,1,0,0:0:0:0:
403,167,91736,1,8,0:0:0:0:
425,168,91919,1,8,0:0:0:0:
419,168,92011,1,8,0:0:0:0:
409,167,92102,1,0,0:0:0:0:
426,167,92285,1,8,0:0:0:0:
422,152,92468,1,0,0:0:0:0:
439,184,92560,1,0,0:0:0:0:
455,176,92651,1,0,0:0:0:0:
460,165,92742,1,0,0:0:0:0:
376,159,92834,1,8,0:0:0:0:
419,168,93017,1,8,0:0:0:0:
409,167,93108,1,0,0:0:0:0:
427,158,93200,1,8,0:0:0:0:
427,158,93291,1,8,0:0:0:0:
447,156,93383,1,0,0:0:0:0:
448,176,93474,1,8,0:0:0:0:
447,178,93566,1,0,0:0:0:0:
410,173,93749,1,0,0:0:0:0:
447,174,93840,1,8,0:0:0:0:
397,144,93931,1,8,0:0:0:0:
407,162,94023,1,0,0:0:0:0:
407,165,94114,1,8,0:0:0:0:
432,160,94206,1,0,0:0:0:0:
473,180,94389,1,0,0:0:0:0:
455,210,94480,1,8,0:0:0:0:
488,162,94663,1,4,0:0:0:0:
434,171,95029,1,8,0:0:0:0:
435,172,95212,1,0,0:0:0:0:
473,180,95303,1,0,0:0:0:0:
434,171,95395,1,8,0:0:0:0:
438,171,95578,1,0,0:0:0:0:
446,165,95761,1,8,0:0:0:0:
473,180,95944,1,0,0:0:0:0:
473,180,96035,1,0,0:0:0:0:
477,151,96127,1,8,0:0:0:0:
448,192,96218,1,0,0:0:0:0:
440,164,96310,1,8,0:0:0:0:
440,164,96401,1,8,0:0:0:0:
440,168,96492,1,0,0:0:0:0:
418,156,96675,1,8,0:0:0:0:
417,156,96767,1,8,0:0:0:0:
457,171,96858,1,0,0:0:0:0:
440,157,96950,1,0,0:0:0:0:
435,169,97041,1,8,0:0:0:0:
480,224,97224,1,0,0:0:0:0:
480,224,97316,1,0,0:0:0:0:
512,160,97407,1,0,0:0:0:0:
401,216,97590,1,8,0:0:0:0:
465,162,97773,1,0,0:0:0:0:
465,162,97864,1,0,0:0:0:0:
369,155,97956,1,8,0:0:0:0:
433,163,98139,1,8,0:0:0:0:
384,151,98230,1,0,0:0:0:0:
414,160,98322,1,8,0:0:0:0:
445,165,98505,1,0,0:0:0:0:
445,165,98596,1,0,0:0:0:0:
478,162,98688,1,8,0:0:0:0:
444,255,98779,1,0,0:0:0:0:
420,171,98870,1,8,0:0:0:0:
420,171,98962,1,8,0:0:0:0:
475,171,99053,1,0,0:0:0:0:
424,138,99236,1,0,0:0:0:0:
444,223,99328,1,0,0:0:0:0:
442,170,99419,1,8,0:0:0:0:
420,171,99602,1,0,0:0:0:0:
420,171,99785,1,8,0:0:0:0:
420,171,99877,1,8,0:0:0:0:
408,162,99968,1,0,0:0:0:0:
420,171,100060,1,0,0:0:0:0:
382,157,100151,1,8,0:0:0:0:
442,170,100334,1,8,0:0:0:0:
415,143,100517,1,4,0:0:0:0:
458,155,100700,1,0,0:0:0:0:
437,158,100883,1,8,0:0:0:0:
344,89,101066,1,0,0:0:0:0:
344,89,101157,1,0,0:0:0:0:
477,158,101249,1,8,0:0:0:0:
380,159,101431,1,0,0:0:0:0:
447,154,101614,1,8,0:0:0:0:
458,155,101706,1,8,0:0:0:0:
437,165,101797,1,0,0:0:0:0:
444,223,101889,1,0,0:0:0:0:
447,159,101980,1,8,0:0:0:0:
476,191,102163,1,8,0:0:0:0:
476,191,102255,1,8,0:0:0:0:
476,158,102346,1,0,0:0:0:0:
476,191,102529,1,8,0:0:0:0:
476,158,102620,1,0,0:0:0:0:
447,159,102712,1,8,0:0:0:0:
444,223,102803,1,0,0:0:0:0:
447,159,102895,1,0,0:0:0:0:
348,159,102986,1,0,0:0:0:0:
476,159,103078,1,8,0:0:0:0:
384,128,103261,1,0,0:0:0:0:
384,128,103352,1,0,0:0:0:0:
476,191,103444,1,8,0:0:0:0:
392,157,103627,1,8,0:0:0:0:
392,157,103718,1,8,0:0:0:0:
425,151,103810,1,0,0:0:0:0:
451,155,103992,1,8,0:0:0:0:
444,383,104175,1,0,0:0:0:0:
412,159,104267,1,0,0:0:0:0:
451,155,104358,1,8,0:0:0:0:
451,155,104450,1,8,0:0:0:0:
444,159,104541,1,0,0:0:0:0:
412,159,104724,1,8,0:0:0:0:
444,159,104907,1,0,0:0:0:0:
444,159,104999,1,0,0:0:0:0:
444,159,105090,1,8,0:0:0:0:
476,191,105181,1,0,0:0:0:0:
444,159,105273,1,8,0:0:0:0:
444,191,105456,1,8,0:0:0:0:
444,159,105547,1,0,0:0:0:0:
412,159,105639,1,8,0:0:0:0:
412,159,105730,1,8,0:0:0:0:
412,159,105822,1,0,0:0:0:0:
476,159,105913,1,0,0:0:0:0:
412,159,106005,1,8,0:0:0:0:
444,159,106096,1,0,0:0:0:0:
380,159,106188,1,8,0:0:0:0:
476,127,106370,1,4,0:0:0:0:
462,176,106736,1,8,0:0:0:0:
450,188,106919,1,8,0:0:0:0:
450,188,107011,1,8,0:0:0:0:
404,173,107102,1,0,0:0:0:0:
404,173,107285,1,0,0:0:0:0:
462,176,107377,1,0,0:0:0:0:
462,176,107468,1,8,0:0:0:0:
485,169,107651,1,0,0:0:0:0:
450,188,107834,1,8,0:0:0:0:
414,155,108017,1,8,0:0:0:0:
414,155,108108,1,8,0:0:0:0:
420,163,108200,1,0,0:0:0:0:
444,170,108383,1,8,0:0:0:0:
414,165,108566,1,0,0:0:0:0:
409,160,108657,1,0,0:0:0:0:
438,157,108749,1,8,0:0:0:0:
470,186,108840,1,0,0:0:0:0:
477,181,108931,1,8,0:0:0:0:
448,169,109114,1,0,0:0:0:0:
485,169,109297,1,8,0:0:0:0:
404,230,109389,1,8,0:0:0:0:
485,167,109480,1,0,0:0:0:0:
485,167,109572,1,0,0:0:0:0:
458,164,109663,1,8,0:0:0:0:
480,256,109846,1,0,0:0:0:0:
426,149,109938,1,0,0:0:0:0:
420,167,110029,1,8,0:0:0:0:
469,184,110120,1,0,0:0:0:0:
448,224,110212,1,8,0:0:0:0:
420,167,110303,1,8,0:0:0:0:
427,175,110395,1,0,0:0:0:0:
480,256,110578,1,8,0:0:0:0:
448,224,110669,1,0,0:0:0:0:
458,174,110761,1,8,0:0:0:0:
449,176,110944,1,0,0:0:0:0:
427,175,111127,1,8,0:0:0:0:
464,169,111310,1,0,0:0:0:0:
463,169,111401,1,0,0:0:0:0:
451,163,111492,1,8,0:0:0:0:
451,163,111584,1,8,0:0:0:0:
477,172,111675,1,0,0:0:0:0:
468,171,111858,1,8,0:0:0:0:
458,178,111950,1,0,0:0:0:0:
460,179,112041,1,8,0:0:0:0:
507,179,112133,1,8,0:0:0:0:
440,186,112224,1,0,0:0:0:0:
491,146,112407,1,8,0:0:0:0:
491,146,112499,1,8,0:0:0:0:
506,171,112590,1,0,0:0:0:0:
444,159,112773,1,8,0:0:0:0:
508,159,112956,1,0,0:0:0:0:
476,159,113047,1,0,0:0:0:0:
444,159,113139,1,8,0:0:0:0:
440,186,113230,1,0,0:0:0:0:
416,192,113322,1,8,0:0:0:0:
444,159,113505,1,0,0:0:0:0:
416,192,113688,1,8,0:0:0:0:
444,159,113870,1,8,0:0:0:0:
444,159,113962,1,8,0:0:0:0:
380,159,114053,1,0,0:0:0:0:
412,159,114236,1,8,0:0:0:0:
437,158,114419,1,0,0:0:0:0:
444,159,114511,1,0,0:0:0:0:
444,159,114602,1,0,0:0:0:0:
316,159,114694,1,0,0:0:0:0:
476,159,114785,1,8,0:0:0:0:
412,159,114968,1,0,0:0:0:0:
412,159,115151,1,8,0:0:0:0:
476,159,115334,1,0,0:0:0:0:
476,159,115425,1,0,0:0:0:0:
476,159,115517,1,8,0:0:0:0:
476,159,115700,1,8,0:0:0:0:
476,159,115791,1,8,0:0:0:0:
476,159,115883,1,0,0:0:0:0:
476,223,116066,1,8,0:0:0:0:
476,159,116157,1,0,0:0:0:0:
476,191,116249,1,0,0:0:0:0:
476,191,116340,1,0,0:0:0:0:
444,159,116431,1,8,0:0:0:0:
412,191,116523,1,8,0:0:0:0:
444,159,116614,1,0,0:0:0:0:
476,191,116797,1,0,0:0:0:0:
412,191,116980,1,8,0:0:0:0:
444,191,117163,1,0,0:0:0:0:
444,191,117255,1,0,0:0:0:0:
444,223,117346,1,8,0:0:0:0:
444,223,117529,1,8,0:0:0:0:
458,196,117620,1,8,0:0:0:0:
444,223,117712,1,0,0:0:0:0:
412,191,117803,1,0,0:0:0:0:
352,192,117895,1,8,0:0:0:0:
444,191,118078,1,4,0:0:0:0:
448,288,118261,1,0,0:0:0:0:
444,191,118352,1,0,0:0:0:0:
380,159,118444,1,8,0:0:0:0:
380,159,118627,1,8,0:0:0:0:
380,159,118810,1,0,0:0:0:0:
380,159,118901,1,0,0:0:0:0:
444,191,118992,1,8,0:0:0:0:
348,191,119175,1,8,0:0:0:0:
348,191,119267,1,8,0:0:0:0:
412,159,119358,1,0,0:0:0:0:
444,255,119450,1,0,0:0:0:0:
443,171,119541,1,8,0:0:0:0:
476,223,119724,1,0,0:0:0:0:
476,223,119816,1,0,0:0:0:0:
380,191,119907,1,0,0:0:0:0:
412,159,119999,1,0,0:0:0:0:
439,162,120090,1,8,0:0:0:0:
343,153,120273,1,0,0:0:0:0:
343,153,120364,1,0,0:0:0:0:
368,191,120456,1,8,0:0:0:0:
476,191,120639,1,8,0:0:0:0:
370,171,120730,1,8,0:0:0:0:
406,164,120822,1,0,0:0:0:0:
452,205,120913,1,0,0:0:0:0:
426,180,121005,1,8,0:0:0:0:
460,168,121188,1,8,0:0:0:0:
460,168,121279,1,8,0:0:0:0:
432,168,121370,1,0,0:0:0:0:
404,169,121553,1,8,0:0:0:0:
471,224,121736,1,0,0:0:0:0:
449,173,121828,1,0,0:0:0:0:
463,178,121919,1,8,0:0:0:0:
432,185,122011,1,0,0:0:0:0:
463,178,122102,1,8,0:0:0:0:
473,150,122285,1,0,0:0:0:0:
316,84,122377,1,0,0:0:0:0:
387,181,122468,1,8,0:0:0:0:
420,168,122651,1,0,0:0:0:0:
482,162,122834,1,8,0:0:0:0:
472,148,123017,1,0,0:0:0:0:
472,148,123108,1,0,0:0:0:0:
447,158,123200,1,8,0:0:0:0:
430,160,123291,1,8,0:0:0:0:
441,173,123383,1,0,0:0:0:0:
407,165,123474,1,0,0:0:0:0:
443,172,123566,1,8,0:0:0:0:
439,134,123657,1,0,0:0:0:0:
435,174,123749,1,8,0:0:0:0:
441,173,123840,1,8,0:0:0:0:
441,173,123931,1,0,0:0:0:0:
412,223,124297,1,0,0:0:0:0:
380,159,124663,1,0,0:0:0:0:
380,191,125029,1,0,0:0:0:0:
380,191,125395,1,8,0:0:0:0:
380,191,125761,1,0,0:0:0:0:
457,181,125944,1,8,0:0:0:0:
465,150,126035,1,8,0:0:0:0:
457,181,126127,1,0,0:0:0:0:
470,157,126218,1,8,0:0:0:0:
470,157,126310,1,8,0:0:0:0:
437,162,126492,1,8,0:0:0:0:
492,157,126675,1,0,0:0:0:0:
489,158,126767,1,0,0:0:0:0:
474,153,126858,1,8,0:0:0:0:
474,153,127041,1,8,0:0:0:0:
474,153,127224,1,8,0:0:0:0:
490,149,127407,1,8,0:0:0:0:
384,192,127590,1,8,0:0:0:0:
494,143,127773,1,0,0:0:0:0:
494,143,127864,1,0,0:0:0:0:
494,143,127956,1,0,0:0:0:0:
494,143,128047,1,0,0:0:0:0:
494,143,128139,1,0,0:0:0:0:
494,143,128230,1,0,0:0:0:0:
461,148,128322,1,8,0:0:0:0:
473,133,128505,5,12,0:0:0:0:
473,133,128779,1,12,0:0:0:0:
473,133,129053,1,12,0:0:0:0:
376,175,129236,1,8,0:0:0:0:
327,162,129328,1,8,0:0:0:0:
484,162,129419,1,0,0:0:0:0:
484,162,129511,1,0,0:0:0:0:
442,153,129602,1,0,0:0:0:0:
326,148,129785,5,12,0:0:0:0:
323,133,129968,1,0,0:0:0:0:
323,133,130060,1,0,0:0:0:0:
316,179,130151,1,8,0:0:0:0:
344,143,130334,1,0,0:0:0:0:
344,143,130425,1,0,0:0:0:0:
340,155,130517,1,8,0:0:0:0:
356,163,130608,1,0,0:0:0:0:
356,175,130700,1,8,0:0:0:0:
428,159,130791,1,8,0:0:0:0:
376,175,130883,1,0,0:0:0:0:
356,167,131066,1,8,0:0:0:0:
389,168,131157,1,0,0:0:0:0:
416,167,131249,1,8,0:0:0:0:
348,159,131340,1,0,0:0:0:0:
348,159,131431,1,0,0:0:0:0:
396,175,131523,1,8,0:0:0:0:
356,163,131614,1,0,0:0:0:0:
412,191,131706,1,0,0:0:0:0:
450,165,131797,1,8,0:0:0:0:
416,167,131980,1,8,0:0:0:0:
412,159,132072,1,8,0:0:0:0:
407,198,132163,1,8,0:0:0:0:
416,167,132255,1,0,0:0:0:0:
450,165,132346,1,8,0:0:0:0:
450,165,132438,1,0,0:0:0:0:
462,219,132529,1,8,0:0:0:0:
462,219,132620,1,8,0:0:0:0:
412,191,132712,1,0,0:0:0:0:
416,167,132803,1,0,0:0:0:0:
380,163,132895,1,8,0:0:0:0:
440,183,132986,1,0,0:0:0:0:
428,167,133078,1,8,0:0:0:0:
412,171,133261,1,0,0:0:0:0:
412,171,133352,1,0,0:0:0:0:
404,163,133444,1,8,0:0:0:0:
416,167,133535,1,0,0:0:0:0:
416,167,133627,1,0,0:0:0:0:
416,167,133718,1,0,0:0:0:0:
416,167,133810,1,8,0:0:0:0:
464,151,133901,1,0,0:0:0:0:
388,167,133992,1,8,0:0:0:0:
428,167,134084,1,8,0:0:0:0:
416,167,134175,1,0,0:0:0:0:
428,151,134358,1,0,0:0:0:0:
428,151,134450,1,0,0:0:0:0:
380,163,134541,1,8,0:0:0:0:
428,167,134724,1,0,0:0:0:0:
388,167,134816,1,8,0:0:0:0:
412,171,134907,1,0,0:0:0:0:
396,167,135090,1,0,0:0:0:0:
396,167,135181,1,0,0:0:0:0:
368,175,135273,1,8,0:0:0:0:
380,163,135456,1,0,0:0:0:0:
372,159,135547,1,8,0:0:0:0:
360,131,135639,1,0,0:0:0:0:
412,163,135730,1,0,0:0:0:0:
428,159,135822,1,8,0:0:0:0:
412,171,135913,1,0,0:0:0:0:
428,159,136005,1,8,0:0:0:0:
356,159,136188,1,8,0:0:0:0:
420,163,136279,1,0,0:0:0:0:
464,163,136370,1,8,0:0:0:0:
380,163,136462,1,8,0:0:0:0:
412,171,136553,1,0,0:0:0:0:
364,183,136736,1,8,0:0:0:0:
404,163,136828,1,0,0:0:0:0:
404,163,136919,1,0,0:0:0:0:
428,159,137011,1,0,0:0:0:0:
408,187,137102,1,8,0:0:0:0:
380,147,137194,1,8,0:0:0:0:
428,151,137285,1,0,0:0:0:0:
428,151,137377,1,0,0:0:0:0:
432,159,137468,1,8,0:0:0:0:
428,175,137651,1,0,0:0:0:0:
420,191,137742,1,0,0:0:0:0:
384,155,137834,1,8,0:0:0:0:
408,187,138017,1,8,0:0:0:0:
416,192,138108,1,8,0:0:0:0:
448,211,138200,1,0,0:0:0:0:
448,211,138291,1,0,0:0:0:0:
416,167,138383,1,8,0:0:0:0:
412,159,138474,1,0,0:0:0:0:
436,183,138566,1,8,0:0:0:0:
436,159,138657,1,8,0:0:0:0:
428,163,138749,1,0,0:0:0:0:
428,163,138840,1,0,0:0:0:0:
428,159,138931,1,8,0:0:0:0:
436,183,139114,1,8,0:0:0:0:
448,237,139206,1,0,0:0:0:0:
356,155,139297,1,0,0:0:0:0:
468,171,139389,1,0,0:0:0:0:
356,155,139480,1,8,0:0:0:0:
384,155,139572,1,0,0:0:0:0:
484,207,139663,1,8,0:0:0:0:
413,158,139755,1,8,0:0:0:0:
384,155,139846,1,0,0:0:0:0:
452,163,140029,1,8,0:0:0:0:
384,155,140120,1,0,0:0:0:0:
428,155,140212,1,8,0:0:0:0:
428,155,140303,1,8,0:0:0:0:
428,155,140395,1,0,0:0:0:0:
413,158,140486,1,8,0:0:0:0:
413,158,140578,1,8,0:0:0:0:
448,199,140669,1,0,0:0:0:0:
452,163,140761,1,8,0:0:0:0:
452,163,140852,1,0,0:0:0:0:
452,163,140944,1,8,0:0:0:0:
452,163,141035,1,8,0:0:0:0:
464,159,141127,1,0,0:0:0:0:
428,155,141218,1,8,0:0:0:0:
412,159,141310,1,0,0:0:0:0:
480,160,141401,1,0,0:0:0:0:
452,163,141492,1,8,0:0:0:0:
428,167,141675,1,8,0:0:0:0:
396,171,141767,1,0,0:0:0:0:
428,167,141858,1,8,0:0:0:0:
452,163,142041,1,0,0:0:0:0:
428,167,142133,1,0,0:0:0:0:
452,163,142224,1,8,0:0:0:0:
452,163,142316,1,0,0:0:0:0:
428,167,142407,1,8,0:0:0:0:
428,167,142499,1,8,0:0:0:0:
428,167,142590,1,0,0:0:0:0:
428,167,142681,1,0,0:0:0:0:
428,167,142773,1,8,0:0:0:0:
371,171,142864,1,0,0:0:0:0:
452,163,142956,1,8,0:0:0:0:
452,163,143047,1,0,0:0:0:0:
452,163,143139,1,0,0:0:0:0:
452,163,143230,1,8,0:0:0:0:
452,163,143322,1,0,0:0:0:0:
428,167,143413,1,0,0:0:0:0:
372,169,143505,1,8,0:0:0:0:
428,167,143688,1,0,0:0:0:0:
452,163,143779,1,8,0:0:0:0:
452,163,143870,1,8,0:0:0:0:
428,167,143962,1,0,0:0:0:0:
452,163,144053,1,8,0:0:0:0:
452,163,144145,1,8,0:0:0:0:
452,163,144236,1,8,0:0:0:0:
452,163,144328,1,0,0:0:0:0:
452,163,144419,1,8,0:0:0:0:
452,163,144511,1,8,0:0:0:0:
412,191,144602,1,0,0:0:0:0:
428,167,144694,1,0,0:0:0:0:
452,163,144785,1,8,0:0:0:0:
428,167,144968,1,0,0:0:0:0:
452,163,145060,1,0,0:0:0:0:
452,163,145151,1,8,0:0:0:0:
452,163,145242,1,0,0:0:0:0:
452,163,145334,1,8,0:0:0:0:
428,167,145425,1,8,0:0:0:0:
483,174,145517,1,0,0:0:0:0:
452,163,145608,1,0,0:0:0:0:
452,163,145700,1,8,0:0:0:0:
452,163,145791,1,0,0:0:0:0:
452,163,145883,1,8,0:0:0:0:
452,163,146066,1,0,0:0:0:0:
483,174,146157,1,0,0:0:0:0:
483,174,146249,1,8,0:0:0:0:
483,174,146431,1,0,0:0:0:0:
412,159,146523,1,8,0:0:0:0:
452,163,146614,1,0,0:0:0:0:
483,174,146797,1,0,0:0:0:0:
412,159,146889,1,0,0:0:0:0:
412,159,146980,1,8,0:0:0:0:
483,174,147163,1,0,0:0:0:0:
412,159,147255,1,8,0:0:0:0:
412,159,147346,1,0,0:0:0:0:
412,159,147438,1,0,0:0:0:0:
483,174,147529,1,8,0:0:0:0:
452,163,147620,1,0,0:0:0:0:
452,163,147712,1,8,0:0:0:0:
452,163,147803,1,8,0:0:0:0:
452,163,147895,1,8,0:0:0:0:
405,195,147986,1,0,0:0:0:0:
458,177,148078,1,8,0:0:0:0:
452,163,148169,1,8,0:0:0:0:
452,163,148261,1,0,0:0:0:0:
452,163,148352,1,0,0:0:0:0:
412,159,148444,1,8,0:0:0:0:
500,181,148627,1,0,0:0:0:0:
452,163,148718,1,0,0:0:0:0:
452,163,148810,1,8,0:0:0:0:
405,195,148901,1,8,0:0:0:0:
458,177,148992,1,8,0:0:0:0:
412,159,149084,1,0,0:0:0:0:
452,163,149175,1,8,0:0:0:0:
508,159,149358,1,0,0:0:0:0:
508,159,149450,1,0,0:0:0:0:
508,159,149541,1,8,0:0:0:0:
444,255,149724,1,8,0:0:0:0:
452,163,149816,1,0,0:0:0:0:
452,163,149907,1,8,0:0:0:0:
508,159,149999,1,8,0:0:0:0:
508,159,150090,1,0,0:0:0:0:
451,155,150181,1,0,0:0:0:0:
500,181,150273,1,8,0:0:0:0:
449,154,150364,1,8,0:0:0:0:
452,163,150456,1,0,0:0:0:0:
504,183,150547,1,8,0:0:0:0:
452,163,150639,1,8,0:0:0:0:
428,175,150822,1,8,0:0:0:0:
396,155,150913,1,8,0:0:0:0:
356,155,151005,1,0,0:0:0:0:
468,171,151096,1,0,0:0:0:0:
356,155,151188,1,8,0:0:0:0:
384,155,151279,1,0,0:0:0:0:
484,207,151370,1,8,0:0:0:0:
444,246,151462,1,8,0:0:0:0:
484,207,151553,1,0,0:0:0:0:
484,207,151645,1,0,0:0:0:0:
452,163,151736,1,8,0:0:0:0:
444,191,151828,1,0,0:0:0:0:
413,158,151919,1,8,0:0:0:0:
464,159,152011,1,8,0:0:0:0:
428,155,152102,1,0,0:0:0:0:
452,163,152194,1,8,0:0:0:0:
413,158,152285,1,8,0:0:0:0:
464,159,152377,1,0,0:0:0:0:
452,163,152468,1,8,0:0:0:0:
452,163,152560,1,0,0:0:0:0:
452,163,152651,1,8,0:0:0:0:
452,163,152742,1,8,0:0:0:0:
464,159,152834,1,0,0:0:0:0:
428,155,152925,1,8,0:0:0:0:
412,159,153017,1,0,0:0:0:0:
413,158,153108,1,0,0:0:0:0:
452,163,153200,1,8,0:0:0:0:
507,155,153383,1,0,0:0:0:0:
507,155,153474,1,0,0:0:0:0:
452,163,153566,1,8,0:0:0:0:
452,163,153749,1,8,0:0:0:0:
452,163,153840,1,0,0:0:0:0:
452,163,153931,1,8,0:0:0:0:
452,163,154023,1,0,0:0:0:0:
452,163,154114,1,8,0:0:0:0:
452,163,154206,1,8,0:0:0:0:
452,163,154297,1,0,0:0:0:0:
452,163,154389,1,0,0:0:0:0:
452,163,154480,1,8,0:0:0:0:
508,191,154572,1,0,0:0:0:0:
452,163,154663,1,8,0:0:0:0:
452,163,154755,1,0,0:0:0:0:
452,163,154846,1,0,0:0:0:0:
452,163,154938,1,8,0:0:0:0:
452,163,155029,1,0,0:0:0:0:
452,163,155120,1,0,0:0:0:0:
508,191,155212,1,8,0:0:0:0:
444,191,155303,1,0,0:0:0:0:
452,163,155395,1,0,0:0:0:0:
508,191,155486,1,8,0:0:0:0:
508,191,155578,1,8,0:0:0:0:
508,191,155669,1,8,0:0:0:0:
476,159,155761,1,0,0:0:0:0:
452,163,155852,1,8,0:0:0:0:
452,163,155944,1,8,0:0:0:0:
452,163,156035,1,0,0:0:0:0:
508,191,156127,1,0,0:0:0:0:
444,191,156218,1,0,0:0:0:0:
380,191,156310,1,8,0:0:0:0:
444,191,156401,1,0,0:0:0:0:
476,159,156492,1,8,0:0:0:0:
444,255,156675,1,0,0:0:0:0:
476,191,156767,1,0,0:0:0:0:
452,163,156858,1,8,0:0:0:0:
444,191,156950,1,0,0:0:0:0:
452,163,157041,1,8,0:0:0:0:
444,191,157133,1,8,0:0:0:0:
444,191,157224,1,0,0:0:0:0:
444,191,157316,1,0,0:0:0:0:
476,159,157407,1,8,0:0:0:0:
412,191,157499,1,0,0:0:0:0:
476,191,157590,1,8,0:0:0:0:
476,191,157773,1,0,0:0:0:0:
476,191,157864,1,0,0:0:0:0:
444,191,157956,1,8,0:0:0:0:
476,191,158139,1,0,0:0:0:0:
444,191,158230,1,8,0:0:0:0:
476,191,158322,1,0,0:0:0:0:
476,191,158505,1,0,0:0:0:0:
476,191,158596,1,0,0:0:0:0:
476,191,158688,1,8,0:0:0:0:
476,191,158870,1,0,0:0:0:0:
476,191,158962,1,8,0:0:0:0:
502,181,159053,1,0,0:0:0:0:
502,181,159145,1,0,0:0:0:0:
502,181,159236,1,8,0:0:0:0:
476,191,159328,1,0,0:0:0:0:
502,181,159419,1,8,0:0:0:0:
502,181,159511,1,8,0:0:0:0:
502,181,159602,1,8,0:0:0:0:
476,191,159694,1,0,0:0:0:0:
476,191,159785,1,8,0:0:0:0:
504,142,159877,1,8,0:0:0:0:
462,178,159968,1,0,0:0:0:0:
462,178,160060,1,0,0:0:0:0:
462,178,160151,1,8,0:0:0:0:
476,191,160242,1,0,0:0:0:0:
476,191,160334,1,0,0:0:0:0:
476,191,160425,1,0,0:0:0:0:
457,243,160517,1,8,0:0:0:0:
486,194,160608,1,8,0:0:0:0:
486,194,160700,1,0,0:0:0:0:
486,194,160791,1,0,0:0:0:0:
444,223,160883,1,8,0:0:0:0:
412,127,161066,1,0,0:0:0:0:
444,191,161157,1,0,0:0:0:0:
476,191,161249,1,8,0:0:0:0:
476,191,161431,1,8,0:0:0:0:
476,191,161523,1,0,0:0:0:0:
476,191,161614,1,8,0:0:0:0:
476,191,161706,1,8,0:0:0:0:
444,159,161797,1,0,0:0:0:0:
444,159,161889,1,0,0:0:0:0:
476,191,161980,1,8,0:0:0:0:
508,223,162072,1,8,0:0:0:0:
505,166,162163,1,8,0:0:0:0:
476,191,162255,1,0,0:0:0:0:
476,159,162346,1,8,0:0:0:0:
444,159,162529,1,8,0:0:0:0:
444,159,162620,1,8,0:0:0:0:
444,159,162712,1,0,0:0:0:0:
444,159,162803,1,0,0:0:0:0:
444,159,162895,1,8,0:0:0:0:
444,159,162986,1,0,0:0:0:0:
476,159,163078,1,8,0:0:0:0:
476,159,163169,1,8,0:0:0:0:
444,159,163261,1,0,0:0:0:0:
444,159,163352,1,0,0:0:0:0:
444,159,163444,1,8,0:0:0:0:
387,164,163535,1,0,0:0:0:0:
387,164,163627,1,8,0:0:0:0:
444,159,163718,1,8,0:0:0:0:
444,159,163810,1,0,0:0:0:0:
444,159,163901,1,8,0:0:0:0:
390,177,163992,1,8,0:0:0:0:
434,142,164084,1,0,0:0:0:0:
444,159,164175,1,8,0:0:0:0:
444,159,164267,1,0,0:0:0:0:
491,187,164358,1,8,0:0:0:0:
489,242,164450,1,8,0:0:0:0:
491,187,164541,1,0,0:0:0:0:
489,242,164633,1,8,0:0:0:0:
445,171,164724,1,0,0:0:0:0:
445,171,164816,1,0,0:0:0:0:
445,171,164907,1,8,0:0:0:0:
444,159,164999,1,0,0:0:0:0:
444,159,165090,1,0,0:0:0:0:
444,159,165181,1,0,0:0:0:0:
444,159,165273,1,8,0:0:0:0:
445,171,165456,1,8,0:0:0:0:
445,171,165547,1,0,0:0:0:0:
445,171,165639,1,0,0:0:0:0:
445,171,165730,1,0,0:0:0:0:
445,171,165822,1,8,0:0:0:0:
508,159,165913,1,0,0:0:0:0:
444,159,166005,1,8,0:0:0:0:
445,171,166096,1,0,0:0:0:0:
445,171,166188,1,0,0:0:0:0:
444,159,166279,1,0,0:0:0:0:
508,159,166370,1,8,0:0:0:0:
508,159,166462,1,8,0:0:0:0:
444,159,166553,1,0,0:0:0:0:
508,159,166645,1,0,0:0:0:0:
508,159,166736,1,8,0:0:0:0:
444,159,166919,1,8,0:0:0:0:
508,159,167011,1,8,0:0:0:0:
444,159,167102,1,0,0:0:0:0:
444,159,167194,1,0,0:0:0:0:
508,159,167285,1,8,0:0:0:0:
444,159,167377,1,0,0:0:0:0:
444,159,167468,1,8,0:0:0:0:
444,159,167560,1,8,0:0:0:0:
444,159,167651,1,0,0:0:0:0:
444,159,167742,1,0,0:0:0:0:
508,159,167834,1,8,0:0:0:0:
444,159,167925,1,8,0:0:0:0:
508,159,168017,1,8,0:0:0:0:
444,159,168108,1,0,0:0:0:0:
444,159,168200,1,8,0:0:0:0:
444,159,168383,1,8,0:0:0:0:
444,159,168474,1,8,0:0:0:0:
508,159,168566,1,8,0:0:0:0:
444,159,168657,1,0,0:0:0:0:
380,159,168749,1,8,0:0:0:0:
444,159,168840,1,0,0:0:0:0:
444,159,168931,1,8,0:0:0:0:
444,159,169023,1,8,0:0:0:0:
444,159,169114,1,0,0:0:0:0:
444,159,169206,1,0,0:0:0:0:
444,159,169297,1,8,0:0:0:0:
444,159,169389,1,8,0:0:0:0:
444,159,169480,1,8,0:0:0:0:
476,191,169572,1,0,0:0:0:0:
444,159,169663,1,8,0:0:0:0:
444,159,169755,1,8,0:0:0:0:
444,159,169846,1,0,0:0:0:0:
444,159,169938,1,8,0:0:0:0:
380,159,170029,1,8,0:0:0:0:
444,159,170120,1,0,0:0:0:0:
444,159,170212,1,8,0:0:0:0:
444,159,170303,1,8,0:0:0:0:
444,159,170395,1,0,0:0:0:0:
444,159,170486,1,0,0:0:0:0:
444,159,170578,1,8,0:0:0:0:
444,159,170761,1,4,0:0:0:0:
444,159,170944,1,8,0:0:0:0:
444,159,171310,1,8,0:0:0:0:
444,159,171675,1,8,0:0:0:0:
380,191,172041,1,8,0:0:0:0:
316,95,172224,1,4,0:0:0:0:
412,191,172407,1,8,0:0:0:0:
380,127,172773,1,8,0:0:0:0:
479,177,173139,1,8,0:0:0:0:
444,191,173322,1,0,0:0:0:0:
476,191,173505,1,8,0:0:0:0:
476,191,173566,1,8,0:0:0:0:
476,191,173627,1,8,0:0:0:0:
444,191,173688,1,0,0:0:0:0:
444,191,173870,1,8,0:0:0:0:
476,191,174053,1,0,0:0:0:0:
476,191,174145,1,0,0:0:0:0:
444,191,174236,1,8,0:0:0:0:
412,159,174419,1,0,0:0:0:0:
412,159,174511,1,0,0:0:0:0:
476,191,174602,1,8,0:0:0:0:
476,159,174694,1,0,0:0:0:0:
412,159,174785,1,8,0:0:0:0:
412,159,174877,1,8,0:0:0:0:
476,159,174968,1,0,0:0:0:0:
476,159,175060,1,8,0:0:0:0:
412,159,175151,1,0,0:0:0:0:
476,159,175334,1,12,0:0:0:0:
476,159,175608,1,12,0:0:0:0:
476,159,175883,1,12,0:0:0:0:
476,159,176249,1,8,0:0:0:0:
476,159,176340,1,8,0:0:0:0:
476,159,176431,1,8,0:0:0:0:
476,159,176523,1,8,0:0:0:0:
476,159,176614,1,0,0:0:0:0:
476,223,176706,1,0,0:0:0:0:
412,159,176797,1,8,0:0:0:0:
444,191,176889,1,0,0:0:0:0:
444,191,176980,1,8,0:0:0:0:
476,223,177163,1,0,0:0:0:0:
508,159,177255,1,8,0:0:0:0:
444,159,177346,1,0,0:0:0:0:
380,191,177438,1,0,0:0:0:0:
380,191,177529,1,8,0:0:0:0:
412,159,177620,1,0,0:0:0:0:
380,191,177712,1,8,0:0:0:0:
488,162,177895,1,0,0:0:0:0:
488,162,177956,1,0,0:0:0:0:
488,162,178017,1,0,0:0:0:0:
412,159,178078,1,8,0:0:0:0:
444,159,178169,1,8,0:0:0:0:
412,159,178261,1,0,0:0:0:0:
412,159,178352,1,0,0:0:0:0:
359,177,178444,1,8,0:0:0:0:
488,162,178627,1,0,0:0:0:0:
436,183,178718,1,8,0:0:0:0:
379,175,178810,1,0,0:0:0:0:
379,175,178901,1,0,0:0:0:0:
436,183,178992,1,8,0:0:0:0:
444,159,179084,1,0,0:0:0:0:
488,162,179175,1,8,0:0:0:0:
444,159,179358,1,0,0:0:0:0:
436,183,179541,1,8,0:0:0:0:
412,223,179633,1,0,0:0:0:0:
436,183,179724,1,0,0:0:0:0:
379,175,179816,1,0,0:0:0:0:
444,159,179907,1,8,0:0:0:0:
436,183,179999,1,0,0:0:0:0:
444,159,180090,1,8,0:0:0:0:
444,159,180181,1,8,0:0:0:0:
380,191,180273,1,0,0:0:0:0:
380,191,180364,1,0,0:0:0:0:
436,183,180456,1,8,0:0:0:0:
380,191,180547,1,0,0:0:0:0:
380,191,180639,1,0,0:0:0:0:
444,159,180730,1,8,0:0:0:0:
380,191,180822,1,8,0:0:0:0:
436,183,180913,1,0,0:0:0:0:
380,191,181005,1,8,0:0:0:0:
476,255,181188,1,0,0:0:0:0:
476,255,181279,1,0,0:0:0:0:
436,183,181370,1,8,0:0:0:0:
436,183,181462,1,8,0:0:0:0:
436,183,181553,1,0,0:0:0:0:
436,183,181645,1,8,0:0:0:0:
436,183,181736,1,8,0:0:0:0:
476,223,181919,1,0,0:0:0:0:
476,223,182011,1,0,0:0:0:0:
424,199,182102,1,8,0:0:0:0:
492,176,182194,1,8,0:0:0:0:
492,176,182285,1,8,0:0:0:0:
454,171,182377,1,0,0:0:0:0:
436,183,182468,1,8,0:0:0:0:
384,192,182560,1,0,0:0:0:0:
454,171,182651,1,0,0:0:0:0:
492,176,182742,1,0,0:0:0:0:
436,175,182834,1,8,0:0:0:0:
454,171,183017,1,8,0:0:0:0:
436,175,183108,1,8,0:0:0:0:
454,171,183200,1,0,0:0:0:0:
454,171,183291,1,0,0:0:0:0:
436,183,183383,1,8,0:0:0:0:
492,176,183566,1,8,0:0:0:0:
448,192,183657,1,8,0:0:0:0:
416,160,183749,1,8,0:0:0:0:
352,160,183840,1,0,0:0:0:0:
436,183,183931,1,8,0:0:0:0:
448,192,184023,1,0,0:0:0:0:
492,176,184114,1,0,0:0:0:0:
492,176,184206,1,0,0:0:0:0:
454,171,184297,1,8,0:0:0:0:
384,192,184389,1,8,0:0:0:0:
384,192,184480,1,0,0:0:0:0:
436,183,184572,1,0,0:0:0:0:
436,183,184663,1,8,0:0:0:0:
436,183,184755,1,8,0:0:0:0:
436,175,184846,1,8,0:0:0:0:
436,183,184938,1,0,0:0:0:0:
454,171,185029,1,8,0:0:0:0:
436,183,185120,1,8,0:0:0:0:
454,171,185212,1,0,0:0:0:0:
512,192,185395,1,8,0:0:0:0:
436,183,185486,1,0,0:0:0:0:
388,154,185578,1,8,0:0:0:0:
442,170,185669,1,0,0:0:0:0:
436,183,185761,1,8,0:0:0:0:
436,175,185852,1,8,0:0:0:0:
436,183,185944,1,0,0:0:0:0:
454,171,186035,1,0,0:0:0:0:
454,171,186127,1,8,0:0:0:0:
442,170,186188,1,0,0:0:0:0:
442,170,186249,1,0,0:0:0:0:
442,170,186310,1,8,0:0:0:0:
405,161,186370,1,0,0:0:0:0:
405,161,186431,1,0,0:0:0:0:
436,183,186492,1,8,0:0:0:0:
490,196,186584,1,0,0:0:0:0:
442,170,186675,1,8,0:0:0:0:
436,183,186767,1,8,0:0:0:0:
436,175,186858,1,0,0:0:0:0:
490,196,187041,1,12,0:0:0:0:
490,196,187316,1,12,0:0:0:0:
490,196,187590,1,12,0:0:0:0:
433,173,187956,1,8,0:0:0:0:
433,173,188047,1,8,0:0:0:0:
433,173,188139,1,8,0:0:0:0:
431,163,188322,1,4,0:0:0:0:
444,255,188505,1,0,0:0:0:0:
444,255,188596,1,0,0:0:0:0:
436,178,188779,1,0,0:0:0:0:
476,223,188870,1,0,0:0:0:0:
433,172,188962,1,0,0:0:0:0:
380,188,189053,1,8,0:0:0:0:
380,188,189236,1,0,0:0:0:0:
444,223,189328,1,0,0:0:0:0:
436,178,189511,1,0,0:0:0:0:
476,223,189602,1,0,0:0:0:0:
436,178,189694,1,0,0:0:0:0:
436,178,189785,1,8,0:0:0:0:
492,175,189968,1,0,0:0:0:0:
444,223,190060,1,0,0:0:0:0:
436,178,190242,1,0,0:0:0:0:
380,159,190334,1,0,0:0:0:0:
436,178,190425,1,8,0:0:0:0:
436,178,190517,1,0,0:0:0:0:
436,178,190700,1,8,0:0:0:0:
444,223,190791,1,0,0:0:0:0:
508,191,190883,1,8,0:0:0:0:
436,178,191066,1,0,0:0:0:0:
436,178,191249,1,8,0:0:0:0:
476,223,191431,1,0,0:0:0:0:
436,178,191523,1,0,0:0:0:0:
444,159,191706,1,0,0:0:0:0:
508,191,191797,1,0,0:0:0:0:
444,223,191889,1,0,0:0:0:0:
436,178,191980,1,8,0:0:0:0:
436,178,192163,1,0,0:0:0:0:
436,178,192255,1,0,0:0:0:0:
444,159,192438,1,0,0:0:0:0:
444,159,192529,1,0,0:0:0:0:
436,178,192620,1,0,0:0:0:0:
436,178,192712,1,8,0:0:0:0:
476,127,192803,1,8,0:0:0:0:
444,159,192895,1,0,0:0:0:0:
444,159,192986,1,0,0:0:0:0:
380,159,193078,1,8,0:0:0:0:
436,178,193169,1,0,0:0:0:0:
436,178,193261,1,0,0:0:0:0:
436,178,193352,1,0,0:0:0:0:
444,159,193444,1,8,0:0:0:0:
476,223,193627,1,8,0:0:0:0:
476,223,193718,1,0,0:0:0:0:
380,159,193810,1,8,0:0:0:0:
380,159,193901,1,8,0:0:0:0:
444,159,193992,1,0,0:0:0:0:
444,159,194084,1,0,0:0:0:0:
508,159,194175,1,8,0:0:0:0:
485,205,194358,1,0,0:0:0:0:
447,172,194450,1,0,0:0:0:0:
447,172,194541,1,8,0:0:0:0:
444,287,194633,1,0,0:0:0:0:
498,181,194724,1,0,0:0:0:0:
348,63,194816,1,0,0:0:0:0:
412,191,194907,1,8,0:0:0:0:
447,172,195090,1,8,0:0:0:0:
444,223,195181,1,0,0:0:0:0:
447,172,195273,1,8,0:0:0:0:
447,172,195456,1,0,0:0:0:0:
447,172,195639,1,8,0:0:0:0:
447,172,195822,1,0,0:0:0:0:
447,172,195913,1,0,0:0:0:0:
447,172,196005,1,8,0:0:0:0:
476,223,196096,1,0,0:0:0:0:
444,223,196188,1,0,0:0:0:0:
412,159,196279,1,0,0:0:0:0:
444,223,196370,1,8,0:0:0:0:
447,172,196462,1,0,0:0:0:0:
447,172,196553,1,8,0:0:0:0:
447,172,196645,1,8,0:0:0:0:
412,159,196828,1,0,0:0:0:0:
447,172,196919,1,8,0:0:0:0:
476,223,197011,1,0,0:0:0:0:
447,172,197102,1,8,0:0:0:0:
444,223,197285,1,8,0:0:0:0:
447,172,197377,1,8,0:0:0:0:
447,172,197560,1,0,0:0:0:0:
412,159,197651,1,8,0:0:0:0:
447,172,197742,1,0,0:0:0:0:
412,159,197834,1,8,0:0:0:0:
447,172,197925,1,8,0:0:0:0:
412,159,198017,1,0,0:0:0:0:
496,154,198108,1,8,0:0:0:0:
496,154,198291,1,0,0:0:0:0:
496,154,198383,1,8,0:0:0:0:
496,154,198474,1,0,0:0:0:0:
496,154,198566,1,0,0:0:0:0:
412,159,198657,1,8,0:0:0:0:
412,159,198749,1,8,0:0:0:0:
412,159,198840,1,0,0:0:0:0:
412,159,198931,1,0,0:0:0:0:
412,159,199023,1,8,0:0:0:0:
412,159,199114,1,8,0:0:0:0:
412,159,199206,1,0,0:0:0:0:
464,164,199297,1,8,0:0:0:0:
464,164,199389,1,0,0:0:0:0:
464,164,199480,1,8,0:0:0:0:
454,215,199572,1,8,0:0:0:0:
412,159,199663,1,0,0:0:0:0:
464,164,199755,1,8,0:0:0:0:
464,164,199846,1,8,0:0:0:0:
412,191,199938,1,8,0:0:0:0:
412,191,200029,1,4,0:0:0:0:
284,31,200395,1,8,0:0:0:0:
412,159,200578,1,0,0:0:0:0:
412,159,200669,1,0,0:0:0:0:
448,192,200761,1,8,0:0:0:0:
412,159,200944,1,0,0:0:0:0:
480,224,201127,1,8,0:0:0:0:
507,202,201310,1,8,0:0:0:0:
507,202,201401,1,8,0:0:0:0:
480,169,201492,1,0,0:0:0:0:
380,159,201675,1,0,0:0:0:0:
380,159,201767,1,0,0:0:0:0:
412,159,201858,1,8,0:0:0:0:
507,202,202041,1,8,0:0:0:0:
448,160,202133,1,8,0:0:0:0:
444,159,202224,1,0,0:0:0:0:
444,223,202316,1,0,0:0:0:0:
444,159,202407,1,8,0:0:0:0:
412,223,202499,1,0,0:0:0:0:
412,159,202590,1,8,0:0:0:0:
480,169,202773,1,8,0:0:0:0:
444,159,202956,1,0,0:0:0:0:
444,159,203139,1,0,0:0:0:0:
444,159,203230,1,0,0:0:0:0:
444,159,203322,1,8,0:0:0:0:
380,191,203505,1,0,0:0:0:0:
480,169,203688,1,0,0:0:0:0:
480,169,203779,1,0,0:0:0:0:
427,172,203870,1,8,0:0:0:0:
444,159,203962,1,0,0:0:0:0:
480,169,204053,1,8,0:0:0:0:
384,211,204236,1,8,0:0:0:0:
380,191,204419,1,0,0:0:0:0:
480,169,204602,1,0,0:0:0:0:
444,159,204694,1,0,0:0:0:0:
444,159,204785,1,8,0:0:0:0:
444,159,204968,1,0,0:0:0:0:
444,159,205151,1,8,0:0:0:0:
448,192,205242,1,0,0:0:0:0:
412,159,205334,1,8,0:0:0:0:
412,159,205425,1,8,0:0:0:0:
380,191,205517,1,0,0:0:0:0:
444,159,205608,1,8,0:0:0:0:
480,169,205700,1,8,0:0:0:0:
412,159,205883,1,4,0:0:0:0:
448,256,206066,1,0,0:0:0:0:
480,169,206249,1,8,0:0:0:0:
444,159,206431,1,0,0:0:0:0:
444,159,206523,1,0,0:0:0:0:
480,169,206614,1,0,0:0:0:0:
480,169,206797,1,0,0:0:0:0:
508,191,206889,1,0,0:0:0:0:
412,159,206980,1,8,0:0:0:0:
508,191,207163,1,0,0:0:0:0:
480,169,207346,1,8,0:0:0:0:
444,191,207529,1,0,0:0:0:0:
444,191,207620,1,0,0:0:0:0:
412,159,207712,1,8,0:0:0:0:
444,191,207895,1,0,0:0:0:0:
480,169,208078,1,8,0:0:0:0:
412,159,208169,1,8,0:0:0:0:
480,169,208261,1,0,0:0:0:0:
480,169,208352,1,0,0:0:0:0:
480,169,208444,1,8,0:0:0:0:
444,191,208627,1,0,0:0:0:0:
412,159,208810,1,8,0:0:0:0:
480,169,208992,1,0,0:0:0:0:
480,169,209084,1,0,0:0:0:0:
412,159,209175,1,8,0:0:0:0:
412,159,209358,1,8,0:0:0:0:
412,159,209450,1,0,0:0:0:0:
444,191,209541,1,8,0:0:0:0:
384,192,209633,1,8,0:0:0:0:
480,169,209724,1,0,0:0:0:0:
480,169,209816,1,0,0:0:0:0:
480,169,209907,1,8,0:0:0:0:
412,159,210090,5,8,0:0:0:0:
444,191,210273,1,4,0:0:0:0:
444,191,210456,1,0,0:0:0:0:
444,191,210547,1,0,0:0:0:0:
444,191,210639,1,8,0:0:0:0:
444,191,210822,1,0,0:0:0:0:
480,169,210913,1,0,0:0:0:0:
497,177,211005,1,8,0:0:0:0:
480,169,211096,1,0,0:0:0:0:
427,167,211188,1,8,0:0:0:0:
427,167,211279,1,8,0:0:0:0:
444,191,211370,1,0,0:0:0:0:
393,179,211462,1,8,0:0:0:0:
427,167,211553,1,8,0:0:0:0:
476,149,211736,1,4,0:0:0:0:
448,288,212011,1,0,0:0:0:0:
497,177,212102,1,8,0:0:0:0:
427,167,212285,1,8,0:0:0:0:
393,179,212377,1,8,0:0:0:0:
393,179,212468,1,0,0:0:0:0:
427,167,212651,1,8,0:0:0:0:
427,167,212742,1,0,0:0:0:0:
444,191,212834,1,8,0:0:0:0:
427,167,213017,1,8,0:0:0:0:
427,167,213200,1,0,0:0:0:0:
427,167,213291,1,0,0:0:0:0:
427,167,213383,1,8,0:0:0:0:
427,167,213474,1,8,0:0:0:0:
479,170,213566,1,0,0:0:0:0:
479,170,213749,1,8,0:0:0:0:
479,170,213931,1,0,0:0:0:0:
479,170,214023,1,8,0:0:0:0:
479,170,214114,1,8,0:0:0:0:
427,167,214297,1,0,0:0:0:0:
427,167,214480,1,8,0:0:0:0:
427,167,214572,1,8,0:0:0:0:
479,170,214663,1,0,0:0:0:0:
479,170,214846,1,0,0:0:0:0:
427,167,214938,1,0,0:0:0:0:
427,163,215029,1,8,0:0:0:0:
456,160,215212,1,8,0:0:0:0:
427,167,215395,1,0,0:0:0:0:
479,170,215578,1,8,0:0:0:0:
427,167,215669,1,0,0:0:0:0:
479,170,215761,1,8,0:0:0:0:
416,192,215852,1,8,0:0:0:0:
448,270,215944,1,0,0:0:0:0:
427,167,216035,1,0,0:0:0:0:
456,160,216127,1,8,0:0:0:0:
354,187,216310,1,8,0:0:0:0:
403,169,216401,1,0,0:0:0:0:
455,160,216492,1,8,0:0:0:0:
426,261,216675,1,0,0:0:0:0:
440,210,216767,1,0,0:0:0:0:
456,160,216858,1,8,0:0:0:0:
456,160,216950,1,8,0:0:0:0:
427,167,217041,1,0,0:0:0:0:
427,167,217133,1,0,0:0:0:0:
427,167,217224,1,8,0:0:0:0:
403,169,217316,1,0,0:0:0:0:
403,169,217407,1,8,0:0:0:0:
427,167,217590,1,4,0:0:0:0:
384,256,217773,1,0,0:0:0:0:
403,169,217864,1,0,0:0:0:0:
427,167,217956,1,8,0:0:0:0:
427,167,218139,1,8,0:0:0:0:
456,160,218322,1,0,0:0:0:0:
403,169,218413,1,0,0:0:0:0:
403,169,218505,1,8,0:0:0:0:
403,169,218596,1,0,0:0:0:0:
403,169,218688,1,8,0:0:0:0:
403,169,218870,1,8,0:0:0:0:
427,167,219053,1,0,0:0:0:0:
427,167,219236,1,0,0:0:0:0:
427,167,219328,1,0,0:0:0:0:
427,167,219419,1,8,0:0:0:0:
403,169,219602,1,0,0:0:0:0:
403,169,219694,1,0,0:0:0:0:
288,160,219785,1,8,0:0:0:0:
352,192,219877,1,8,0:0:0:0:
403,169,219968,1,0,0:0:0:0:
427,167,220060,1,0,0:0:0:0:
427,167,220151,1,8,0:0:0:0:
427,167,220334,1,8,0:0:0:0:
427,167,220425,1,8,0:0:0:0:
427,167,220517,1,0,0:0:0:0:
448,192,220700,1,0,0:0:0:0:
427,167,220883,1,8,0:0:0:0:
427,167,221066,1,8,0:0:0:0:
427,167,221157,1,8,0:0:0:0:
448,192,221249,1,0,0:0:0:0:
480,160,221340,1,0,0:0:0:0:
427,167,221431,1,0,0:0:0:0:
427,167,221523,1,0,0:0:0:0:
448,192,221614,1,8,0:0:0:0:
320,160,221797,1,8,0:0:0:0:
448,192,221980,1,0,0:0:0:0:
480,256,222072,1,0,0:0:0:0:
427,167,222163,1,8,0:0:0:0:
384,160,222255,1,0,0:0:0:0:
427,167,222346,1,8,0:0:0:0:
384,160,222438,1,8,0:0:0:0:
384,160,222529,1,0,0:0:0:0:
384,160,222620,1,0,0:0:0:0:
320,160,222712,1,8,0:0:0:0:
427,167,222803,1,0,0:0:0:0:
384,160,222895,1,8,0:0:0:0:
384,160,222986,1,8,0:0:0:0:
384,160,223078,1,0,0:0:0:0:
384,160,223169,1,0,0:0:0:0:
384,160,223261,1,8,0:0:0:0:
416,256,223444,1,4,0:0:0:0:
448,128,223810,1,8,0:0:0:0:
416,192,223992,1,0,0:0:0:0:
416,192,224084,1,0,0:0:0:0:
480,192,224175,1,8,0:0:0:0:
416,192,224267,1,8,0:0:0:0:
448,224,224358,1,8,0:0:0:0:
448,160,224450,1,0,0:0:0:0:
384,160,224541,1,8,0:0:0:0:
384,160,224724,1,0,0:0:0:0:
480,192,224907,1,8,0:0:0:0:
480,192,224999,1,0,0:0:0:0:
480,192,225090,1,8,0:0:0:0:
480,192,225181,1,8,0:0:0:0:
448,160,225273,1,0,0:0:0:0:
480,192,225456,1,8,0:0:0:0:
480,192,225547,1,8,0:0:0:0:
448,160,225639,1,0,0:0:0:0:
448,160,225730,1,0,0:0:0:0:
416,160,225822,1,8,0:0:0:0:
448,160,225913,1,0,0:0:0:0:
448,160,226005,1,8,0:0:0:0:
448,160,226188,1,8,0:0:0:0:
448,160,226279,1,8,0:0:0:0:
480,160,226370,1,0,0:0:0:0:
480,160,226553,1,0,0:0:0:0:
480,160,226645,1,0,0:0:0:0:
512,192,226736,1,8,0:0:0:0:
448,256,226919,1,8,0:0:0:0:
480,160,227102,1,0,0:0:0:0:
480,160,227194,1,0,0:0:0:0:
416,160,227285,1,8,0:0:0:0:
448,160,227377,1,0,0:0:0:0:
416,160,227468,1,8,0:0:0:0:
480,192,227651,1,8,0:0:0:0:
384,160,227834,1,0,0:0:0:0:
480,160,228017,1,0,0:0:0:0:
480,160,228108,1,0,0:0:0:0:
448,192,228200,1,8,0:0:0:0:
448,160,228383,1,0,0:0:0:0:
352,192,228566,1,8,0:0:0:0:
480,160,228657,1,0,0:0:0:0:
480,160,228749,1,8,0:0:0:0:
480,160,228840,1,8,0:0:0:0:
512,192,228931,1,0,0:0:0:0:
481,238,229023,1,8,0:0:0:0:
480,160,229114,1,8,0:0:0:0:
448,160,229297,1,4,0:0:0:0:
512,192,229480,1,0,0:0:0:0:
448,192,229572,1,0,0:0:0:0:
480,192,229663,1,8,0:0:0:0:
448,160,229846,1,8,0:0:0:0:
480,160,230029,1,0,0:0:0:0:
480,160,230120,1,0,0:0:0:0:
416,160,230212,1,8,0:0:0:0:
448,160,230303,1,0,0:0:0:0:
384,160,230395,1,8,0:0:0:0:
320,160,230486,1,8,0:0:0:0:
480,160,230578,1,0,0:0:0:0:
448,160,230669,1,8,0:0:0:0:
416,160,230761,1,0,0:0:0:0:
384,192,230944,1,0,0:0:0:0:
416,160,231035,1,0,0:0:0:0:
448,192,231127,1,8,0:0:0:0:
512,192,231310,1,0,0:0:0:0:
448,192,231492,1,8,0:0:0:0:
448,192,231584,1,8,0:0:0:0:
512,192,231675,1,0,0:0:0:0:
448,192,231767,1,0,0:0:0:0:
448,192,231858,1,8,0:0:0:0:
448,192,231950,1,0,0:0:0:0:
448,192,232041,1,8,0:0:0:0:
448,256,232133,1,8,0:0:0:0:
384,192,232224,1,0,0:0:0:0:
480,192,232407,1,0,0:0:0:0:
480,192,232499,1,0,0:0:0:0:
416,192,232590,1,8,0:0:0:0:
416,192,232773,1,8,0:0:0:0:
416,192,232864,1,8,0:0:0:0:
416,192,232956,1,0,0:0:0:0:
416,192,233047,1,0,0:0:0:0:
416,192,233139,1,0,0:0:0:0:
416,192,233230,1,0,0:0:0:0:
480,160,233322,1,8,0:0:0:0:
384,224,233505,1,8,0:0:0:0:
384,128,233688,1,4,0:0:0:0:
416,192,233870,1,0,0:0:0:0:
416,192,233962,1,0,0:0:0:0:
416,192,234053,1,8,0:0:0:0:
448,192,234236,1,8,0:0:0:0:
448,192,234328,1,0,0:0:0:0:
448,192,234419,1,8,0:0:0:0:
416,192,234511,1,8,0:0:0:0:
480,160,234602,1,0,0:0:0:0:
429,180,234694,1,0,0:0:0:0:
480,160,234785,1,8,0:0:0:0:
480,160,234877,1,0,0:0:0:0:
480,160,234968,1,8,0:0:0:0:
448,192,235151,1,4,0:0:0:0:
501,208,235334,1,0,0:0:0:0:
453,185,235425,1,0,0:0:0:0:
448,192,235517,1,8,0:0:0:0:
453,185,235700,1,8,0:0:0:0:
480,160,235791,1,0,0:0:0:0:
448,192,235883,1,8,0:0:0:0:
448,192,235974,1,8,0:0:0:0:
480,160,236066,1,0,0:0:0:0:
480,160,236157,1,0,0:0:0:0:
480,160,236249,1,8,0:0:0:0:
510,178,236431,1,8,0:0:0:0:
448,192,236523,1,8,0:0:0:0:
458,187,236614,1,0,0:0:0:0:
510,178,236797,1,0,0:0:0:0:
510,178,236889,1,8,0:0:0:0:
448,192,236980,1,0,0:0:0:0:
448,192,237072,1,0,0:0:0:0:
480,160,237163,1,8,0:0:0:0:
510,178,237346,1,0,0:0:0:0:
480,160,237438,1,8,0:0:0:0:
458,187,237529,1,0,0:0:0:0:
480,160,237620,1,0,0:0:0:0:
448,192,237712,1,8,0:0:0:0:
448,192,237895,1,8,0:0:0:0:
363,128,238078,1,0,0:0:0:0:
480,160,238261,1,0,0:0:0:0:
480,160,238352,1,0,0:0:0:0:
480,160,238444,1,8,0:0:0:0:
480,160,238627,1,8,0:0:0:0:
480,160,238718,1,0,0:0:0:0:
480,160,238810,1,8,0:0:0:0:
448,192,238901,1,8,0:0:0:0:
480,160,238992,1,0,0:0:0:0:
480,160,239084,1,0,0:0:0:0:
427,164,239175,1,8,0:0:0:0:
480,160,239267,1,0,0:0:0:0:
427,164,239358,1,8,0:0:0:0:
427,164,239450,1,8,0:0:0:0:
480,160,239541,1,0,0:0:0:0:
510,174,239724,1,0,0:0:0:0:
510,174,239816,1,0,0:0:0:0:
457,173,239907,1,8,0:0:0:0:
427,164,240090,1,8,0:0:0:0:
427,164,240181,1,0,0:0:0:0:
427,164,240273,1,8,0:0:0:0:
421,215,240364,1,8,0:0:0:0:
402,166,240456,1,0,0:0:0:0:
402,166,240547,1,0,0:0:0:0:
427,164,240639,1,8,0:0:0:0:
457,173,240730,1,0,0:0:0:0:
457,173,240822,1,8,0:0:0:0:
356,204,241005,1,4,0:0:0:0:
421,215,241188,1,0,0:0:0:0:
457,173,241279,1,0,0:0:0:0:
479,167,241370,1,8,0:0:0:0:
479,167,241553,1,8,0:0:0:0:
384,160,241645,1,8,0:0:0:0:
457,173,241736,1,0,0:0:0:0:
457,173,241828,1,0,0:0:0:0:
416,192,241919,1,8,0:0:0:0:
480,192,242011,1,0,0:0:0:0:
479,167,242102,1,8,0:0:0:0:
512,160,242285,1,8,0:0:0:0:
416,192,242377,1,8,0:0:0:0:
416,192,242468,1,0,0:0:0:0:
384,160,242651,1,8,0:0:0:0:
457,173,242742,1,0,0:0:0:0:
427,164,242834,1,8,0:0:0:0:
427,164,243017,1,0,0:0:0:0:
457,173,243108,1,0,0:0:0:0:
479,167,243200,1,8,0:0:0:0:
479,167,243291,1,8,0:0:0:0:
479,167,243383,1,0,0:0:0:0:
448,192,243474,1,0,0:0:0:0:
427,164,243566,1,8,0:0:0:0:
427,164,243657,1,0,0:0:0:0:
427,164,243749,1,8,0:0:0:0:
427,164,243840,1,8,0:0:0:0:
427,164,243931,1,0,0:0:0:0:
457,173,244114,1,0,0:0:0:0:
479,167,244206,1,0,0:0:0:0:
448,192,244297,1,8,0:0:0:0:
448,192,244480,1,8,0:0:0:0:
448,192,244572,1,8,0:0:0:0:
479,167,244663,1,0,0:0:0:0:
457,173,244755,1,0,0:0:0:0:
457,173,244846,1,0,0:0:0:0:
457,173,244938,1,0,0:0:0:0:
416,192,245029,1,8,0:0:0:0:
416,192,245212,1,0,0:0:0:0:
457,173,245395,1,8,0:0:0:0:
457,173,245486,1,0,0:0:0:0:
416,192,245578,1,0,0:0:0:0:
384,192,245669,1,0,0:0:0:0:
384,192,245761,1,8,0:0:0:0:
448,192,245852,1,0,0:0:0:0:
416,160,245944,1,8,0:0:0:0:
416,160,246035,1,8,0:0:0:0:
457,173,246127,1,0,0:0:0:0:
457,173,246218,1,0,0:0:0:0:
457,173,246310,1,8,0:0:0:0:
457,173,246401,1,8,0:0:0:0:
512,160,246492,1,8,0:0:0:0:
457,173,246584,1,0,0:0:0:0:
416,160,246675,1,8,0:0:0:0:
416,160,246858,1,4,0:0:0:0:
416,160,247590,1,8,0:0:0:0:
480,192,248322,1,0,0:0:0:0:
480,192,248688,1,0,0:0:0:0:
480,192,248870,1,8,0:0:0:0:
480,192,249236,1,8,0:0:0:0:
384,192,249419,1,8,0:0:0:0:
448,160,249602,1,8,0:0:0:0:
384,192,249785,1,0,0:0:0:0:
416,103,249968,1,0,0:0:0:0:
480,192,250151,1,0,0:0:0:0:
480,192,250334,1,0,0:0:0:0:
384,192,250883,1,8,0:0:0:0:
448,128,251066,1,0,0:0:0:0:
384,192,251249,1,8,0:0:0:0:
416,192,251797,1,0,0:0:0:0:
480,192,252163,1,0,0:0:0:0:
480,192,252255,1,0,0:0:0:0:
416,192,252346,1,8,0:0:0:0:
480,192,252438,1,8,0:0:0:0:
448,160,252529,1,0,0:0:0:0:
448,160,252620,1,0,0:0:0:0:
416,192,252712,1,8,0:0:0:0:
448,160,252895,1,0,0:0:0:0:
448,160,253078,1,0,0:0:0:0:
480,192,253261,1,8,0:0:0:0:
352,352,253627,1,0,0:0:0:0:
480,192,253810,1,8,0:0:0:0:
448,160,254175,1,8,0:0:0:0:
448,160,254358,1,0,0:0:0:0:
384,224,254541,1,0,0:0:0:0:
448,160,254724,1,8,0:0:0:0:
448,160,255090,1,0,0:0:0:0:
448,160,255273,1,8,0:0:0:0:
337,326,255639,1,8,0:0:0:0:
480,192,256005,1,8,0:0:0:0:
480,192,256188,1,8,0:0:0:0:
448,160,256553,1,0,0:0:0:0:
281,270,256919,1,8,0:0:0:0:
256,192,257102,2,0,L|320:160,6,62.9999980773926
430,249,258566,1,4,0:0:0:0:
291,91,258931,1,8,0:0:0:0:
457,218,259297,1,0,0:0:0:0:
315,62,259663,1,8,0:0:0:0:
457,218,260029,1,0,0:0:0:0:
484,182,260395,1,8,0:0:0:0:
274,162,260761,1,0,0:0:0:0:
378,171,260944,1,8,0:0:0:0:
430,175,261035,1,8,0:0:0:0:
430,175,261127,1,0,0:0:0:0:
430,175,261492,1,8,0:0:0:0:
430,175,261858,1,8,0:0:0:0:
430,175,262224,1,0,0:0:0:0:
430,175,262590,1,8,0:0:0:0:
458,183,262956,1,0,0:0:0:0:
473,210,263322,1,8,0:0:0:0:
458,183,263688,1,0,0:0:0:0:
473,210,263870,1,0,0:0:0:0:
249,210,264053,1,8,0:0:0:0:
458,183,264236,1,8,0:0:0:0:
458,183,264328,1,8,0:0:0:0:
458,183,264419,1,0,0:0:0:0:
384,384,264785,1,0,0:0:0:0:
458,183,265151,1,0,0:0:0:0:
352,192,265334,1,0,0:0:0:0:
448,192,265517,1,8,0:0:0:0:
458,183,265700,1,0,0:0:0:0:
416,128,265791,1,0,0:0:0:0:
458,183,265883,1,8,0:0:0:0:
256,192,266249,1,8,0:0:0:0:
352,192,266431,1,8,0:0:0:0:
292,128,266614,1,0,0:0:0:0:
352,224,266797,1,0,0:0:0:0:
458,183,266980,1,8,0:0:0:0:
458,183,267072,1,8,0:0:0:0:
353,172,267163,1,0,0:0:0:0:
458,183,267255,1,0,0:0:0:0:
458,183,267346,1,8,0:0:0:0:
458,183,267529,1,8,0:0:0:0:
458,183,267712,1,8,0:0:0:0:
458,183,267895,1,8,0:0:0:0:
480,192,268078,1,8,0:0:0:0:
458,183,268261,1,0,0:0:0:0:
458,183,268352,1,0,0:0:0:0:
458,183,268444,1,0,0:0:0:0:
458,183,268535,1,0,0:0:0:0:
458,183,268627,1,0,0:0:0:0:
458,183,268718,1,0,0:0:0:0:
406,173,268810,1,8,0:0:0:0:
458,183,268992,1,12,0:0:0:0:
458,183,269267,1,12,0:0:0:0:
458,183,269541,1,12,0:0:0:0:
498,174,269724,1,0,0:0:0:0:
498,174,269816,1,0,0:0:0:0:
458,183,269907,1,8,0:0:0:0:
458,183,269999,1,8,0:0:0:0:
406,173,270090,1,8,0:0:0:0:
406,173,270181,1,0,0:0:0:0:
458,183,270273,1,8,0:0:0:0:
458,183,270364,1,0,0:0:0:0:
458,183,270456,1,0,0:0:0:0:
406,173,270547,1,0,0:0:0:0:
406,173,270639,1,8,0:0:0:0:
498,174,270822,1,8,0:0:0:0:
458,183,270913,1,0,0:0:0:0:
445,172,271005,1,0,0:0:0:0:
445,172,271096,1,0,0:0:0:0:
406,173,271188,1,8,0:0:0:0:
458,183,271370,1,8,0:0:0:0:
458,183,271462,1,0,0:0:0:0:
498,174,271553,1,0,0:0:0:0:
498,174,271645,1,0,0:0:0:0:
453,146,271736,1,8,0:0:0:0:
458,183,271828,1,8,0:0:0:0:
498,174,271919,1,0,0:0:0:0:
498,174,272011,1,0,0:0:0:0:
445,172,272102,1,8,0:0:0:0:
453,146,272285,1,8,0:0:0:0:
454,198,272377,1,8,0:0:0:0:
498,174,272468,1,0,0:0:0:0:
498,174,272560,1,0,0:0:0:0:
498,174,272651,1,8,0:0:0:0:
498,174,272742,1,0,0:0:0:0:
445,172,272834,1,8,0:0:0:0:
445,172,272925,1,8,0:0:0:0:
498,174,273017,1,0,0:0:0:0:
445,175,273200,1,8,0:0:0:0:
384,160,273291,1,8,0:0:0:0:
454,198,273383,1,0,0:0:0:0:
454,198,273474,1,8,0:0:0:0:
454,198,273566,1,0,0:0:0:0:
445,172,273657,1,0,0:0:0:0:
445,172,273749,1,8,0:0:0:0:
445,172,273840,1,8,0:0:0:0:
445,172,273931,1,0,0:0:0:0:
445,172,274023,1,0,0:0:0:0:
445,172,274114,1,8,0:0:0:0:
497,176,274206,1,0,0:0:0:0:
497,176,274297,1,0,0:0:0:0:
445,172,274389,1,8,0:0:0:0:
445,172,274480,1,8,0:0:0:0:
393,180,274572,1,0,0:0:0:0:
445,182,274663,1,8,0:0:0:0:
497,176,274755,1,8,0:0:0:0:
444,172,274846,1,0,0:0:0:0:
445,172,274938,1,0,0:0:0:0:
445,172,275029,1,8,0:0:0:0:
445,172,275120,1,0,0:0:0:0:
445,172,275212,1,0,0:0:0:0:
445,172,275303,1,8,0:0:0:0:
445,172,275395,1,0,0:0:0:0:
445,172,275486,1,0,0:0:0:0:
444,172,275578,1,8,0:0:0:0:
497,176,275669,1,0,0:0:0:0:
497,176,275761,1,8,0:0:0:0:
497,176,275852,1,8,0:0:0:0:
445,169,275944,1,0,0:0:0:0:
445,172,276035,1,0,0:0:0:0:
445,172,276127,1,8,0:0:0:0:
391,181,276218,1,0,0:0:0:0:
391,181,276310,1,0,0:0:0:0:
391,181,276401,1,0,0:0:0:0:
391,181,276492,1,8,0:0:0:0:
445,172,276675,1,8,0:0:0:0:
445,169,276767,1,0,0:0:0:0:
445,169,276858,1,0,0:0:0:0:
445,169,276950,1,0,0:0:0:0:
445,172,277041,1,8,0:0:0:0:
445,172,277133,1,0,0:0:0:0:
445,172,277224,1,8,0:0:0:0:
445,172,277316,1,8,0:0:0:0:
445,172,277407,1,0,0:0:0:0:
420,220,277499,1,0,0:0:0:0:
499,168,277590,1,8,0:0:0:0:
448,224,277681,1,0,0:0:0:0:
510,201,277773,1,0,0:0:0:0:
464,170,277864,1,0,0:0:0:0:
440,260,277956,1,8,0:0:0:0:
445,172,278047,1,8,0:0:0:0:
445,172,278139,1,0,0:0:0:0:
391,161,278230,1,0,0:0:0:0:
445,172,278322,1,8,0:0:0:0:
445,172,278413,1,8,0:0:0:0:
420,220,278505,1,8,0:0:0:0:
499,168,278596,1,0,0:0:0:0:
444,161,278688,1,8,0:0:0:0:
420,220,278779,1,8,0:0:0:0:
445,169,278870,1,0,0:0:0:0:
445,172,278962,1,0,0:0:0:0:
445,172,279053,1,8,0:0:0:0:
444,161,279145,1,0,0:0:0:0:
512,128,279236,1,8,0:0:0:0:
445,172,279328,1,0,0:0:0:0:
445,172,279419,1,8,0:0:0:0:
444,161,279511,1,8,0:0:0:0:
444,161,279602,1,0,0:0:0:0:
499,168,279694,1,0,0:0:0:0:
480,224,279785,1,8,0:0:0:0:
392,177,279877,1,0,0:0:0:0:
445,172,279968,1,0,0:0:0:0:
444,161,280060,1,0,0:0:0:0:
416,192,280151,1,8,0:0:0:0:
445,172,280242,1,0,0:0:0:0:
416,192,280334,1,8,0:0:0:0:
445,169,280425,1,8,0:0:0:0:
445,169,280517,1,0,0:0:0:0:
416,192,280608,1,0,0:0:0:0:
499,168,280700,1,8,0:0:0:0:
461,128,280791,1,0,0:0:0:0:
392,177,280883,1,8,0:0:0:0:
445,172,280974,1,8,0:0:0:0:
448,224,281066,1,0,0:0:0:0:
445,172,281157,1,0,0:0:0:0:
445,172,281249,1,8,0:0:0:0:
445,172,281340,1,0,0:0:0:0:
470,183,281431,1,8,0:0:0:0:
445,169,281523,1,8,0:0:0:0:
499,168,281614,1,0,0:0:0:0:
445,172,281706,1,8,0:0:0:0:
444,174,281797,1,8,0:0:0:0:
445,172,281889,1,0,0:0:0:0:
445,172,281980,1,8,0:0:0:0:
445,172,282072,1,0,0:0:0:0:
445,172,282163,1,0,0:0:0:0:
445,172,282255,1,0,0:0:0:0:
470,183,282346,1,8,0:0:0:0:
470,183,282529,1,8,0:0:0:0:
445,172,282620,1,0,0:0:0:0:
445,172,282712,1,0,0:0:0:0:
444,174,282803,1,0,0:0:0:0:
470,183,282895,1,8,0:0:0:0:
470,183,282986,1,0,0:0:0:0:
445,172,283078,1,8,0:0:0:0:
445,172,283169,1,0,0:0:0:0:
445,172,283261,1,0,0:0:0:0:
445,172,283352,1,0,0:0:0:0:
395,194,283444,1,8,0:0:0:0:
395,194,283535,1,8,0:0:0:0:
395,194,283627,1,0,0:0:0:0:
395,194,283718,1,0,0:0:0:0:
444,174,283810,1,8,0:0:0:0:
445,172,283992,1,8,0:0:0:0:
445,172,284084,1,8,0:0:0:0:
445,172,284175,1,0,0:0:0:0:
390,168,284267,1,0,0:0:0:0:
444,157,284358,1,8,0:0:0:0:
444,174,284450,1,0,0:0:0:0:
444,174,284541,1,8,0:0:0:0:
444,174,284633,1,8,0:0:0:0:
444,174,284724,1,0,0:0:0:0:
444,174,284816,1,0,0:0:0:0:
445,172,284907,1,8,0:0:0:0:
445,172,284999,1,8,0:0:0:0:
366,156,285090,1,0,0:0:0:0:
390,168,285181,1,8,0:0:0:0:
444,157,285273,1,8,0:0:0:0:
475,169,285456,1,8,0:0:0:0:
475,169,285547,1,8,0:0:0:0:
366,156,285639,1,0,0:0:0:0:
416,192,285730,1,8,0:0:0:0:
444,174,285822,1,8,0:0:0:0:
445,172,285913,1,0,0:0:0:0:
420,166,286005,1,8,0:0:0:0:
416,192,286096,1,8,0:0:0:0:
366,156,286188,1,0,0:0:0:0:
368,184,286279,1,0,0:0:0:0:
420,166,286370,1,8,0:0:0:0:
420,166,286462,1,8,0:0:0:0:
420,166,286553,1,8,0:0:0:0:
480,192,286645,1,8,0:0:0:0:
498,176,286736,1,0,0:0:0:0:
498,176,286828,1,0,0:0:0:0:
445,172,286919,1,0,0:0:0:0:
498,176,287011,1,0,0:0:0:0:
498,176,287102,1,8,0:0:0:0:
498,176,287194,1,8,0:0:0:0:
444,174,287285,1,0,0:0:0:0:
420,166,287377,1,8,0:0:0:0:
480,192,287468,1,0,0:0:0:0:
420,166,287560,1,0,0:0:0:0:
444,174,287651,1,8,0:0:0:0:
498,176,287834,1,8,0:0:0:0:
448,224,287925,1,0,0:0:0:0:
444,174,288017,1,0,0:0:0:0:
444,174,288108,1,0,0:0:0:0:
444,174,288200,1,8,0:0:0:0:
420,166,288383,1,8,0:0:0:0:
420,166,288474,1,8,0:0:0:0:
498,176,288566,1,0,0:0:0:0:
444,174,288657,1,0,0:0:0:0:
445,172,288749,1,8,0:0:0:0:
445,172,288840,1,0,0:0:0:0:
445,172,288931,1,8,0:0:0:0:
444,174,289023,1,8,0:0:0:0:
416,192,289114,1,8,0:0:0:0:
448,224,289206,1,0,0:0:0:0:
444,174,289297,1,8,0:0:0:0:
407,189,289389,1,0,0:0:0:0:
448,160,289480,1,0,0:0:0:0:
445,172,289572,1,0,0:0:0:0:
495,150,289663,1,8,0:0:0:0:
498,176,289755,1,8,0:0:0:0:
445,172,289846,1,0,0:0:0:0:
444,174,289938,1,0,0:0:0:0:
498,172,290029,1,8,0:0:0:0:
384,160,290120,1,8,0:0:0:0:
444,174,290212,1,8,0:0:0:0:
384,160,290303,1,0,0:0:0:0:
389,178,290395,1,8,0:0:0:0:
448,160,290486,1,8,0:0:0:0:
389,178,290578,1,0,0:0:0:0:
448,192,290669,1,0,0:0:0:0:
445,172,290761,1,8,0:0:0:0:
444,174,290852,1,0,0:0:0:0:
384,160,290944,1,8,0:0:0:0:
448,160,291035,1,0,0:0:0:0:
444,174,291127,1,8,0:0:0:0:
444,174,291218,1,8,0:0:0:0:
512,160,291310,1,0,0:0:0:0:
512,160,291401,1,0,0:0:0:0:
448,160,291492,1,8,0:0:0:0:
444,174,291553,1,0,0:0:0:0:
444,174,291614,1,0,0:0:0:0:
480,160,291675,1,8,0:0:0:0:
512,160,291736,1,0,0:0:0:0:
512,160,291797,1,0,0:0:0:0:
444,174,291858,1,8,0:0:0:0:
480,160,291950,1,0,0:0:0:0:
448,160,292041,1,8,0:0:0:0:
444,174,292133,1,8,0:0:0:0:
444,174,292224,1,0,0:0:0:0:
480,160,292407,1,12,0:0:0:0:
480,160,292681,1,12,0:0:0:0:
480,160,292956,1,12,0:0:0:0:
512,192,293322,1,8,0:0:0:0:
512,192,293413,1,8,0:0:0:0:
512,192,293505,1,8,0:0:0:0:
512,192,293596,1,8,0:0:0:0:
512,192,293688,1,4,0:0:0:0:
94,59,294419,1,8,0:0:0:0:
455,166,295151,1,0,0:0:0:0:
455,166,295517,1,0,0:0:0:0:
455,166,295700,1,8,0:0:0:0:
455,166,296066,1,8,0:0:0:0:
384,224,296249,1,8,0:0:0:0:
455,166,296431,1,8,0:0:0:0:
352,192,296614,1,0,0:0:0:0:
455,166,296797,1,0,0:0:0:0:
416,160,296980,1,0,0:0:0:0:
416,160,297163,1,0,0:0:0:0:
416,160,297712,1,8,0:0:0:0:
464,181,297895,1,0,0:0:0:0:
416,160,298078,1,8,0:0:0:0:
416,160,298627,1,0,0:0:0:0:
438,192,298992,1,0,0:0:0:0:
456,207,299084,1,0,0:0:0:0:
456,207,299175,1,8,0:0:0:0:
456,207,299267,1,8,0:0:0:0:
456,207,299358,1,8,0:0:0:0:
417,179,299450,1,0,0:0:0:0:
464,181,299541,1,8,0:0:0:0:
487,207,299724,1,0,0:0:0:0:
487,207,299907,1,0,0:0:0:0:
456,207,300090,1,8,0:0:0:0:
448,256,300456,1,0,0:0:0:0:
456,207,300639,1,8,0:0:0:0:
439,190,301005,1,8,0:0:0:0:
417,179,301188,1,0,0:0:0:0:
407,191,301370,1,0,0:0:0:0:
417,179,301553,1,8,0:0:0:0:
439,190,301919,1,0,0:0:0:0:
417,179,302102,1,8,0:0:0:0:
501,188,302468,1,0,0:0:0:0:
439,190,302834,1,8,0:0:0:0:
439,190,303017,1,8,0:0:0:0:
473,184,303383,1,0,0:0:0:0:
473,184,303749,1,8,0:0:0:0:
501,188,303931,1,0,0:0:0:0:
473,184,304297,1,0,0:0:0:0:
473,184,304663,1,8,0:0:0:0:
473,184,305029,1,8,0:0:0:0:
473,184,305395,1,0,0:0:0:0:
160,32,306035,1,8,0:0:0:0:
473,184,306858,1,0,0:0:0:0:
288,128,307224,1,0,0:0:0:0:
384,160,307407,1,8,0:0:0:0:
473,184,307773,1,0,0:0:0:0:
473,184,308139,1,8,0:0:0:0:
473,184,309236,1,8,0:0:0:0:
379,194,309419,1,0,0:0:0:0:
473,186,309602,1,8,0:0:0:0:
416,160,310700,1,0,0:0:0:0:
320,192,310883,1,8,0:0:0:0:
416,192,311066,1,0,0:0:0:0:
512,160,311249,1,8,0:0:0:0:
320,192,311614,1,0,0:0:0:0:
416,192,311797,1,8,0:0:0:0:
448,224,313810,1,8,0:0:0:0:
448,224,313992,1,8,0:0:0:0:
448,224,314175,2,0,L|480:160,7,62.9999980773926
256,192,315822,12,0,317285,0:0:0:0:
