osu file format v14

[General]
AudioFilename: Abyss Of The Darkness (cut).mp3
AudioLeadIn: 0
PreviewTime: 72668
Countdown: 0
SampleSet: Soft
StackLeniency: 0.7
Mode: 3
LetterboxInBreaks: 0
SpecialStyle: 0
WidescreenStoryboard: 0

[Editor]
DistanceSpacing: 0.8
BeatDivisor: 2
GridSize: 32
TimelineZoom: 1

[Metadata]
Title:Abyss Of The Darkness (Cut Ver.)
TitleUnicode:Abyss Of The Darkness (Cut Ver.)
Artist:DJ CHUCKY
ArtistUnicode:DJ CHUCKY
Creator:AutotelicBrown
Version:Hyper
Source:
Tags:Quadstream Stamina Autotelic Jacks Ayumu SOFT3 Springtime Osu!mania Free-for-all Tournament 3 O!MIC 4K 2019 osu!mania 4K Indonesia Cup 2019 osu!mania Thailand Tournament 2018 ALL JACK杯 EXTREMEGASM MADDEST CHICK'NDOM GUHROOVY MDSTCD036 Schranz Electronic Instrumental
BeatmapID:3781286
BeatmapSetID:657834

[Difficulty]
HPDrainRate:8
CircleSize:4
OverallDifficulty:8
ApproachRate:5
SliderMultiplier:1.4
SliderTickRate:1

[Events]
//Background and Video events
0,0,"bg.jpg",0,0
//Break Periods
//Storyboard Layer 0 (Background)
//Storyboard Layer 1 (Fail)
//Storyboard Layer 2 (Pass)
//Storyboard Layer 3 (Foreground)
//Storyboard Layer 4 (Overlay)
//Storyboard Sound Samples

[TimingPoints]
1043,375,4,2,1,50,1,0
133043,-100,4,2,1,50,0,1
155543,-100,4,2,1,50,0,0

[HitObjects]
64,192,1043,5,0,0:0:0:0:
448,192,1043,1,0,0:0:0:0:
320,192,1168,1,0,0:0:0:0:
192,192,1230,1,0,0:0:0:0:
448,192,1418,1,0,0:0:0:0:
64,192,1418,1,0,0:0:0:0:
320,192,1543,1,0,0:0:0:0:
192,192,1605,1,0,0:0:0:0:
448,192,1793,1,0,0:0:0:0:
64,192,1793,1,0,0:0:0:0:
320,192,1918,1,0,0:0:0:0:
192,192,1980,1,0,0:0:0:0:
448,192,2168,1,0,0:0:0:0:
64,192,2168,1,0,0:0:0:0:
320,192,2293,1,0,0:0:0:0:
192,192,2355,1,0,0:0:0:0:
448,192,2543,1,0,0:0:0:0:
64,192,2543,1,0,0:0:0:0:
320,192,2668,1,0,0:0:0:0:
192,192,2730,1,0,0:0:0:0:
448,192,2918,1,0,0:0:0:0:
64,192,2918,1,0,0:0:0:0:
320,192,3043,1,0,0:0:0:0:
192,192,3105,1,0,0:0:0:0:
448,192,3293,1,0,0:0:0:0:
64,192,3293,1,0,0:0:0:0:
320,192,3418,1,0,0:0:0:0:
192,192,3480,1,0,0:0:0:0:
448,192,3668,1,0,0:0:0:0:
192,192,3793,1,0,0:0:0:0:
320,192,3871,1,0,0:0:0:0:
448,192,4043,1,0,0:0:0:0:
64,192,4043,1,0,0:0:0:0:
192,192,4168,1,0,0:0:0:0:
320,192,4230,1,0,0:0:0:0:
448,192,4418,1,0,0:0:0:0:
64,192,4418,1,0,0:0:0:0:
192,192,4543,1,0,0:0:0:0:
320,192,4605,1,0,0:0:0:0:
448,192,4793,1,0,0:0:0:0:
64,192,4793,1,0,0:0:0:0:
192,192,4918,1,0,0:0:0:0:
320,192,4980,1,0,0:0:0:0:
448,192,5168,1,0,0:0:0:0:
64,192,5168,1,0,0:0:0:0:
192,192,5293,1,0,0:0:0:0:
320,192,5355,1,0,0:0:0:0:
448,192,5543,1,0,0:0:0:0:
64,192,5543,1,0,0:0:0:0:
192,192,5668,1,0,0:0:0:0:
320,192,5730,1,0,0:0:0:0:
448,192,5918,1,0,0:0:0:0:
64,192,5918,1,0,0:0:0:0:
192,192,6043,1,0,0:0:0:0:
320,192,6105,1,0,0:0:0:0:
448,192,6293,1,0,0:0:0:0:
64,192,6293,1,0,0:0:0:0:
192,192,6418,1,0,0:0:0:0:
320,192,6480,1,0,0:0:0:0:
64,192,6668,1,0,0:0:0:0:
320,192,6793,1,0,0:0:0:0:
192,192,6871,1,0,0:0:0:0:
448,192,7043,1,0,0:0:0:0:
64,192,7043,1,0,0:0:0:0:
320,192,7168,1,0,0:0:0:0:
192,192,7230,1,0,0:0:0:0:
448,192,7418,1,0,0:0:0:0:
64,192,7418,1,0,0:0:0:0:
320,192,7543,1,0,0:0:0:0:
192,192,7605,1,0,0:0:0:0:
448,192,7793,1,0,0:0:0:0:
64,192,7793,1,0,0:0:0:0:
320,192,7918,1,0,0:0:0:0:
192,192,7980,1,0,0:0:0:0:
448,192,8168,1,0,0:0:0:0:
192,192,8293,1,0,0:0:0:0:
320,192,8371,1,0,0:0:0:0:
448,192,8543,1,0,0:0:0:0:
64,192,8543,1,0,0:0:0:0:
192,192,8668,1,0,0:0:0:0:
320,192,8730,1,0,0:0:0:0:
448,192,8918,1,0,0:0:0:0:
64,192,8918,1,0,0:0:0:0:
192,192,9043,1,0,0:0:0:0:
320,192,9105,1,0,0:0:0:0:
448,192,9293,1,0,0:0:0:0:
64,192,9293,1,0,0:0:0:0:
192,192,9418,1,0,0:0:0:0:
320,192,9480,1,0,0:0:0:0:
64,192,9668,1,0,0:0:0:0:
320,192,9793,1,0,0:0:0:0:
192,192,9871,1,0,0:0:0:0:
448,192,10043,1,0,0:0:0:0:
64,192,10043,1,0,0:0:0:0:
320,192,10168,1,0,0:0:0:0:
192,192,10230,1,0,0:0:0:0:
448,192,10418,1,0,0:0:0:0:
192,192,10543,1,0,0:0:0:0:
320,192,10621,1,0,0:0:0:0:
448,192,10793,1,0,0:0:0:0:
64,192,10793,1,0,0:0:0:0:
192,192,10918,1,0,0:0:0:0:
320,192,10980,1,0,0:0:0:0:
64,192,11168,1,0,0:0:0:0:
320,192,11293,1,0,0:0:0:0:
192,192,11371,1,0,0:0:0:0:
448,192,11543,1,0,0:0:0:0:
64,192,11543,1,0,0:0:0:0:
320,192,11668,1,0,0:0:0:0:
192,192,11730,1,0,0:0:0:0:
448,192,11918,1,0,0:0:0:0:
64,192,11918,1,0,0:0:0:0:
320,192,12043,1,0,0:0:0:0:
192,192,12105,1,0,0:0:0:0:
448,192,12293,1,0,0:0:0:0:
192,192,12418,1,0,0:0:0:0:
320,192,12496,1,0,0:0:0:0:
64,192,12668,1,0,0:0:0:0:
320,192,12793,1,0,0:0:0:0:
192,192,12871,1,0,0:0:0:0:
448,192,13043,1,0,0:0:0:0:
64,192,13043,1,0,0:0:0:0:
320,192,13168,1,0,0:0:0:0:
192,192,13230,1,0,0:0:0:0:
448,192,13418,1,0,0:0:0:0:
64,192,13418,1,0,0:0:0:0:
192,192,13543,1,0,0:0:0:0:
320,192,13605,1,0,0:0:0:0:
448,192,13793,1,0,0:0:0:0:
64,192,13793,1,0,0:0:0:0:
320,192,13918,1,0,0:0:0:0:
192,192,13980,1,0,0:0:0:0:
448,192,14168,1,0,0:0:0:0:
64,192,14168,1,0,0:0:0:0:
192,192,14293,1,0,0:0:0:0:
320,192,14355,1,0,0:0:0:0:
448,192,14543,1,0,0:0:0:0:
64,192,14543,1,0,0:0:0:0:
320,192,14668,1,0,0:0:0:0:
192,192,14730,1,0,0:0:0:0:
448,192,14918,1,0,0:0:0:0:
64,192,14918,1,0,0:0:0:0:
192,192,15043,1,0,0:0:0:0:
320,192,15105,1,0,0:0:0:0:
448,192,15293,1,0,0:0:0:0:
64,192,15293,1,0,0:0:0:0:
320,192,15418,1,0,0:0:0:0:
192,192,15480,1,0,0:0:0:0:
448,192,15668,1,0,0:0:0:0:
64,192,15668,1,0,0:0:0:0:
192,192,15793,1,0,0:0:0:0:
320,192,15855,1,0,0:0:0:0:
448,192,16043,1,0,0:0:0:0:
64,192,16043,1,0,0:0:0:0:
320,192,16168,1,0,0:0:0:0:
192,192,16230,1,0,0:0:0:0:
448,192,16418,1,0,0:0:0:0:
64,192,16418,1,0,0:0:0:0:
192,192,16543,1,0,0:0:0:0:
320,192,16605,1,0,0:0:0:0:
448,192,16793,1,0,0:0:0:0:
64,192,16793,1,0,0:0:0:0:
320,192,16918,1,0,0:0:0:0:
192,192,16980,1,0,0:0:0:0:
448,192,17168,1,0,0:0:0:0:
64,192,17168,1,0,0:0:0:0:
192,192,17293,1,0,0:0:0:0:
320,192,17355,1,0,0:0:0:0:
448,192,17543,1,0,0:0:0:0:
64,192,17543,1,0,0:0:0:0:
320,192,17668,1,0,0:0:0:0:
192,192,17730,1,0,0:0:0:0:
448,192,17918,1,0,0:0:0:0:
64,192,17918,1,0,0:0:0:0:
192,192,18043,1,0,0:0:0:0:
320,192,18105,1,0,0:0:0:0:
448,192,18293,1,0,0:0:0:0:
64,192,18293,1,0,0:0:0:0:
320,192,18418,1,0,0:0:0:0:
192,192,18480,1,0,0:0:0:0:
320,192,18668,128,0,18855:0:0:0:0:
192,192,18855,128,0,19043:0:0:0:0:
448,192,19043,1,0,0:0:0:0:
64,192,19043,1,0,0:0:0:0:
320,192,19168,1,0,0:0:0:0:
192,192,19230,1,0,0:0:0:0:
448,192,19418,1,0,0:0:0:0:
64,192,19418,1,0,0:0:0:0:
192,192,19543,1,0,0:0:0:0:
320,192,19605,1,0,0:0:0:0:
448,192,19793,1,0,0:0:0:0:
64,192,19793,1,0,0:0:0:0:
320,192,19918,1,0,0:0:0:0:
192,192,19980,1,0,0:0:0:0:
448,192,20168,1,0,0:0:0:0:
64,192,20168,1,0,0:0:0:0:
192,192,20293,1,0,0:0:0:0:
320,192,20355,1,0,0:0:0:0:
448,192,20543,1,0,0:0:0:0:
64,192,20543,1,0,0:0:0:0:
320,192,20668,1,0,0:0:0:0:
192,192,20730,1,0,0:0:0:0:
448,192,20918,1,0,0:0:0:0:
64,192,20918,1,0,0:0:0:0:
192,192,21043,1,0,0:0:0:0:
320,192,21105,1,0,0:0:0:0:
448,192,21293,1,0,0:0:0:0:
64,192,21293,1,0,0:0:0:0:
320,192,21418,1,0,0:0:0:0:
192,192,21480,1,0,0:0:0:0:
448,192,21668,1,0,0:0:0:0:
64,192,21668,1,0,0:0:0:0:
192,192,21793,1,0,0:0:0:0:
320,192,21855,128,0,22043:0:0:0:0:
448,192,22043,1,0,0:0:0:0:
64,192,22043,1,0,0:0:0:0:
320,192,22168,1,0,0:0:0:0:
192,192,22230,1,0,0:0:0:0:
448,192,22418,1,0,0:0:0:0:
64,192,22418,1,0,0:0:0:0:
192,192,22543,1,0,0:0:0:0:
320,192,22605,1,0,0:0:0:0:
448,192,22793,1,0,0:0:0:0:
64,192,22793,1,0,0:0:0:0:
320,192,22918,1,0,0:0:0:0:
192,192,22980,1,0,0:0:0:0:
448,192,23168,1,0,0:0:0:0:
64,192,23168,1,0,0:0:0:0:
192,192,23293,1,0,0:0:0:0:
320,192,23355,128,0,23543:0:0:0:0:
448,192,23543,1,0,0:0:0:0:
64,192,23543,1,0,0:0:0:0:
320,192,23668,1,0,0:0:0:0:
192,192,23730,1,0,0:0:0:0:
448,192,23918,1,0,0:0:0:0:
64,192,23918,1,0,0:0:0:0:
192,192,24043,1,0,0:0:0:0:
320,192,24105,1,0,0:0:0:0:
448,192,24293,1,0,0:0:0:0:
64,192,24293,1,0,0:0:0:0:
320,192,24418,1,0,0:0:0:0:
192,192,24480,1,0,0:0:0:0:
448,192,25043,1,0,0:0:0:0:
320,192,25043,1,0,0:0:0:0:
192,192,25043,1,0,0:0:0:0:
64,192,25136,1,0,0:0:0:0:
448,192,25230,1,0,0:0:0:0:
320,192,25324,1,0,0:0:0:0:
448,192,25418,1,0,0:0:0:0:
192,192,25418,1,0,0:0:0:0:
64,192,25511,1,0,0:0:0:0:
320,192,25605,1,0,0:0:0:0:
192,192,25699,1,0,0:0:0:0:
320,192,25793,1,0,0:0:0:0:
64,192,25793,1,0,0:0:0:0:
448,192,25886,1,0,0:0:0:0:
64,192,25980,1,0,0:0:0:0:
192,192,26074,1,0,0:0:0:0:
320,192,26168,1,0,0:0:0:0:
64,192,26168,1,0,0:0:0:0:
448,192,26261,1,0,0:0:0:0:
192,192,26355,1,0,0:0:0:0:
320,192,26449,1,0,0:0:0:0:
448,192,26543,1,0,0:0:0:0:
192,192,26543,1,0,0:0:0:0:
64,192,26636,1,0,0:0:0:0:
320,192,26730,1,0,0:0:0:0:
448,192,26824,1,0,0:0:0:0:
320,192,26918,1,0,0:0:0:0:
192,192,26918,1,0,0:0:0:0:
64,192,27011,1,0,0:0:0:0:
448,192,27105,1,0,0:0:0:0:
192,192,27199,1,0,0:0:0:0:
320,192,27293,1,0,0:0:0:0:
64,192,27293,1,0,0:0:0:0:
448,192,27386,1,0,0:0:0:0:
192,192,27480,1,0,0:0:0:0:
64,192,27574,1,0,0:0:0:0:
320,192,27668,1,0,0:0:0:0:
192,192,27668,1,0,0:0:0:0:
448,192,27761,1,0,0:0:0:0:
64,192,27855,1,0,0:0:0:0:
320,192,27949,1,0,0:0:0:0:
448,192,28043,1,0,0:0:0:0:
64,192,28043,1,0,0:0:0:0:
192,192,28136,1,0,0:0:0:0:
448,192,28230,1,0,0:0:0:0:
320,192,28324,1,0,0:0:0:0:
448,192,28418,1,0,0:0:0:0:
192,192,28418,1,0,0:0:0:0:
64,192,28511,1,0,0:0:0:0:
320,192,28605,1,0,0:0:0:0:
192,192,28699,1,0,0:0:0:0:
448,192,28793,1,0,0:0:0:0:
64,192,28793,1,0,0:0:0:0:
320,192,28886,1,0,0:0:0:0:
64,192,28980,1,0,0:0:0:0:
192,192,29074,1,0,0:0:0:0:
320,192,29168,1,0,0:0:0:0:
64,192,29168,1,0,0:0:0:0:
448,192,29261,1,0,0:0:0:0:
192,192,29355,1,0,0:0:0:0:
320,192,29449,1,0,0:0:0:0:
448,192,29543,1,0,0:0:0:0:
64,192,29543,1,0,0:0:0:0:
192,192,29636,1,0,0:0:0:0:
320,192,29730,1,0,0:0:0:0:
448,192,29824,1,0,0:0:0:0:
320,192,29918,1,0,0:0:0:0:
192,192,29918,1,0,0:0:0:0:
64,192,30011,1,0,0:0:0:0:
448,192,30105,1,0,0:0:0:0:
192,192,30199,1,0,0:0:0:0:
448,192,30293,1,0,0:0:0:0:
64,192,30293,1,0,0:0:0:0:
320,192,30386,1,0,0:0:0:0:
192,192,30480,1,0,0:0:0:0:
64,192,30574,1,0,0:0:0:0:
320,192,30668,1,0,0:0:0:0:
192,192,30668,1,0,0:0:0:0:
448,192,30761,1,0,0:0:0:0:
64,192,30855,1,0,0:0:0:0:
320,192,30949,1,0,0:0:0:0:
448,192,31043,1,0,0:0:0:0:
192,192,31043,1,0,0:0:0:0:
64,192,31136,1,0,0:0:0:0:
448,192,31230,1,0,0:0:0:0:
320,192,31324,1,0,0:0:0:0:
448,192,31418,1,0,0:0:0:0:
192,192,31418,1,0,0:0:0:0:
64,192,31511,1,0,0:0:0:0:
320,192,31605,1,0,0:0:0:0:
192,192,31699,1,0,0:0:0:0:
320,192,31793,1,0,0:0:0:0:
64,192,31793,1,0,0:0:0:0:
448,192,31886,1,0,0:0:0:0:
64,192,31980,1,0,0:0:0:0:
192,192,32074,1,0,0:0:0:0:
320,192,32168,1,0,0:0:0:0:
64,192,32168,1,0,0:0:0:0:
448,192,32261,1,0,0:0:0:0:
192,192,32355,1,0,0:0:0:0:
320,192,32449,1,0,0:0:0:0:
448,192,32543,1,0,0:0:0:0:
192,192,32543,1,0,0:0:0:0:
64,192,32636,1,0,0:0:0:0:
320,192,32730,1,0,0:0:0:0:
448,192,32824,1,0,0:0:0:0:
320,192,32918,1,0,0:0:0:0:
192,192,32918,1,0,0:0:0:0:
64,192,33011,1,0,0:0:0:0:
448,192,33105,1,0,0:0:0:0:
192,192,33199,1,0,0:0:0:0:
320,192,33293,1,0,0:0:0:0:
64,192,33293,1,0,0:0:0:0:
448,192,33386,1,0,0:0:0:0:
192,192,33480,1,0,0:0:0:0:
64,192,33574,1,0,0:0:0:0:
320,192,33668,1,0,0:0:0:0:
192,192,33668,1,0,0:0:0:0:
448,192,33761,1,0,0:0:0:0:
64,192,33855,1,0,0:0:0:0:
320,192,33949,1,0,0:0:0:0:
448,192,34043,1,0,0:0:0:0:
64,192,34043,1,0,0:0:0:0:
192,192,34136,1,0,0:0:0:0:
448,192,34230,1,0,0:0:0:0:
320,192,34324,1,0,0:0:0:0:
448,192,34418,1,0,0:0:0:0:
192,192,34418,1,0,0:0:0:0:
64,192,34511,1,0,0:0:0:0:
320,192,34605,1,0,0:0:0:0:
192,192,34699,1,0,0:0:0:0:
448,192,34793,1,0,0:0:0:0:
64,192,34793,1,0,0:0:0:0:
320,192,34886,1,0,0:0:0:0:
64,192,34980,1,0,0:0:0:0:
192,192,35074,1,0,0:0:0:0:
320,192,35168,1,0,0:0:0:0:
64,192,35168,1,0,0:0:0:0:
448,192,35261,1,0,0:0:0:0:
192,192,35355,1,0,0:0:0:0:
320,192,35449,1,0,0:0:0:0:
64,192,35543,1,0,0:0:0:0:
192,192,35636,1,0,0:0:0:0:
320,192,35730,1,0,0:0:0:0:
448,192,35918,1,0,0:0:0:0:
320,192,36011,1,0,0:0:0:0:
192,192,36105,1,0,0:0:0:0:
64,192,36293,1,0,0:0:0:0:
192,192,36386,1,0,0:0:0:0:
320,192,36480,1,0,0:0:0:0:
448,192,36668,128,0,36949:0:0:0:0:
448,192,37043,1,0,0:0:0:0:
320,192,37043,1,0,0:0:0:0:
192,192,37043,1,0,0:0:0:0:
64,192,37136,1,0,0:0:0:0:
448,192,37230,1,0,0:0:0:0:
320,192,37324,1,0,0:0:0:0:
448,192,37418,1,0,0:0:0:0:
192,192,37418,1,0,0:0:0:0:
64,192,37511,1,0,0:0:0:0:
320,192,37605,1,0,0:0:0:0:
192,192,37699,1,0,0:0:0:0:
320,192,37793,1,0,0:0:0:0:
64,192,37793,1,0,0:0:0:0:
448,192,37886,1,0,0:0:0:0:
64,192,37980,1,0,0:0:0:0:
192,192,38074,1,0,0:0:0:0:
320,192,38168,1,0,0:0:0:0:
64,192,38168,1,0,0:0:0:0:
448,192,38261,1,0,0:0:0:0:
192,192,38355,1,0,0:0:0:0:
320,192,38449,1,0,0:0:0:0:
448,192,38543,1,0,0:0:0:0:
192,192,38543,1,0,0:0:0:0:
64,192,38636,1,0,0:0:0:0:
320,192,38730,1,0,0:0:0:0:
448,192,38824,1,0,0:0:0:0:
320,192,38918,1,0,0:0:0:0:
192,192,38918,1,0,0:0:0:0:
64,192,39011,1,0,0:0:0:0:
448,192,39105,1,0,0:0:0:0:
192,192,39199,1,0,0:0:0:0:
320,192,39293,1,0,0:0:0:0:
64,192,39293,1,0,0:0:0:0:
448,192,39386,1,0,0:0:0:0:
192,192,39480,1,0,0:0:0:0:
64,192,39574,1,0,0:0:0:0:
320,192,39668,1,0,0:0:0:0:
192,192,39668,1,0,0:0:0:0:
448,192,39761,1,0,0:0:0:0:
64,192,39855,1,0,0:0:0:0:
320,192,39949,1,0,0:0:0:0:
448,192,40043,1,0,0:0:0:0:
64,192,40043,1,0,0:0:0:0:
192,192,40136,1,0,0:0:0:0:
448,192,40230,1,0,0:0:0:0:
320,192,40324,1,0,0:0:0:0:
448,192,40418,1,0,0:0:0:0:
192,192,40418,1,0,0:0:0:0:
64,192,40511,1,0,0:0:0:0:
320,192,40605,1,0,0:0:0:0:
192,192,40699,1,0,0:0:0:0:
448,192,40793,1,0,0:0:0:0:
64,192,40793,1,0,0:0:0:0:
320,192,40886,1,0,0:0:0:0:
64,192,40980,1,0,0:0:0:0:
192,192,41074,1,0,0:0:0:0:
320,192,41168,1,0,0:0:0:0:
64,192,41168,1,0,0:0:0:0:
448,192,41261,1,0,0:0:0:0:
192,192,41355,1,0,0:0:0:0:
320,192,41449,1,0,0:0:0:0:
448,192,41543,1,0,0:0:0:0:
64,192,41543,1,0,0:0:0:0:
192,192,41636,1,0,0:0:0:0:
320,192,41730,1,0,0:0:0:0:
448,192,41824,1,0,0:0:0:0:
320,192,41918,1,0,0:0:0:0:
192,192,41918,1,0,0:0:0:0:
64,192,42011,1,0,0:0:0:0:
448,192,42105,1,0,0:0:0:0:
192,192,42199,1,0,0:0:0:0:
448,192,42293,1,0,0:0:0:0:
64,192,42293,1,0,0:0:0:0:
320,192,42386,1,0,0:0:0:0:
192,192,42480,1,0,0:0:0:0:
64,192,42574,1,0,0:0:0:0:
320,192,42668,1,0,0:0:0:0:
192,192,42668,1,0,0:0:0:0:
448,192,42761,1,0,0:0:0:0:
64,192,42855,1,0,0:0:0:0:
320,192,42949,1,0,0:0:0:0:
448,192,43043,1,0,0:0:0:0:
192,192,43043,1,0,0:0:0:0:
64,192,43136,1,0,0:0:0:0:
448,192,43230,1,0,0:0:0:0:
320,192,43324,1,0,0:0:0:0:
448,192,43418,1,0,0:0:0:0:
192,192,43418,1,0,0:0:0:0:
64,192,43511,1,0,0:0:0:0:
320,192,43605,1,0,0:0:0:0:
192,192,43699,1,0,0:0:0:0:
320,192,43793,1,0,0:0:0:0:
64,192,43793,1,0,0:0:0:0:
448,192,43886,1,0,0:0:0:0:
64,192,43980,1,0,0:0:0:0:
192,192,44074,1,0,0:0:0:0:
320,192,44168,1,0,0:0:0:0:
64,192,44168,1,0,0:0:0:0:
448,192,44261,1,0,0:0:0:0:
192,192,44355,1,0,0:0:0:0:
320,192,44449,1,0,0:0:0:0:
448,192,44543,1,0,0:0:0:0:
192,192,44543,1,0,0:0:0:0:
64,192,44636,1,0,0:0:0:0:
320,192,44730,1,0,0:0:0:0:
448,192,44824,1,0,0:0:0:0:
320,192,44918,1,0,0:0:0:0:
192,192,44918,1,0,0:0:0:0:
64,192,45011,1,0,0:0:0:0:
448,192,45105,1,0,0:0:0:0:
192,192,45199,1,0,0:0:0:0:
320,192,45293,1,0,0:0:0:0:
64,192,45293,1,0,0:0:0:0:
448,192,45386,1,0,0:0:0:0:
192,192,45480,1,0,0:0:0:0:
64,192,45574,1,0,0:0:0:0:
320,192,45668,1,0,0:0:0:0:
192,192,45668,1,0,0:0:0:0:
448,192,45761,1,0,0:0:0:0:
64,192,45855,1,0,0:0:0:0:
320,192,45949,1,0,0:0:0:0:
448,192,46043,1,0,0:0:0:0:
64,192,46043,1,0,0:0:0:0:
192,192,46136,1,0,0:0:0:0:
448,192,46230,1,0,0:0:0:0:
320,192,46324,1,0,0:0:0:0:
448,192,46418,1,0,0:0:0:0:
192,192,46418,1,0,0:0:0:0:
64,192,46511,1,0,0:0:0:0:
320,192,46605,1,0,0:0:0:0:
192,192,46699,1,0,0:0:0:0:
448,192,46793,1,0,0:0:0:0:
64,192,46793,1,0,0:0:0:0:
320,192,46886,1,0,0:0:0:0:
64,192,46980,1,0,0:0:0:0:
192,192,47074,1,0,0:0:0:0:
320,192,47168,1,0,0:0:0:0:
64,192,47168,1,0,0:0:0:0:
448,192,47261,1,0,0:0:0:0:
192,192,47355,1,0,0:0:0:0:
320,192,47449,1,0,0:0:0:0:
192,192,47543,1,0,0:0:0:0:
64,192,47543,1,0,0:0:0:0:
448,192,47636,1,0,0:0:0:0:
320,192,47636,1,0,0:0:0:0:
192,192,47824,1,0,0:0:0:0:
64,192,47824,1,0,0:0:0:0:
448,192,47918,1,0,0:0:0:0:
320,192,47918,1,0,0:0:0:0:
192,192,48105,1,0,0:0:0:0:
64,192,48105,1,0,0:0:0:0:
448,192,48293,1,0,0:0:0:0:
320,192,48293,1,0,0:0:0:0:
192,192,48386,1,0,0:0:0:0:
64,192,48386,1,0,0:0:0:0:
320,192,48574,1,0,0:0:0:0:
64,192,48574,1,0,0:0:0:0:
448,192,48668,1,0,0:0:0:0:
192,192,48668,1,0,0:0:0:0:
320,192,48793,1,0,0:0:0:0:
64,192,48855,1,0,0:0:0:0:
448,192,49043,1,0,0:0:0:0:
320,192,49043,1,0,0:0:0:0:
192,192,49043,1,0,0:0:0:0:
64,192,49136,1,0,0:0:0:0:
448,192,49230,1,0,0:0:0:0:
320,192,49324,1,0,0:0:0:0:
192,192,49418,1,0,0:0:0:0:
64,192,49418,1,0,0:0:0:0:
448,192,49511,1,0,0:0:0:0:
64,192,49605,1,0,0:0:0:0:
320,192,49699,1,0,0:0:0:0:
192,192,49793,1,0,0:0:0:0:
64,192,49793,1,0,0:0:0:0:
448,192,49886,1,0,0:0:0:0:
192,192,49980,1,0,0:0:0:0:
64,192,50074,1,0,0:0:0:0:
448,192,50168,1,0,0:0:0:0:
320,192,50168,1,0,0:0:0:0:
192,192,50261,1,0,0:0:0:0:
448,192,50355,1,0,0:0:0:0:
64,192,50449,1,0,0:0:0:0:
448,192,50543,1,0,0:0:0:0:
320,192,50543,1,0,0:0:0:0:
192,192,50636,1,0,0:0:0:0:
320,192,50730,1,0,0:0:0:0:
448,192,50824,1,0,0:0:0:0:
192,192,50918,1,0,0:0:0:0:
64,192,50918,1,0,0:0:0:0:
320,192,51011,1,0,0:0:0:0:
192,192,51105,1,0,0:0:0:0:
448,192,51199,1,0,0:0:0:0:
192,192,51293,1,0,0:0:0:0:
64,192,51293,1,0,0:0:0:0:
320,192,51386,1,0,0:0:0:0:
64,192,51480,1,0,0:0:0:0:
192,192,51574,1,0,0:0:0:0:
448,192,51668,1,0,0:0:0:0:
320,192,51668,1,0,0:0:0:0:
64,192,51761,1,0,0:0:0:0:
320,192,51855,1,0,0:0:0:0:
192,192,51949,1,0,0:0:0:0:
448,192,52043,1,0,0:0:0:0:
320,192,52043,1,0,0:0:0:0:
64,192,52136,1,0,0:0:0:0:
448,192,52230,1,0,0:0:0:0:
320,192,52324,1,0,0:0:0:0:
192,192,52418,1,0,0:0:0:0:
64,192,52418,1,0,0:0:0:0:
448,192,52511,1,0,0:0:0:0:
64,192,52605,1,0,0:0:0:0:
320,192,52699,1,0,0:0:0:0:
192,192,52793,1,0,0:0:0:0:
64,192,52793,1,0,0:0:0:0:
448,192,52886,1,0,0:0:0:0:
192,192,52980,1,0,0:0:0:0:
64,192,53074,1,0,0:0:0:0:
448,192,53168,1,0,0:0:0:0:
320,192,53168,1,0,0:0:0:0:
192,192,53261,1,0,0:0:0:0:
448,192,53355,1,0,0:0:0:0:
64,192,53449,1,0,0:0:0:0:
448,192,53543,1,0,0:0:0:0:
320,192,53543,1,0,0:0:0:0:
192,192,53636,1,0,0:0:0:0:
320,192,53730,1,0,0:0:0:0:
448,192,53824,1,0,0:0:0:0:
192,192,53918,1,0,0:0:0:0:
64,192,53918,1,0,0:0:0:0:
320,192,54011,1,0,0:0:0:0:
192,192,54105,1,0,0:0:0:0:
448,192,54199,1,0,0:0:0:0:
192,192,54293,1,0,0:0:0:0:
64,192,54293,1,0,0:0:0:0:
320,192,54386,1,0,0:0:0:0:
64,192,54480,1,0,0:0:0:0:
192,192,54574,1,0,0:0:0:0:
448,192,54668,1,0,0:0:0:0:
320,192,54668,1,0,0:0:0:0:
64,192,54761,1,0,0:0:0:0:
448,192,54855,1,0,0:0:0:0:
192,192,54855,1,0,0:0:0:0:
320,192,55043,1,0,0:0:0:0:
192,192,55043,1,0,0:0:0:0:
64,192,55136,1,0,0:0:0:0:
448,192,55230,1,0,0:0:0:0:
320,192,55324,1,0,0:0:0:0:
192,192,55418,1,0,0:0:0:0:
64,192,55418,1,0,0:0:0:0:
448,192,55511,1,0,0:0:0:0:
64,192,55605,1,0,0:0:0:0:
320,192,55699,1,0,0:0:0:0:
192,192,55793,1,0,0:0:0:0:
64,192,55793,1,0,0:0:0:0:
448,192,55886,1,0,0:0:0:0:
192,192,55980,1,0,0:0:0:0:
64,192,56074,1,0,0:0:0:0:
448,192,56168,1,0,0:0:0:0:
320,192,56168,1,0,0:0:0:0:
192,192,56261,1,0,0:0:0:0:
448,192,56355,1,0,0:0:0:0:
64,192,56449,1,0,0:0:0:0:
448,192,56543,1,0,0:0:0:0:
320,192,56543,1,0,0:0:0:0:
192,192,56636,1,0,0:0:0:0:
320,192,56730,1,0,0:0:0:0:
448,192,56824,1,0,0:0:0:0:
192,192,56918,1,0,0:0:0:0:
64,192,56918,1,0,0:0:0:0:
320,192,57011,1,0,0:0:0:0:
192,192,57105,1,0,0:0:0:0:
448,192,57199,1,0,0:0:0:0:
192,192,57293,1,0,0:0:0:0:
64,192,57293,1,0,0:0:0:0:
320,192,57386,1,0,0:0:0:0:
64,192,57480,1,0,0:0:0:0:
192,192,57574,1,0,0:0:0:0:
448,192,57668,1,0,0:0:0:0:
320,192,57668,1,0,0:0:0:0:
64,192,57761,1,0,0:0:0:0:
320,192,57855,1,0,0:0:0:0:
192,192,57949,1,0,0:0:0:0:
448,192,58043,1,0,0:0:0:0:
320,192,58043,1,0,0:0:0:0:
64,192,58136,1,0,0:0:0:0:
448,192,58230,1,0,0:0:0:0:
320,192,58324,1,0,0:0:0:0:
192,192,58418,1,0,0:0:0:0:
64,192,58418,1,0,0:0:0:0:
448,192,58511,1,0,0:0:0:0:
64,192,58605,1,0,0:0:0:0:
320,192,58699,1,0,0:0:0:0:
192,192,58793,1,0,0:0:0:0:
64,192,58793,1,0,0:0:0:0:
448,192,58886,1,0,0:0:0:0:
192,192,58980,1,0,0:0:0:0:
64,192,59074,1,0,0:0:0:0:
448,192,59168,1,0,0:0:0:0:
320,192,59168,1,0,0:0:0:0:
192,192,59261,1,0,0:0:0:0:
448,192,59355,1,0,0:0:0:0:
64,192,59449,1,0,0:0:0:0:
448,192,59543,1,0,0:0:0:0:
320,192,59543,1,0,0:0:0:0:
192,192,59636,1,0,0:0:0:0:
320,192,59730,1,0,0:0:0:0:
448,192,59824,1,0,0:0:0:0:
192,192,59918,1,0,0:0:0:0:
320,192,60011,1,0,0:0:0:0:
64,192,60105,1,0,0:0:0:0:
448,192,60293,1,0,0:0:0:0:
192,192,60293,1,0,0:0:0:0:
320,192,60386,1,0,0:0:0:0:
64,192,60480,1,0,0:0:0:0:
192,192,60574,1,0,0:0:0:0:
448,192,60668,1,0,0:0:0:0:
320,192,60793,1,0,0:0:0:0:
192,192,60855,1,0,0:0:0:0:
448,192,61043,1,0,0:0:0:0:
320,192,61043,1,0,0:0:0:0:
64,192,61043,1,0,0:0:0:0:
192,192,61168,1,0,0:0:0:0:
320,192,61230,1,0,0:0:0:0:
448,192,61418,1,0,0:0:0:0:
64,192,61418,1,0,0:0:0:0:
192,192,61543,1,0,0:0:0:0:
320,192,61605,1,0,0:0:0:0:
448,192,61793,1,0,0:0:0:0:
64,192,61793,1,0,0:0:0:0:
192,192,61918,1,0,0:0:0:0:
320,192,61980,1,0,0:0:0:0:
448,192,62168,1,0,0:0:0:0:
64,192,62168,1,0,0:0:0:0:
192,192,62293,1,0,0:0:0:0:
320,192,62355,1,0,0:0:0:0:
448,192,62543,1,0,0:0:0:0:
64,192,62543,1,0,0:0:0:0:
192,192,62668,1,0,0:0:0:0:
320,192,62730,1,0,0:0:0:0:
448,192,62918,1,0,0:0:0:0:
64,192,62918,1,0,0:0:0:0:
192,192,63043,1,0,0:0:0:0:
320,192,63105,1,0,0:0:0:0:
448,192,63293,1,0,0:0:0:0:
64,192,63293,1,0,0:0:0:0:
192,192,63418,1,0,0:0:0:0:
320,192,63480,1,0,0:0:0:0:
192,192,63668,128,0,64043:0:0:0:0:
448,192,64043,1,0,0:0:0:0:
64,192,64043,1,0,0:0:0:0:
320,192,64168,1,0,0:0:0:0:
192,192,64230,1,0,0:0:0:0:
448,192,64418,1,0,0:0:0:0:
64,192,64418,1,0,0:0:0:0:
320,192,64543,1,0,0:0:0:0:
192,192,64605,1,0,0:0:0:0:
448,192,64793,1,0,0:0:0:0:
64,192,64793,1,0,0:0:0:0:
320,192,64918,1,0,0:0:0:0:
192,192,64980,1,0,0:0:0:0:
448,192,65168,1,0,0:0:0:0:
64,192,65168,1,0,0:0:0:0:
320,192,65293,1,0,0:0:0:0:
192,192,65355,1,0,0:0:0:0:
448,192,65543,1,0,0:0:0:0:
64,192,65543,1,0,0:0:0:0:
320,192,65668,1,0,0:0:0:0:
192,192,65730,1,0,0:0:0:0:
448,192,65918,1,0,0:0:0:0:
64,192,65918,1,0,0:0:0:0:
320,192,66043,1,0,0:0:0:0:
192,192,66105,1,0,0:0:0:0:
448,192,66293,1,0,0:0:0:0:
64,192,66293,1,0,0:0:0:0:
320,192,66418,1,0,0:0:0:0:
192,192,66480,1,0,0:0:0:0:
320,192,66668,128,0,67043:0:0:0:0:
448,192,67043,1,0,0:0:0:0:
64,192,67043,1,0,0:0:0:0:
192,192,67168,1,0,0:0:0:0:
320,192,67230,1,0,0:0:0:0:
448,192,67418,1,0,0:0:0:0:
64,192,67418,1,0,0:0:0:0:
192,192,67543,1,0,0:0:0:0:
320,192,67605,1,0,0:0:0:0:
448,192,67793,1,0,0:0:0:0:
64,192,67793,1,0,0:0:0:0:
192,192,67918,1,0,0:0:0:0:
320,192,67980,1,0,0:0:0:0:
448,192,68168,1,0,0:0:0:0:
64,192,68168,1,0,0:0:0:0:
192,192,68293,1,0,0:0:0:0:
320,192,68355,1,0,0:0:0:0:
448,192,68543,1,0,0:0:0:0:
64,192,68543,1,0,0:0:0:0:
192,192,68668,1,0,0:0:0:0:
320,192,68730,1,0,0:0:0:0:
448,192,68918,1,0,0:0:0:0:
64,192,68918,1,0,0:0:0:0:
192,192,69043,1,0,0:0:0:0:
320,192,69105,1,0,0:0:0:0:
448,192,69293,1,0,0:0:0:0:
64,192,69293,1,0,0:0:0:0:
192,192,69418,1,0,0:0:0:0:
320,192,69480,1,0,0:0:0:0:
192,192,69668,128,0,70043:0:0:0:0:
448,192,70043,1,0,0:0:0:0:
64,192,70043,1,0,0:0:0:0:
320,192,70168,1,0,0:0:0:0:
192,192,70230,1,0,0:0:0:0:
448,192,70418,1,0,0:0:0:0:
64,192,70418,1,0,0:0:0:0:
320,192,70543,1,0,0:0:0:0:
192,192,70605,1,0,0:0:0:0:
448,192,70793,1,0,0:0:0:0:
64,192,70793,1,0,0:0:0:0:
320,192,70918,1,0,0:0:0:0:
192,192,70980,1,0,0:0:0:0:
448,192,71168,1,0,0:0:0:0:
64,192,71168,1,0,0:0:0:0:
320,192,71293,1,0,0:0:0:0:
192,192,71355,1,0,0:0:0:0:
448,192,71543,1,0,0:0:0:0:
64,192,71543,1,0,0:0:0:0:
320,192,71668,1,0,0:0:0:0:
192,192,71730,1,0,0:0:0:0:
448,192,71824,1,0,0:0:0:0:
64,192,71824,1,0,0:0:0:0:
320,192,71941,1,0,0:0:0:0:
192,192,72011,1,0,0:0:0:0:
448,192,72105,1,0,0:0:0:0:
64,192,72105,1,0,0:0:0:0:
448,192,72293,1,0,0:0:0:0:
64,192,72293,1,0,0:0:0:0:
320,192,72410,1,0,0:0:0:0:
192,192,72480,1,0,0:0:0:0:
448,192,72668,1,0,0:0:0:0:
192,192,72855,1,0,0:0:0:0:
320,192,73043,1,0,0:0:0:0:
192,192,73043,1,0,0:0:0:0:
64,192,73043,1,0,0:0:0:0:
448,192,73136,1,0,0:0:0:0:
64,192,73230,1,0,0:0:0:0:
192,192,73324,1,0,0:0:0:0:
448,192,73418,1,0,0:0:0:0:
320,192,73418,1,0,0:0:0:0:
64,192,73511,1,0,0:0:0:0:
448,192,73605,1,0,0:0:0:0:
320,192,73699,1,0,0:0:0:0:
448,192,73793,1,0,0:0:0:0:
192,192,73793,1,0,0:0:0:0:
64,192,73886,1,0,0:0:0:0:
320,192,73980,1,0,0:0:0:0:
192,192,74074,1,0,0:0:0:0:
320,192,74168,1,0,0:0:0:0:
64,192,74168,1,0,0:0:0:0:
448,192,74261,1,0,0:0:0:0:
192,192,74355,1,0,0:0:0:0:
320,192,74449,1,0,0:0:0:0:
448,192,74543,1,0,0:0:0:0:
64,192,74543,1,0,0:0:0:0:
192,192,74636,1,0,0:0:0:0:
448,192,74730,1,0,0:0:0:0:
320,192,74824,1,0,0:0:0:0:
192,192,74918,1,0,0:0:0:0:
64,192,74918,1,0,0:0:0:0:
448,192,75011,1,0,0:0:0:0:
192,192,75105,1,0,0:0:0:0:
64,192,75199,1,0,0:0:0:0:
320,192,75293,1,0,0:0:0:0:
192,192,75293,1,0,0:0:0:0:
448,192,75386,1,0,0:0:0:0:
64,192,75480,1,0,0:0:0:0:
320,192,75574,1,0,0:0:0:0:
448,192,75668,1,0,0:0:0:0:
192,192,75668,1,0,0:0:0:0:
64,192,75761,1,0,0:0:0:0:
320,192,75855,1,0,0:0:0:0:
192,192,75949,1,0,0:0:0:0:
448,192,76043,1,0,0:0:0:0:
64,192,76043,1,0,0:0:0:0:
320,192,76136,1,0,0:0:0:0:
64,192,76230,1,0,0:0:0:0:
192,192,76324,1,0,0:0:0:0:
448,192,76418,1,0,0:0:0:0:
320,192,76418,1,0,0:0:0:0:
64,192,76511,1,0,0:0:0:0:
448,192,76605,1,0,0:0:0:0:
320,192,76699,1,0,0:0:0:0:
448,192,76793,1,0,0:0:0:0:
192,192,76793,1,0,0:0:0:0:
64,192,76886,1,0,0:0:0:0:
320,192,76980,1,0,0:0:0:0:
192,192,77074,1,0,0:0:0:0:
320,192,77168,1,0,0:0:0:0:
64,192,77168,1,0,0:0:0:0:
448,192,77261,1,0,0:0:0:0:
192,192,77355,1,0,0:0:0:0:
320,192,77449,1,0,0:0:0:0:
448,192,77543,1,0,0:0:0:0:
192,192,77543,1,0,0:0:0:0:
64,192,77636,1,0,0:0:0:0:
448,192,77730,1,0,0:0:0:0:
320,192,77824,1,0,0:0:0:0:
192,192,77918,1,0,0:0:0:0:
64,192,77918,1,0,0:0:0:0:
448,192,78011,1,0,0:0:0:0:
192,192,78105,1,0,0:0:0:0:
64,192,78199,1,0,0:0:0:0:
320,192,78293,1,0,0:0:0:0:
192,192,78293,1,0,0:0:0:0:
448,192,78386,1,0,0:0:0:0:
64,192,78480,1,0,0:0:0:0:
320,192,78574,1,0,0:0:0:0:
448,192,78668,1,0,0:0:0:0:
192,192,78668,1,0,0:0:0:0:
64,192,78761,1,0,0:0:0:0:
320,192,78855,1,0,0:0:0:0:
192,192,78949,1,0,0:0:0:0:
448,192,79043,1,0,0:0:0:0:
64,192,79043,1,0,0:0:0:0:
320,192,79136,1,0,0:0:0:0:
64,192,79230,1,0,0:0:0:0:
192,192,79324,1,0,0:0:0:0:
448,192,79418,1,0,0:0:0:0:
320,192,79418,1,0,0:0:0:0:
64,192,79511,1,0,0:0:0:0:
320,192,79605,1,0,0:0:0:0:
448,192,79699,1,0,0:0:0:0:
320,192,79793,1,0,0:0:0:0:
192,192,79793,1,0,0:0:0:0:
64,192,79886,1,0,0:0:0:0:
448,192,79980,1,0,0:0:0:0:
192,192,80074,1,0,0:0:0:0:
320,192,80168,1,0,0:0:0:0:
64,192,80168,1,0,0:0:0:0:
448,192,80261,1,0,0:0:0:0:
192,192,80355,1,0,0:0:0:0:
320,192,80449,1,0,0:0:0:0:
448,192,80543,1,0,0:0:0:0:
192,192,80543,1,0,0:0:0:0:
64,192,80636,1,0,0:0:0:0:
448,192,80730,1,0,0:0:0:0:
320,192,80824,1,0,0:0:0:0:
192,192,80918,1,0,0:0:0:0:
64,192,80918,1,0,0:0:0:0:
448,192,81011,1,0,0:0:0:0:
64,192,81105,1,0,0:0:0:0:
192,192,81199,1,0,0:0:0:0:
320,192,81293,1,0,0:0:0:0:
64,192,81293,1,0,0:0:0:0:
448,192,81386,1,0,0:0:0:0:
192,192,81480,1,0,0:0:0:0:
320,192,81574,1,0,0:0:0:0:
448,192,81668,1,0,0:0:0:0:
192,192,81668,1,0,0:0:0:0:
64,192,81761,1,0,0:0:0:0:
320,192,81855,1,0,0:0:0:0:
192,192,81949,1,0,0:0:0:0:
448,192,82043,1,0,0:0:0:0:
64,192,82043,1,0,0:0:0:0:
320,192,82136,1,0,0:0:0:0:
192,192,82230,1,0,0:0:0:0:
64,192,82324,1,0,0:0:0:0:
448,192,82418,1,0,0:0:0:0:
320,192,82418,1,0,0:0:0:0:
192,192,82511,1,0,0:0:0:0:
448,192,82605,1,0,0:0:0:0:
320,192,82699,1,0,0:0:0:0:
448,192,82793,1,0,0:0:0:0:
192,192,82793,1,0,0:0:0:0:
64,192,82886,1,0,0:0:0:0:
320,192,82980,1,0,0:0:0:0:
192,192,83074,1,0,0:0:0:0:
320,192,83168,1,0,0:0:0:0:
64,192,83168,1,0,0:0:0:0:
448,192,83261,1,0,0:0:0:0:
192,192,83355,1,0,0:0:0:0:
320,192,83449,1,0,0:0:0:0:
192,192,83543,1,0,0:0:0:0:
64,192,83543,1,0,0:0:0:0:
448,192,83636,1,0,0:0:0:0:
320,192,83636,1,0,0:0:0:0:
192,192,83824,1,0,0:0:0:0:
64,192,83824,1,0,0:0:0:0:
448,192,83918,1,0,0:0:0:0:
320,192,83918,1,0,0:0:0:0:
192,192,84105,1,0,0:0:0:0:
64,192,84105,1,0,0:0:0:0:
448,192,84293,1,0,0:0:0:0:
320,192,84293,1,0,0:0:0:0:
192,192,84386,1,0,0:0:0:0:
64,192,84386,1,0,0:0:0:0:
448,192,84574,1,0,0:0:0:0:
192,192,84574,1,0,0:0:0:0:
320,192,84668,1,0,0:0:0:0:
64,192,84668,1,0,0:0:0:0:
192,192,84793,1,0,0:0:0:0:
448,192,84855,1,0,0:0:0:0:
320,192,85043,1,0,0:0:0:0:
192,192,85043,1,0,0:0:0:0:
64,192,85043,1,0,0:0:0:0:
448,192,85136,1,0,0:0:0:0:
64,192,85230,1,0,0:0:0:0:
192,192,85324,1,0,0:0:0:0:
448,192,85418,1,0,0:0:0:0:
320,192,85418,1,0,0:0:0:0:
64,192,85511,1,0,0:0:0:0:
448,192,85605,1,0,0:0:0:0:
320,192,85699,1,0,0:0:0:0:
448,192,85793,1,0,0:0:0:0:
192,192,85793,1,0,0:0:0:0:
64,192,85886,1,0,0:0:0:0:
320,192,85980,1,0,0:0:0:0:
192,192,86074,1,0,0:0:0:0:
320,192,86168,1,0,0:0:0:0:
64,192,86168,1,0,0:0:0:0:
448,192,86261,1,0,0:0:0:0:
192,192,86355,1,0,0:0:0:0:
320,192,86449,1,0,0:0:0:0:
448,192,86543,1,0,0:0:0:0:
64,192,86543,1,0,0:0:0:0:
192,192,86636,1,0,0:0:0:0:
448,192,86730,1,0,0:0:0:0:
320,192,86824,1,0,0:0:0:0:
192,192,86918,1,0,0:0:0:0:
64,192,86918,1,0,0:0:0:0:
448,192,87011,1,0,0:0:0:0:
192,192,87105,1,0,0:0:0:0:
64,192,87199,1,0,0:0:0:0:
320,192,87293,1,0,0:0:0:0:
192,192,87293,1,0,0:0:0:0:
448,192,87386,1,0,0:0:0:0:
64,192,87480,1,0,0:0:0:0:
320,192,87574,1,0,0:0:0:0:
448,192,87668,1,0,0:0:0:0:
192,192,87668,1,0,0:0:0:0:
64,192,87761,1,0,0:0:0:0:
320,192,87855,1,0,0:0:0:0:
192,192,87949,1,0,0:0:0:0:
448,192,88043,1,0,0:0:0:0:
64,192,88043,1,0,0:0:0:0:
320,192,88136,1,0,0:0:0:0:
64,192,88230,1,0,0:0:0:0:
192,192,88324,1,0,0:0:0:0:
448,192,88418,1,0,0:0:0:0:
320,192,88418,1,0,0:0:0:0:
64,192,88511,1,0,0:0:0:0:
448,192,88605,1,0,0:0:0:0:
320,192,88699,1,0,0:0:0:0:
448,192,88793,1,0,0:0:0:0:
192,192,88793,1,0,0:0:0:0:
64,192,88886,1,0,0:0:0:0:
320,192,88980,1,0,0:0:0:0:
192,192,89074,1,0,0:0:0:0:
320,192,89168,1,0,0:0:0:0:
64,192,89168,1,0,0:0:0:0:
448,192,89261,1,0,0:0:0:0:
192,192,89355,1,0,0:0:0:0:
320,192,89449,1,0,0:0:0:0:
448,192,89543,1,0,0:0:0:0:
192,192,89543,1,0,0:0:0:0:
64,192,89636,1,0,0:0:0:0:
448,192,89730,1,0,0:0:0:0:
320,192,89824,1,0,0:0:0:0:
192,192,89918,1,0,0:0:0:0:
64,192,89918,1,0,0:0:0:0:
448,192,90011,1,0,0:0:0:0:
192,192,90105,1,0,0:0:0:0:
64,192,90199,1,0,0:0:0:0:
320,192,90293,1,0,0:0:0:0:
192,192,90293,1,0,0:0:0:0:
448,192,90386,1,0,0:0:0:0:
64,192,90480,1,0,0:0:0:0:
320,192,90574,1,0,0:0:0:0:
448,192,90668,1,0,0:0:0:0:
192,192,90668,1,0,0:0:0:0:
64,192,90761,1,0,0:0:0:0:
320,192,90855,1,0,0:0:0:0:
192,192,90949,1,0,0:0:0:0:
448,192,91043,1,0,0:0:0:0:
64,192,91043,1,0,0:0:0:0:
320,192,91136,1,0,0:0:0:0:
64,192,91230,1,0,0:0:0:0:
192,192,91324,1,0,0:0:0:0:
448,192,91418,1,0,0:0:0:0:
320,192,91418,1,0,0:0:0:0:
64,192,91511,1,0,0:0:0:0:
320,192,91605,1,0,0:0:0:0:
448,192,91699,1,0,0:0:0:0:
320,192,91793,1,0,0:0:0:0:
192,192,91793,1,0,0:0:0:0:
64,192,91886,1,0,0:0:0:0:
448,192,91980,1,0,0:0:0:0:
192,192,92074,1,0,0:0:0:0:
320,192,92168,1,0,0:0:0:0:
64,192,92168,1,0,0:0:0:0:
448,192,92261,1,0,0:0:0:0:
192,192,92355,1,0,0:0:0:0:
320,192,92449,1,0,0:0:0:0:
448,192,92543,1,0,0:0:0:0:
192,192,92543,1,0,0:0:0:0:
64,192,92636,1,0,0:0:0:0:
448,192,92730,1,0,0:0:0:0:
320,192,92824,1,0,0:0:0:0:
192,192,92918,1,0,0:0:0:0:
64,192,92918,1,0,0:0:0:0:
448,192,93011,1,0,0:0:0:0:
64,192,93105,1,0,0:0:0:0:
192,192,93199,1,0,0:0:0:0:
320,192,93293,1,0,0:0:0:0:
64,192,93293,1,0,0:0:0:0:
448,192,93386,1,0,0:0:0:0:
192,192,93480,1,0,0:0:0:0:
320,192,93574,1,0,0:0:0:0:
448,192,93668,1,0,0:0:0:0:
192,192,93668,1,0,0:0:0:0:
64,192,93761,1,0,0:0:0:0:
320,192,93855,1,0,0:0:0:0:
192,192,93949,1,0,0:0:0:0:
448,192,94043,1,0,0:0:0:0:
64,192,94043,1,0,0:0:0:0:
320,192,94136,1,0,0:0:0:0:
192,192,94230,1,0,0:0:0:0:
64,192,94324,1,0,0:0:0:0:
448,192,94418,1,0,0:0:0:0:
320,192,94418,1,0,0:0:0:0:
192,192,94511,1,0,0:0:0:0:
448,192,94605,1,0,0:0:0:0:
320,192,94699,1,0,0:0:0:0:
448,192,94793,1,0,0:0:0:0:
192,192,94793,1,0,0:0:0:0:
64,192,94886,1,0,0:0:0:0:
320,192,94980,1,0,0:0:0:0:
192,192,95074,1,0,0:0:0:0:
320,192,95168,1,0,0:0:0:0:
64,192,95168,1,0,0:0:0:0:
448,192,95261,1,0,0:0:0:0:
192,192,95355,1,0,0:0:0:0:
320,192,95449,1,0,0:0:0:0:
192,192,95543,1,0,0:0:0:0:
64,192,95543,1,0,0:0:0:0:
448,192,95636,1,0,0:0:0:0:
64,192,95730,1,0,0:0:0:0:
320,192,95824,1,0,0:0:0:0:
192,192,95824,1,0,0:0:0:0:
192,192,96105,1,0,0:0:0:0:
64,192,96105,1,0,0:0:0:0:
448,192,96293,1,0,0:0:0:0:
320,192,96293,1,0,0:0:0:0:
64,192,96480,128,0,96668:0:0:0:0:
448,192,96668,1,0,0:0:0:0:
320,192,96668,1,0,0:0:0:0:
192,192,96761,1,0,0:0:0:0:
64,192,96761,1,0,0:0:0:0:
448,192,96855,128,0,97043:0:0:0:0:
320,192,97043,1,0,0:0:0:0:
64,192,97043,1,0,0:0:0:0:
192,192,97136,1,0,0:0:0:0:
448,192,97230,1,0,0:0:0:0:
192,192,97324,1,0,0:0:0:0:
320,192,97418,1,0,0:0:0:0:
64,192,97418,1,0,0:0:0:0:
448,192,97511,1,0,0:0:0:0:
64,192,97605,1,0,0:0:0:0:
192,192,97699,1,0,0:0:0:0:
320,192,97793,1,0,0:0:0:0:
64,192,97793,1,0,0:0:0:0:
448,192,97886,1,0,0:0:0:0:
192,192,97980,1,0,0:0:0:0:
320,192,98074,1,0,0:0:0:0:
448,192,98168,1,0,0:0:0:0:
192,192,98168,1,0,0:0:0:0:
64,192,98261,1,0,0:0:0:0:
320,192,98355,1,0,0:0:0:0:
192,192,98449,1,0,0:0:0:0:
320,192,98543,1,0,0:0:0:0:
64,192,98543,1,0,0:0:0:0:
448,192,98636,1,0,0:0:0:0:
192,192,98730,1,0,0:0:0:0:
448,192,98824,1,0,0:0:0:0:
320,192,98918,1,0,0:0:0:0:
192,192,98918,1,0,0:0:0:0:
64,192,99011,1,0,0:0:0:0:
320,192,99105,1,0,0:0:0:0:
448,192,99199,1,0,0:0:0:0:
320,192,99293,1,0,0:0:0:0:
192,192,99293,1,0,0:0:0:0:
64,192,99386,1,0,0:0:0:0:
448,192,99480,1,0,0:0:0:0:
192,192,99574,1,0,0:0:0:0:
320,192,99668,1,0,0:0:0:0:
64,192,99668,1,0,0:0:0:0:
448,192,99761,1,0,0:0:0:0:
192,192,99855,1,0,0:0:0:0:
320,192,99949,1,0,0:0:0:0:
448,192,100043,1,0,0:0:0:0:
64,192,100043,1,0,0:0:0:0:
192,192,100136,1,0,0:0:0:0:
320,192,100230,1,0,0:0:0:0:
192,192,100324,1,0,0:0:0:0:
320,192,100418,1,0,0:0:0:0:
64,192,100418,1,0,0:0:0:0:
448,192,100511,1,0,0:0:0:0:
64,192,100605,1,0,0:0:0:0:
192,192,100699,1,0,0:0:0:0:
320,192,100793,1,0,0:0:0:0:
64,192,100793,1,0,0:0:0:0:
448,192,100886,1,0,0:0:0:0:
192,192,100980,1,0,0:0:0:0:
320,192,101074,1,0,0:0:0:0:
448,192,101168,1,0,0:0:0:0:
192,192,101168,1,0,0:0:0:0:
64,192,101261,1,0,0:0:0:0:
320,192,101355,1,0,0:0:0:0:
192,192,101449,1,0,0:0:0:0:
320,192,101543,1,0,0:0:0:0:
64,192,101543,1,0,0:0:0:0:
448,192,101636,1,0,0:0:0:0:
192,192,101730,1,0,0:0:0:0:
448,192,101824,1,0,0:0:0:0:
320,192,101918,1,0,0:0:0:0:
192,192,101918,1,0,0:0:0:0:
64,192,102011,1,0,0:0:0:0:
320,192,102105,1,0,0:0:0:0:
448,192,102199,1,0,0:0:0:0:
320,192,102293,1,0,0:0:0:0:
192,192,102293,1,0,0:0:0:0:
64,192,102386,1,0,0:0:0:0:
448,192,102480,1,0,0:0:0:0:
192,192,102574,1,0,0:0:0:0:
320,192,102668,1,0,0:0:0:0:
64,192,102668,1,0,0:0:0:0:
448,192,102761,1,0,0:0:0:0:
192,192,102855,1,0,0:0:0:0:
320,192,102949,1,0,0:0:0:0:
448,192,103043,1,0,0:0:0:0:
192,192,103043,1,0,0:0:0:0:
64,192,103136,1,0,0:0:0:0:
320,192,103230,1,0,0:0:0:0:
64,192,103324,1,0,0:0:0:0:
320,192,103418,1,0,0:0:0:0:
192,192,103418,1,0,0:0:0:0:
448,192,103511,1,0,0:0:0:0:
192,192,103605,1,0,0:0:0:0:
64,192,103699,1,0,0:0:0:0:
320,192,103793,1,0,0:0:0:0:
192,192,103793,1,0,0:0:0:0:
448,192,103886,1,0,0:0:0:0:
64,192,103980,1,0,0:0:0:0:
320,192,104074,1,0,0:0:0:0:
448,192,104168,1,0,0:0:0:0:
192,192,104168,1,0,0:0:0:0:
64,192,104261,1,0,0:0:0:0:
320,192,104355,1,0,0:0:0:0:
192,192,104449,1,0,0:0:0:0:
448,192,104543,1,0,0:0:0:0:
64,192,104543,1,0,0:0:0:0:
320,192,104636,1,0,0:0:0:0:
192,192,104730,1,0,0:0:0:0:
320,192,104824,1,0,0:0:0:0:
448,192,104918,1,0,0:0:0:0:
192,192,104918,1,0,0:0:0:0:
64,192,105011,1,0,0:0:0:0:
448,192,105105,1,0,0:0:0:0:
320,192,105199,1,0,0:0:0:0:
448,192,105293,1,0,0:0:0:0:
192,192,105293,1,0,0:0:0:0:
64,192,105386,1,0,0:0:0:0:
320,192,105480,1,0,0:0:0:0:
192,192,105574,1,0,0:0:0:0:
320,192,105668,1,0,0:0:0:0:
64,192,105668,1,0,0:0:0:0:
448,192,105761,1,0,0:0:0:0:
192,192,105855,1,0,0:0:0:0:
320,192,105949,1,0,0:0:0:0:
448,192,106043,1,0,0:0:0:0:
64,192,106043,1,0,0:0:0:0:
192,192,106136,1,0,0:0:0:0:
320,192,106230,1,0,0:0:0:0:
192,192,106324,1,0,0:0:0:0:
448,192,106418,1,0,0:0:0:0:
64,192,106418,1,0,0:0:0:0:
320,192,106511,1,0,0:0:0:0:
64,192,106605,1,0,0:0:0:0:
192,192,106699,1,0,0:0:0:0:
320,192,106793,1,0,0:0:0:0:
64,192,106793,1,0,0:0:0:0:
448,192,106886,1,0,0:0:0:0:
192,192,106980,1,0,0:0:0:0:
320,192,107074,1,0,0:0:0:0:
448,192,107168,1,0,0:0:0:0:
192,192,107168,1,0,0:0:0:0:
64,192,107261,1,0,0:0:0:0:
320,192,107355,1,0,0:0:0:0:
192,192,107449,1,0,0:0:0:0:
448,192,107543,1,0,0:0:0:0:
320,192,107543,1,0,0:0:0:0:
192,192,107636,1,0,0:0:0:0:
64,192,107636,1,0,0:0:0:0:
448,192,107824,128,0,108105:0:0:0:0:
320,192,107824,128,0,108105:0:0:0:0:
192,192,108105,1,0,0:0:0:0:
64,192,108105,1,0,0:0:0:0:
448,192,108293,1,0,0:0:0:0:
320,192,108293,1,0,0:0:0:0:
192,192,108386,1,0,0:0:0:0:
64,192,108386,1,0,0:0:0:0:
448,192,108574,1,0,0:0:0:0:
320,192,108574,1,0,0:0:0:0:
64,192,108855,128,0,109043:0:0:0:0:
448,192,109043,1,0,0:0:0:0:
320,192,109043,1,0,0:0:0:0:
192,192,109136,1,0,0:0:0:0:
448,192,109230,1,0,0:0:0:0:
192,192,109324,1,0,0:0:0:0:
320,192,109418,1,0,0:0:0:0:
64,192,109418,1,0,0:0:0:0:
448,192,109511,1,0,0:0:0:0:
64,192,109605,1,0,0:0:0:0:
192,192,109699,1,0,0:0:0:0:
320,192,109793,1,0,0:0:0:0:
64,192,109793,1,0,0:0:0:0:
448,192,109886,1,0,0:0:0:0:
192,192,109980,1,0,0:0:0:0:
320,192,110074,1,0,0:0:0:0:
448,192,110168,1,0,0:0:0:0:
192,192,110168,1,0,0:0:0:0:
64,192,110261,1,0,0:0:0:0:
320,192,110355,1,0,0:0:0:0:
192,192,110449,1,0,0:0:0:0:
320,192,110543,1,0,0:0:0:0:
64,192,110543,1,0,0:0:0:0:
448,192,110636,1,0,0:0:0:0:
192,192,110730,1,0,0:0:0:0:
448,192,110824,1,0,0:0:0:0:
320,192,110918,1,0,0:0:0:0:
192,192,110918,1,0,0:0:0:0:
64,192,111011,1,0,0:0:0:0:
320,192,111105,1,0,0:0:0:0:
448,192,111199,1,0,0:0:0:0:
320,192,111293,1,0,0:0:0:0:
192,192,111293,1,0,0:0:0:0:
64,192,111386,1,0,0:0:0:0:
448,192,111480,1,0,0:0:0:0:
192,192,111574,1,0,0:0:0:0:
320,192,111668,1,0,0:0:0:0:
64,192,111668,1,0,0:0:0:0:
448,192,111761,1,0,0:0:0:0:
192,192,111855,1,0,0:0:0:0:
320,192,111949,1,0,0:0:0:0:
448,192,112043,1,0,0:0:0:0:
64,192,112043,1,0,0:0:0:0:
192,192,112136,1,0,0:0:0:0:
320,192,112230,1,0,0:0:0:0:
192,192,112324,1,0,0:0:0:0:
320,192,112418,1,0,0:0:0:0:
64,192,112418,1,0,0:0:0:0:
448,192,112511,1,0,0:0:0:0:
64,192,112605,1,0,0:0:0:0:
192,192,112699,1,0,0:0:0:0:
320,192,112793,1,0,0:0:0:0:
64,192,112793,1,0,0:0:0:0:
448,192,112886,1,0,0:0:0:0:
192,192,112980,1,0,0:0:0:0:
320,192,113074,1,0,0:0:0:0:
448,192,113168,1,0,0:0:0:0:
192,192,113168,1,0,0:0:0:0:
64,192,113261,1,0,0:0:0:0:
320,192,113355,1,0,0:0:0:0:
192,192,113449,1,0,0:0:0:0:
320,192,113543,1,0,0:0:0:0:
64,192,113543,1,0,0:0:0:0:
448,192,113636,1,0,0:0:0:0:
192,192,113730,1,0,0:0:0:0:
448,192,113824,1,0,0:0:0:0:
320,192,113918,1,0,0:0:0:0:
192,192,113918,1,0,0:0:0:0:
64,192,114011,1,0,0:0:0:0:
320,192,114105,1,0,0:0:0:0:
448,192,114199,1,0,0:0:0:0:
320,192,114293,1,0,0:0:0:0:
192,192,114293,1,0,0:0:0:0:
64,192,114386,1,0,0:0:0:0:
448,192,114480,1,0,0:0:0:0:
192,192,114574,1,0,0:0:0:0:
320,192,114668,1,0,0:0:0:0:
64,192,114668,1,0,0:0:0:0:
448,192,114761,1,0,0:0:0:0:
192,192,114855,1,0,0:0:0:0:
320,192,114949,1,0,0:0:0:0:
448,192,115043,1,0,0:0:0:0:
192,192,115043,1,0,0:0:0:0:
64,192,115136,1,0,0:0:0:0:
320,192,115230,1,0,0:0:0:0:
64,192,115324,1,0,0:0:0:0:
320,192,115418,1,0,0:0:0:0:
192,192,115418,1,0,0:0:0:0:
448,192,115511,1,0,0:0:0:0:
192,192,115605,1,0,0:0:0:0:
64,192,115699,1,0,0:0:0:0:
320,192,115793,1,0,0:0:0:0:
192,192,115793,1,0,0:0:0:0:
448,192,115886,1,0,0:0:0:0:
64,192,115980,1,0,0:0:0:0:
320,192,116074,1,0,0:0:0:0:
448,192,116168,1,0,0:0:0:0:
192,192,116168,1,0,0:0:0:0:
64,192,116261,1,0,0:0:0:0:
320,192,116355,1,0,0:0:0:0:
192,192,116449,1,0,0:0:0:0:
448,192,116543,1,0,0:0:0:0:
64,192,116543,1,0,0:0:0:0:
320,192,116636,1,0,0:0:0:0:
192,192,116730,1,0,0:0:0:0:
320,192,116824,1,0,0:0:0:0:
448,192,116918,1,0,0:0:0:0:
192,192,116918,1,0,0:0:0:0:
64,192,117011,1,0,0:0:0:0:
448,192,117105,1,0,0:0:0:0:
320,192,117199,1,0,0:0:0:0:
448,192,117293,1,0,0:0:0:0:
192,192,117293,1,0,0:0:0:0:
64,192,117386,1,0,0:0:0:0:
320,192,117480,1,0,0:0:0:0:
192,192,117574,1,0,0:0:0:0:
320,192,117668,1,0,0:0:0:0:
64,192,117668,1,0,0:0:0:0:
448,192,117761,1,0,0:0:0:0:
192,192,117855,1,0,0:0:0:0:
320,192,117949,1,0,0:0:0:0:
448,192,118043,1,0,0:0:0:0:
64,192,118043,1,0,0:0:0:0:
192,192,118136,1,0,0:0:0:0:
320,192,118230,1,0,0:0:0:0:
192,192,118324,1,0,0:0:0:0:
448,192,118418,1,0,0:0:0:0:
64,192,118418,1,0,0:0:0:0:
320,192,118511,1,0,0:0:0:0:
64,192,118605,1,0,0:0:0:0:
192,192,118699,1,0,0:0:0:0:
320,192,118793,1,0,0:0:0:0:
64,192,118793,1,0,0:0:0:0:
448,192,118886,1,0,0:0:0:0:
192,192,118980,1,0,0:0:0:0:
320,192,119074,1,0,0:0:0:0:
448,192,119168,1,0,0:0:0:0:
192,192,119168,1,0,0:0:0:0:
64,192,119261,1,0,0:0:0:0:
320,192,119355,1,0,0:0:0:0:
192,192,119449,1,0,0:0:0:0:
320,192,119543,1,0,0:0:0:0:
64,192,119543,1,0,0:0:0:0:
448,192,119636,1,0,0:0:0:0:
64,192,119730,1,0,0:0:0:0:
320,192,119824,1,0,0:0:0:0:
192,192,119824,1,0,0:0:0:0:
192,192,120105,1,0,0:0:0:0:
64,192,120105,1,0,0:0:0:0:
448,192,120293,1,0,0:0:0:0:
320,192,120293,1,0,0:0:0:0:
192,192,120668,1,0,0:0:0:0:
64,192,120668,1,0,0:0:0:0:
448,192,120761,1,0,0:0:0:0:
320,192,120761,1,0,0:0:0:0:
64,192,120855,128,0,121043:0:0:0:0:
448,192,121043,1,0,0:0:0:0:
320,192,121043,1,0,0:0:0:0:
192,192,121043,1,0,0:0:0:0:
448,192,121230,1,0,0:0:0:0:
320,192,121261,1,0,0:0:0:0:
192,192,121324,1,0,0:0:0:0:
64,192,121324,1,0,0:0:0:0:
448,192,121511,1,0,0:0:0:0:
320,192,121543,1,0,0:0:0:0:
192,192,121605,1,0,0:0:0:0:
64,192,121605,1,0,0:0:0:0:
448,192,121793,1,0,0:0:0:0:
320,192,121793,1,0,0:0:0:0:
64,192,121980,1,0,0:0:0:0:
192,192,122011,1,0,0:0:0:0:
448,192,122074,1,0,0:0:0:0:
320,192,122074,1,0,0:0:0:0:
64,192,122261,1,0,0:0:0:0:
192,192,122293,1,0,0:0:0:0:
448,192,122355,1,0,0:0:0:0:
320,192,122355,1,0,0:0:0:0:
192,192,122543,1,0,0:0:0:0:
64,192,122543,1,0,0:0:0:0:
448,192,122730,1,0,0:0:0:0:
320,192,122761,1,0,0:0:0:0:
192,192,122824,1,0,0:0:0:0:
64,192,122824,1,0,0:0:0:0:
448,192,123011,1,0,0:0:0:0:
320,192,123043,1,0,0:0:0:0:
192,192,123105,1,0,0:0:0:0:
64,192,123105,1,0,0:0:0:0:
448,192,123293,1,0,0:0:0:0:
320,192,123293,1,0,0:0:0:0:
64,192,123480,1,0,0:0:0:0:
192,192,123511,1,0,0:0:0:0:
448,192,123574,1,0,0:0:0:0:
320,192,123574,1,0,0:0:0:0:
64,192,123761,1,0,0:0:0:0:
192,192,123793,1,0,0:0:0:0:
320,192,123824,1,0,0:0:0:0:
448,192,123855,1,0,0:0:0:0:
192,192,124043,1,0,0:0:0:0:
64,192,124043,1,0,0:0:0:0:
448,192,124230,1,0,0:0:0:0:
320,192,124261,1,0,0:0:0:0:
192,192,124324,1,0,0:0:0:0:
64,192,124324,1,0,0:0:0:0:
448,192,124511,1,0,0:0:0:0:
320,192,124543,1,0,0:0:0:0:
192,192,124605,1,0,0:0:0:0:
64,192,124605,1,0,0:0:0:0:
448,192,124793,1,0,0:0:0:0:
320,192,124793,1,0,0:0:0:0:
64,192,124980,1,0,0:0:0:0:
192,192,125011,1,0,0:0:0:0:
448,192,125074,1,0,0:0:0:0:
320,192,125074,1,0,0:0:0:0:
64,192,125261,1,0,0:0:0:0:
192,192,125293,1,0,0:0:0:0:
448,192,125355,1,0,0:0:0:0:
320,192,125355,1,0,0:0:0:0:
192,192,125543,1,0,0:0:0:0:
64,192,125543,1,0,0:0:0:0:
448,192,125730,1,0,0:0:0:0:
320,192,125761,1,0,0:0:0:0:
192,192,125824,1,0,0:0:0:0:
64,192,125824,1,0,0:0:0:0:
448,192,126011,1,0,0:0:0:0:
320,192,126043,1,0,0:0:0:0:
192,192,126105,1,0,0:0:0:0:
64,192,126105,1,0,0:0:0:0:
448,192,126293,1,0,0:0:0:0:
320,192,126293,1,0,0:0:0:0:
64,192,126480,1,0,0:0:0:0:
192,192,126511,1,0,0:0:0:0:
448,192,126574,1,0,0:0:0:0:
320,192,126574,1,0,0:0:0:0:
64,192,126761,1,0,0:0:0:0:
192,192,126793,1,0,0:0:0:0:
320,192,126824,1,0,0:0:0:0:
448,192,126855,128,0,127043:0:0:0:0:
192,192,127043,1,0,0:0:0:0:
64,192,127043,1,0,0:0:0:0:
448,192,127230,1,0,0:0:0:0:
320,192,127261,1,0,0:0:0:0:
192,192,127324,1,0,0:0:0:0:
64,192,127324,1,0,0:0:0:0:
448,192,127511,1,0,0:0:0:0:
320,192,127543,1,0,0:0:0:0:
192,192,127605,1,0,0:0:0:0:
64,192,127605,1,0,0:0:0:0:
448,192,127793,1,0,0:0:0:0:
320,192,127793,1,0,0:0:0:0:
64,192,127980,1,0,0:0:0:0:
192,192,128011,1,0,0:0:0:0:
448,192,128074,1,0,0:0:0:0:
320,192,128074,1,0,0:0:0:0:
64,192,128261,1,0,0:0:0:0:
192,192,128293,1,0,0:0:0:0:
448,192,128355,1,0,0:0:0:0:
320,192,128355,1,0,0:0:0:0:
192,192,128543,1,0,0:0:0:0:
64,192,128543,1,0,0:0:0:0:
448,192,128730,1,0,0:0:0:0:
320,192,128761,1,0,0:0:0:0:
192,192,128824,1,0,0:0:0:0:
64,192,128824,1,0,0:0:0:0:
448,192,129011,1,0,0:0:0:0:
320,192,129043,1,0,0:0:0:0:
192,192,129105,1,0,0:0:0:0:
64,192,129105,1,0,0:0:0:0:
448,192,129293,1,0,0:0:0:0:
320,192,129293,1,0,0:0:0:0:
64,192,129480,1,0,0:0:0:0:
192,192,129511,1,0,0:0:0:0:
448,192,129574,1,0,0:0:0:0:
320,192,129574,1,0,0:0:0:0:
64,192,129761,1,0,0:0:0:0:
192,192,129793,1,0,0:0:0:0:
320,192,129824,1,0,0:0:0:0:
448,192,129855,1,0,0:0:0:0:
192,192,130043,1,0,0:0:0:0:
64,192,130043,1,0,0:0:0:0:
448,192,130230,1,0,0:0:0:0:
320,192,130261,1,0,0:0:0:0:
192,192,130324,1,0,0:0:0:0:
64,192,130324,1,0,0:0:0:0:
448,192,130511,1,0,0:0:0:0:
320,192,130543,1,0,0:0:0:0:
192,192,130605,1,0,0:0:0:0:
64,192,130605,1,0,0:0:0:0:
448,192,130793,1,0,0:0:0:0:
320,192,130793,1,0,0:0:0:0:
64,192,130980,1,0,0:0:0:0:
192,192,131011,1,0,0:0:0:0:
448,192,131074,1,0,0:0:0:0:
320,192,131074,1,0,0:0:0:0:
64,192,131261,1,0,0:0:0:0:
192,192,131293,1,0,0:0:0:0:
448,192,131355,1,0,0:0:0:0:
320,192,131355,1,0,0:0:0:0:
64,192,131543,1,0,0:0:0:0:
320,192,131824,1,0,0:0:0:0:
192,192,132105,1,0,0:0:0:0:
448,192,132293,128,0,132668:0:0:0:0:
192,192,132668,1,0,0:0:0:0:
64,192,132668,1,0,0:0:0:0:
192,192,132855,1,0,0:0:0:0:
64,192,132855,1,0,0:0:0:0:
448,192,133043,1,0,0:0:0:0:
320,192,133043,1,0,0:0:0:0:
64,192,133043,1,0,0:0:0:0:
192,192,133136,1,0,0:0:0:0:
448,192,133230,1,0,0:0:0:0:
320,192,133324,1,0,0:0:0:0:
448,192,133418,1,0,0:0:0:0:
192,192,133418,1,0,0:0:0:0:
64,192,133511,1,0,0:0:0:0:
192,192,133605,1,0,0:0:0:0:
64,192,133699,1,0,0:0:0:0:
320,192,133793,1,0,0:0:0:0:
192,192,133793,1,0,0:0:0:0:
448,192,133886,1,0,0:0:0:0:
64,192,133980,1,0,0:0:0:0:
192,192,134074,1,0,0:0:0:0:
320,192,134168,1,0,0:0:0:0:
64,192,134168,1,0,0:0:0:0:
448,192,134261,1,0,0:0:0:0:
320,192,134355,1,0,0:0:0:0:
448,192,134449,1,0,0:0:0:0:
320,192,134543,1,0,0:0:0:0:
192,192,134543,1,0,0:0:0:0:
64,192,134636,1,0,0:0:0:0:
448,192,134730,1,0,0:0:0:0:
320,192,134824,1,0,0:0:0:0:
448,192,134918,1,0,0:0:0:0:
64,192,134918,1,0,0:0:0:0:
192,192,135011,1,0,0:0:0:0:
64,192,135105,1,0,0:0:0:0:
192,192,135199,1,0,0:0:0:0:
320,192,135293,1,0,0:0:0:0:
64,192,135293,1,0,0:0:0:0:
448,192,135386,1,0,0:0:0:0:
192,192,135480,1,0,0:0:0:0:
320,192,135574,1,0,0:0:0:0:
448,192,135668,1,0,0:0:0:0:
192,192,135668,1,0,0:0:0:0:
64,192,135761,1,0,0:0:0:0:
320,192,135855,1,0,0:0:0:0:
192,192,135949,1,0,0:0:0:0:
448,192,136043,1,0,0:0:0:0:
64,192,136043,1,0,0:0:0:0:
320,192,136136,1,0,0:0:0:0:
64,192,136230,1,0,0:0:0:0:
192,192,136324,1,0,0:0:0:0:
320,192,136418,1,0,0:0:0:0:
64,192,136418,1,0,0:0:0:0:
448,192,136511,1,0,0:0:0:0:
320,192,136605,1,0,0:0:0:0:
448,192,136699,1,0,0:0:0:0:
320,192,136793,1,0,0:0:0:0:
192,192,136793,1,0,0:0:0:0:
64,192,136886,1,0,0:0:0:0:
448,192,136980,1,0,0:0:0:0:
320,192,137074,1,0,0:0:0:0:
448,192,137168,1,0,0:0:0:0:
192,192,137168,1,0,0:0:0:0:
64,192,137261,1,0,0:0:0:0:
192,192,137355,1,0,0:0:0:0:
64,192,137449,1,0,0:0:0:0:
320,192,137543,1,0,0:0:0:0:
192,192,137543,1,0,0:0:0:0:
448,192,137636,1,0,0:0:0:0:
64,192,137730,1,0,0:0:0:0:
192,192,137824,1,0,0:0:0:0:
448,192,137918,1,0,0:0:0:0:
64,192,137918,1,0,0:0:0:0:
320,192,138011,1,0,0:0:0:0:
448,192,138105,1,0,0:0:0:0:
320,192,138199,1,0,0:0:0:0:
448,192,138293,1,0,0:0:0:0:
192,192,138293,1,0,0:0:0:0:
64,192,138386,1,0,0:0:0:0:
320,192,138480,1,0,0:0:0:0:
192,192,138574,1,0,0:0:0:0:
320,192,138668,1,0,0:0:0:0:
64,192,138668,1,0,0:0:0:0:
448,192,138761,1,0,0:0:0:0:
192,192,138855,1,0,0:0:0:0:
320,192,138949,1,0,0:0:0:0:
448,192,139043,1,0,0:0:0:0:
192,192,139043,1,0,0:0:0:0:
64,192,139136,1,0,0:0:0:0:
320,192,139230,1,0,0:0:0:0:
448,192,139324,1,0,0:0:0:0:
320,192,139418,1,0,0:0:0:0:
64,192,139418,1,0,0:0:0:0:
192,192,139511,1,0,0:0:0:0:
64,192,139605,1,0,0:0:0:0:
192,192,139699,1,0,0:0:0:0:
448,192,139793,1,0,0:0:0:0:
64,192,139793,1,0,0:0:0:0:
320,192,139886,1,0,0:0:0:0:
192,192,139980,1,0,0:0:0:0:
64,192,140074,1,0,0:0:0:0:
448,192,140168,1,0,0:0:0:0:
192,192,140168,1,0,0:0:0:0:
320,192,140261,1,0,0:0:0:0:
448,192,140355,1,0,0:0:0:0:
320,192,140449,1,0,0:0:0:0:
448,192,140543,1,0,0:0:0:0:
64,192,140543,1,0,0:0:0:0:
192,192,140636,1,0,0:0:0:0:
320,192,140730,1,0,0:0:0:0:
448,192,140824,1,0,0:0:0:0:
320,192,140918,1,0,0:0:0:0:
192,192,140918,1,0,0:0:0:0:
64,192,141011,1,0,0:0:0:0:
192,192,141105,1,0,0:0:0:0:
64,192,141199,1,0,0:0:0:0:
320,192,141293,1,0,0:0:0:0:
192,192,141293,1,0,0:0:0:0:
448,192,141386,1,0,0:0:0:0:
64,192,141480,1,0,0:0:0:0:
320,192,141574,1,0,0:0:0:0:
448,192,141668,1,0,0:0:0:0:
192,192,141668,1,0,0:0:0:0:
64,192,141761,1,0,0:0:0:0:
320,192,141855,1,0,0:0:0:0:
192,192,141949,1,0,0:0:0:0:
320,192,142043,1,0,0:0:0:0:
64,192,142043,1,0,0:0:0:0:
448,192,142136,1,0,0:0:0:0:
192,192,142230,1,0,0:0:0:0:
64,192,142324,1,0,0:0:0:0:
448,192,142418,1,0,0:0:0:0:
192,192,142418,1,0,0:0:0:0:
320,192,142511,1,0,0:0:0:0:
448,192,142605,1,0,0:0:0:0:
320,192,142699,1,0,0:0:0:0:
448,192,142793,1,0,0:0:0:0:
64,192,142793,1,0,0:0:0:0:
192,192,142886,1,0,0:0:0:0:
320,192,142980,1,0,0:0:0:0:
448,192,143074,1,0,0:0:0:0:
320,192,143168,1,0,0:0:0:0:
64,192,143168,1,0,0:0:0:0:
192,192,143261,1,0,0:0:0:0:
64,192,143355,1,0,0:0:0:0:
192,192,143449,1,0,0:0:0:0:
448,192,143543,1,0,0:0:0:0:
64,192,143543,1,0,0:0:0:0:
320,192,143636,1,0,0:0:0:0:
192,192,143730,1,0,0:0:0:0:
64,192,143824,1,0,0:0:0:0:
320,192,143918,1,0,0:0:0:0:
192,192,143918,1,0,0:0:0:0:
448,192,144011,1,0,0:0:0:0:
320,192,144105,1,0,0:0:0:0:
448,192,144199,1,0,0:0:0:0:
320,192,144293,1,0,0:0:0:0:
192,192,144293,1,0,0:0:0:0:
64,192,144386,1,0,0:0:0:0:
192,192,144480,1,0,0:0:0:0:
64,192,144574,1,0,0:0:0:0:
320,192,144668,1,0,0:0:0:0:
192,192,144668,1,0,0:0:0:0:
448,192,144761,1,0,0:0:0:0:
320,192,144855,1,0,0:0:0:0:
448,192,144949,1,0,0:0:0:0:
320,192,145043,1,0,0:0:0:0:
64,192,145043,1,0,0:0:0:0:
192,192,145136,1,0,0:0:0:0:
448,192,145230,1,0,0:0:0:0:
320,192,145324,1,0,0:0:0:0:
448,192,145418,1,0,0:0:0:0:
192,192,145418,1,0,0:0:0:0:
64,192,145511,1,0,0:0:0:0:
192,192,145605,1,0,0:0:0:0:
64,192,145699,1,0,0:0:0:0:
320,192,145793,1,0,0:0:0:0:
192,192,145793,1,0,0:0:0:0:
448,192,145886,1,0,0:0:0:0:
64,192,145980,1,0,0:0:0:0:
192,192,146074,1,0,0:0:0:0:
320,192,146168,1,0,0:0:0:0:
64,192,146168,1,0,0:0:0:0:
448,192,146261,1,0,0:0:0:0:
320,192,146355,1,0,0:0:0:0:
448,192,146449,1,0,0:0:0:0:
320,192,146543,1,0,0:0:0:0:
192,192,146543,1,0,0:0:0:0:
64,192,146636,1,0,0:0:0:0:
448,192,146730,1,0,0:0:0:0:
320,192,146824,1,0,0:0:0:0:
448,192,146918,1,0,0:0:0:0:
64,192,146918,1,0,0:0:0:0:
192,192,147011,1,0,0:0:0:0:
64,192,147105,1,0,0:0:0:0:
192,192,147199,1,0,0:0:0:0:
320,192,147293,1,0,0:0:0:0:
64,192,147293,1,0,0:0:0:0:
448,192,147386,1,0,0:0:0:0:
192,192,147480,1,0,0:0:0:0:
320,192,147574,1,0,0:0:0:0:
448,192,147668,1,0,0:0:0:0:
192,192,147668,1,0,0:0:0:0:
64,192,147761,1,0,0:0:0:0:
320,192,147855,1,0,0:0:0:0:
192,192,147949,1,0,0:0:0:0:
448,192,148043,1,0,0:0:0:0:
64,192,148043,1,0,0:0:0:0:
320,192,148136,1,0,0:0:0:0:
64,192,148230,1,0,0:0:0:0:
192,192,148324,1,0,0:0:0:0:
320,192,148418,1,0,0:0:0:0:
64,192,148418,1,0,0:0:0:0:
448,192,148511,1,0,0:0:0:0:
320,192,148605,1,0,0:0:0:0:
448,192,148699,1,0,0:0:0:0:
320,192,148793,1,0,0:0:0:0:
192,192,148793,1,0,0:0:0:0:
64,192,148886,1,0,0:0:0:0:
448,192,148980,1,0,0:0:0:0:
320,192,149074,1,0,0:0:0:0:
448,192,149168,1,0,0:0:0:0:
192,192,149168,1,0,0:0:0:0:
64,192,149261,1,0,0:0:0:0:
192,192,149355,1,0,0:0:0:0:
64,192,149449,1,0,0:0:0:0:
320,192,149543,1,0,0:0:0:0:
192,192,149543,1,0,0:0:0:0:
448,192,149636,1,0,0:0:0:0:
64,192,149730,1,0,0:0:0:0:
192,192,149824,1,0,0:0:0:0:
448,192,149918,1,0,0:0:0:0:
64,192,149918,1,0,0:0:0:0:
320,192,150011,1,0,0:0:0:0:
448,192,150105,1,0,0:0:0:0:
320,192,150199,1,0,0:0:0:0:
448,192,150293,1,0,0:0:0:0:
192,192,150293,1,0,0:0:0:0:
64,192,150386,1,0,0:0:0:0:
320,192,150480,1,0,0:0:0:0:
192,192,150574,1,0,0:0:0:0:
320,192,150668,1,0,0:0:0:0:
64,192,150668,1,0,0:0:0:0:
448,192,150761,1,0,0:0:0:0:
192,192,150855,1,0,0:0:0:0:
320,192,150949,1,0,0:0:0:0:
448,192,151043,1,0,0:0:0:0:
192,192,151043,1,0,0:0:0:0:
64,192,151136,1,0,0:0:0:0:
320,192,151230,1,0,0:0:0:0:
448,192,151324,1,0,0:0:0:0:
320,192,151418,1,0,0:0:0:0:
64,192,151418,1,0,0:0:0:0:
192,192,151511,1,0,0:0:0:0:
64,192,151605,1,0,0:0:0:0:
192,192,151699,1,0,0:0:0:0:
448,192,151793,1,0,0:0:0:0:
64,192,151793,1,0,0:0:0:0:
320,192,151886,1,0,0:0:0:0:
192,192,151980,1,0,0:0:0:0:
64,192,152074,1,0,0:0:0:0:
448,192,152168,1,0,0:0:0:0:
192,192,152168,1,0,0:0:0:0:
320,192,152261,1,0,0:0:0:0:
448,192,152355,1,0,0:0:0:0:
320,192,152449,1,0,0:0:0:0:
448,192,152543,1,0,0:0:0:0:
64,192,152543,1,0,0:0:0:0:
192,192,152636,1,0,0:0:0:0:
320,192,152730,1,0,0:0:0:0:
448,192,152824,1,0,0:0:0:0:
320,192,152918,1,0,0:0:0:0:
192,192,152918,1,0,0:0:0:0:
64,192,153011,1,0,0:0:0:0:
192,192,153105,1,0,0:0:0:0:
64,192,153199,1,0,0:0:0:0:
320,192,153293,1,0,0:0:0:0:
192,192,153293,1,0,0:0:0:0:
448,192,153386,1,0,0:0:0:0:
64,192,153480,1,0,0:0:0:0:
320,192,153574,1,0,0:0:0:0:
448,192,153668,1,0,0:0:0:0:
192,192,153668,1,0,0:0:0:0:
64,192,153761,1,0,0:0:0:0:
320,192,153855,1,0,0:0:0:0:
192,192,153949,1,0,0:0:0:0:
320,192,154043,1,0,0:0:0:0:
64,192,154043,1,0,0:0:0:0:
448,192,154136,1,0,0:0:0:0:
192,192,154230,1,0,0:0:0:0:
64,192,154324,1,0,0:0:0:0:
448,192,154418,1,0,0:0:0:0:
192,192,154418,1,0,0:0:0:0:
320,192,154511,1,0,0:0:0:0:
448,192,154605,1,0,0:0:0:0:
320,192,154699,1,0,0:0:0:0:
448,192,154793,1,0,0:0:0:0:
64,192,154793,1,0,0:0:0:0:
192,192,154886,1,0,0:0:0:0:
320,192,154980,1,0,0:0:0:0:
448,192,155074,1,0,0:0:0:0:
320,192,155168,1,0,0:0:0:0:
64,192,155168,1,0,0:0:0:0:
192,192,155261,1,0,0:0:0:0:
64,192,155355,1,0,0:0:0:0:
192,192,155449,1,0,0:0:0:0:
448,192,155543,1,0,0:0:0:0:
192,192,155730,1,0,0:0:0:0:
64,192,155824,1,0,0:0:0:0:
320,192,155918,1,0,0:0:0:0:
448,192,156011,1,0,0:0:0:0:
320,192,156105,1,0,0:0:0:0:
448,192,156199,1,0,0:0:0:0:
320,192,156480,1,0,0:0:0:0:
192,192,156574,1,0,0:0:0:0:
448,192,156668,128,0,156855:0:0:0:0:
320,192,156855,1,0,0:0:0:0:
448,192,157043,1,0,0:0:0:0:
64,192,157043,1,0,0:0:0:0:
320,192,157168,1,0,0:0:0:0:
192,192,157230,1,0,0:0:0:0:
448,192,157418,1,0,0:0:0:0:
64,192,157418,1,0,0:0:0:0:
320,192,157543,1,0,0:0:0:0:
192,192,157605,1,0,0:0:0:0:
448,192,157793,1,0,0:0:0:0:
64,192,157793,1,0,0:0:0:0:
320,192,157918,1,0,0:0:0:0:
192,192,157980,1,0,0:0:0:0:
448,192,158168,1,0,0:0:0:0:
64,192,158168,1,0,0:0:0:0:
320,192,158293,1,0,0:0:0:0:
192,192,158355,1,0,0:0:0:0:
448,192,158543,1,0,0:0:0:0:
64,192,158543,1,0,0:0:0:0:
320,192,158668,1,0,0:0:0:0:
192,192,158730,1,0,0:0:0:0:
448,192,158918,1,0,0:0:0:0:
64,192,158918,1,0,0:0:0:0:
320,192,159043,1,0,0:0:0:0:
192,192,159105,1,0,0:0:0:0:
448,192,159293,1,0,0:0:0:0:
64,192,159293,1,0,0:0:0:0:
320,192,159418,1,0,0:0:0:0:
192,192,159480,1,0,0:0:0:0:
320,192,159668,128,0,160043:0:0:0:0:
448,192,160043,1,0,0:0:0:0:
64,192,160043,1,0,0:0:0:0:
192,192,160168,1,0,0:0:0:0:
320,192,160230,1,0,0:0:0:0:
448,192,160418,1,0,0:0:0:0:
64,192,160418,1,0,0:0:0:0:
192,192,160543,1,0,0:0:0:0:
320,192,160605,1,0,0:0:0:0:
448,192,160793,1,0,0:0:0:0:
64,192,160793,1,0,0:0:0:0:
192,192,160918,1,0,0:0:0:0:
320,192,160980,1,0,0:0:0:0:
448,192,161168,1,0,0:0:0:0:
64,192,161168,1,0,0:0:0:0:
192,192,161293,1,0,0:0:0:0:
320,192,161355,1,0,0:0:0:0:
448,192,161543,1,0,0:0:0:0:
64,192,161543,1,0,0:0:0:0:
192,192,161668,1,0,0:0:0:0:
320,192,161730,1,0,0:0:0:0:
448,192,161918,1,0,0:0:0:0:
64,192,161918,1,0,0:0:0:0:
192,192,162043,1,0,0:0:0:0:
320,192,162105,1,0,0:0:0:0:
448,192,162293,1,0,0:0:0:0:
64,192,162293,1,0,0:0:0:0:
192,192,162418,1,0,0:0:0:0:
320,192,162480,1,0,0:0:0:0:
192,192,162668,128,0,163043:0:0:0:0:
448,192,163043,1,0,0:0:0:0:
64,192,163043,1,0,0:0:0:0:
320,192,163168,1,0,0:0:0:0:
192,192,163230,1,0,0:0:0:0:
448,192,163418,1,0,0:0:0:0:
64,192,163418,1,0,0:0:0:0:
320,192,163543,1,0,0:0:0:0:
192,192,163605,1,0,0:0:0:0:
448,192,163793,1,0,0:0:0:0:
64,192,163793,1,0,0:0:0:0:
320,192,163918,1,0,0:0:0:0:
192,192,163980,1,0,0:0:0:0:
448,192,164168,1,0,0:0:0:0:
64,192,164168,1,0,0:0:0:0:
320,192,164293,1,0,0:0:0:0:
192,192,164355,1,0,0:0:0:0:
448,192,164543,1,0,0:0:0:0:
64,192,164543,1,0,0:0:0:0:
320,192,164668,1,0,0:0:0:0:
192,192,164730,1,0,0:0:0:0:
448,192,164918,1,0,0:0:0:0:
64,192,164918,1,0,0:0:0:0:
320,192,165043,1,0,0:0:0:0:
192,192,165105,1,0,0:0:0:0:
448,192,165293,1,0,0:0:0:0:
64,192,165293,1,0,0:0:0:0:
320,192,165418,1,0,0:0:0:0:
192,192,165480,1,0,0:0:0:0:
320,192,165668,128,0,166043:0:0:0:0:
448,192,166043,1,0,0:0:0:0:
64,192,166043,1,0,0:0:0:0:
192,192,166168,1,0,0:0:0:0:
320,192,166230,1,0,0:0:0:0:
448,192,166418,1,0,0:0:0:0:
64,192,166418,1,0,0:0:0:0:
192,192,166543,1,0,0:0:0:0:
320,192,166605,1,0,0:0:0:0:
448,192,166793,1,0,0:0:0:0:
64,192,166793,1,0,0:0:0:0:
192,192,166918,1,0,0:0:0:0:
320,192,166980,1,0,0:0:0:0:
448,192,167168,1,0,0:0:0:0:
64,192,167168,1,0,0:0:0:0:
192,192,167293,1,0,0:0:0:0:
320,192,167355,1,0,0:0:0:0:
448,192,167543,1,0,0:0:0:0:
64,192,167543,1,0,0:0:0:0:
192,192,167668,1,0,0:0:0:0:
320,192,167730,1,0,0:0:0:0:
448,192,167918,1,0,0:0:0:0:
64,192,167918,1,0,0:0:0:0:
192,192,168043,1,0,0:0:0:0:
320,192,168105,1,0,0:0:0:0:
448,192,168293,1,0,0:0:0:0:
64,192,168293,1,0,0:0:0:0:
192,192,168418,1,0,0:0:0:0:
320,192,168480,1,0,0:0:0:0:
192,192,168668,128,0,169043:0:0:0:0:
448,192,169043,1,0,0:0:0:0:
64,192,169043,1,0,0:0:0:0:
320,192,169168,1,0,0:0:0:0:
192,192,169230,1,0,0:0:0:0:
448,192,169418,1,0,0:0:0:0:
64,192,169418,1,0,0:0:0:0:
320,192,169543,1,0,0:0:0:0:
192,192,169605,1,0,0:0:0:0:
448,192,169793,1,0,0:0:0:0:
64,192,169793,1,0,0:0:0:0:
320,192,169918,1,0,0:0:0:0:
192,192,169980,1,0,0:0:0:0:
448,192,170168,1,0,0:0:0:0:
64,192,170168,1,0,0:0:0:0:
320,192,170293,1,0,0:0:0:0:
192,192,170355,1,0,0:0:0:0:
448,192,170543,1,0,0:0:0:0:
64,192,170543,1,0,0:0:0:0:
320,192,170668,1,0,0:0:0:0:
192,192,170730,1,0,0:0:0:0:
448,192,170918,1,0,0:0:0:0:
64,192,170918,1,0,0:0:0:0:
320,192,171043,1,0,0:0:0:0:
192,192,171105,1,0,0:0:0:0:
448,192,171293,1,0,0:0:0:0:
64,192,171293,1,0,0:0:0:0:
320,192,171418,1,0,0:0:0:0:
192,192,171480,1,0,0:0:0:0:
320,192,171668,128,0,172043:0:0:0:0:
448,192,172043,1,0,0:0:0:0:
64,192,172043,1,0,0:0:0:0:
192,192,172168,1,0,0:0:0:0:
320,192,172230,1,0,0:0:0:0:
448,192,172418,1,0,0:0:0:0:
64,192,172418,1,0,0:0:0:0:
192,192,172543,1,0,0:0:0:0:
320,192,172605,1,0,0:0:0:0:
448,192,172793,1,0,0:0:0:0:
64,192,172793,1,0,0:0:0:0:
192,192,172918,1,0,0:0:0:0:
320,192,172980,1,0,0:0:0:0:
448,192,173168,1,0,0:0:0:0:
64,192,173168,1,0,0:0:0:0:
192,192,173293,1,0,0:0:0:0:
320,192,173355,1,0,0:0:0:0:
448,192,173543,1,0,0:0:0:0:
64,192,173543,1,0,0:0:0:0:
192,192,173668,1,0,0:0:0:0:
320,192,173730,1,0,0:0:0:0:
448,192,173918,1,0,0:0:0:0:
64,192,173918,1,0,0:0:0:0:
192,192,174043,1,0,0:0:0:0:
320,192,174105,1,0,0:0:0:0:
448,192,174293,1,0,0:0:0:0:
64,192,174293,1,0,0:0:0:0:
192,192,174418,1,0,0:0:0:0:
320,192,174480,1,0,0:0:0:0:
192,192,174668,128,0,175043:0:0:0:0:
448,192,175043,1,0,0:0:0:0:
64,192,175043,1,0,0:0:0:0:
320,192,175168,1,0,0:0:0:0:
192,192,175230,1,0,0:0:0:0:
448,192,175418,1,0,0:0:0:0:
64,192,175418,1,0,0:0:0:0:
320,192,175543,1,0,0:0:0:0:
192,192,175605,1,0,0:0:0:0:
448,192,175793,1,0,0:0:0:0:
64,192,175793,1,0,0:0:0:0:
320,192,175918,1,0,0:0:0:0:
192,192,175980,1,0,0:0:0:0:
448,192,176168,1,0,0:0:0:0:
64,192,176168,1,0,0:0:0:0:
320,192,176293,1,0,0:0:0:0:
192,192,176355,1,0,0:0:0:0:
448,192,176543,1,0,0:0:0:0:
64,192,176543,1,0,0:0:0:0:
320,192,176668,1,0,0:0:0:0:
192,192,176730,1,0,0:0:0:0:
448,192,176918,1,0,0:0:0:0:
64,192,176918,1,0,0:0:0:0:
320,192,177043,1,0,0:0:0:0:
192,192,177105,1,0,0:0:0:0:
448,192,177293,1,0,0:0:0:0:
64,192,177293,1,0,0:0:0:0:
320,192,177418,1,0,0:0:0:0:
192,192,177480,1,0,0:0:0:0:
320,192,177668,128,0,178043:0:0:0:0:
448,192,178043,1,0,0:0:0:0:
64,192,178043,1,0,0:0:0:0:
192,192,178168,1,0,0:0:0:0:
320,192,178230,1,0,0:0:0:0:
448,192,178418,1,0,0:0:0:0:
64,192,178418,1,0,0:0:0:0:
192,192,178543,1,0,0:0:0:0:
320,192,178605,1,0,0:0:0:0:
448,192,178793,1,0,0:0:0:0:
64,192,178793,1,0,0:0:0:0:
192,192,178918,1,0,0:0:0:0:
320,192,178980,1,0,0:0:0:0:
448,192,179168,1,0,0:0:0:0:
64,192,179168,1,0,0:0:0:0:
192,192,179293,1,0,0:0:0:0:
320,192,179355,1,0,0:0:0:0:
448,192,179543,1,0,0:0:0:0:
64,192,179543,1,0,0:0:0:0:
192,192,179668,1,0,0:0:0:0:
320,192,179730,1,0,0:0:0:0:
448,192,179824,1,0,0:0:0:0:
64,192,179824,1,0,0:0:0:0:
192,192,179941,1,0,0:0:0:0:
320,192,180011,1,0,0:0:0:0:
448,192,180105,1,0,0:0:0:0:
64,192,180105,1,0,0:0:0:0:
448,192,180293,1,0,0:0:0:0:
64,192,180293,1,0,0:0:0:0:
192,192,180410,1,0,0:0:0:0:
320,192,180480,1,0,0:0:0:0:
448,192,180668,128,0,181043:0:0:0:0:
64,192,181043,1,0,0:0:0:0:
