osu file format v14

[General]
AudioFilename: Abyss Of The Darkness (cut).mp3
AudioLeadIn: 0
PreviewTime: 72668
Countdown: 0
SampleSet: Soft
StackLeniency: 0.7
Mode: 3
LetterboxInBreaks: 0
SpecialStyle: 0
WidescreenStoryboard: 0

[Editor]
DistanceSpacing: 0.8
BeatDivisor: 8
GridSize: 16
TimelineZoom: 2.2

[Metadata]
Title:Abyss Of The Darkness (Cut Ver.)
TitleUnicode:Abyss Of The Darkness (Cut Ver.)
Artist:DJ CHUCKY
ArtistUnicode:DJ CHUCKY
Creator:AutotelicBrown
Version:Abyss
Source:
Tags:Quadstream Stamina Autotelic Jacks Ayumu SOFT3 Springtime Osu!mania Free-for-all Tournament 3 O!MIC 4K 2019 osu!mania 4K Indonesia Cup 2019 osu!mania Thailand Tournament 2018 ALL JACK杯 EXTREMEGASM MADDEST CHICK'NDOM GUHROOVY MDSTCD036 Schranz Electronic Instrumental
BeatmapID:1393350
BeatmapSetID:657834

[Difficulty]
HPDrainRate:9
CircleSize:4
OverallDifficulty:8.5
ApproachRate:9
SliderMultiplier:1.4
SliderTickRate:1

[Events]
//Background and Video events
0,0,"bg.jpg",0,0
//Break Periods
//Storyboard Layer 0 (Background)
//Storyboard Layer 1 (Fail)
//Storyboard Layer 2 (Pass)
//Storyboard Layer 3 (Foreground)
//Storyboard Layer 4 (Overlay)
//Storyboard Sound Samples

[TimingPoints]
1043,375,4,2,1,50,1,0
133043,-100,4,2,1,50,0,1
155543,-100,4,2,1,50,0,0

[HitObjects]
64,0,1043,5,0,0:0:0:0:
192,0,1043,1,0,0:0:0:0:
320,0,1043,1,0,0:0:0:0:
448,0,1043,1,0,0:0:0:0:
320,0,1168,1,0,0:0:0:0:
448,0,1168,1,0,0:0:0:0:
64,0,1230,1,0,0:0:0:0:
192,0,1324,1,0,0:0:0:0:
64,0,1418,1,0,0:0:0:0:
192,0,1418,1,0,0:0:0:0:
320,0,1418,1,0,0:0:0:0:
448,0,1418,1,0,0:0:0:0:
320,0,1543,1,0,0:0:0:0:
448,0,1543,1,0,0:0:0:0:
64,0,1605,1,0,0:0:0:0:
192,0,1699,1,0,0:0:0:0:
64,0,1793,1,0,0:0:0:0:
192,0,1793,1,0,0:0:0:0:
320,0,1793,1,0,0:0:0:0:
448,0,1793,1,0,0:0:0:0:
320,0,1918,1,0,0:0:0:0:
448,0,1918,1,0,0:0:0:0:
64,0,1980,1,0,0:0:0:0:
192,0,2074,1,0,0:0:0:0:
64,0,2168,1,0,0:0:0:0:
192,0,2168,1,0,0:0:0:0:
320,0,2168,1,0,0:0:0:0:
448,0,2168,1,0,0:0:0:0:
320,0,2293,1,0,0:0:0:0:
448,0,2293,1,0,0:0:0:0:
64,0,2355,1,0,0:0:0:0:
192,0,2449,1,0,0:0:0:0:
64,0,2543,1,0,0:0:0:0:
192,0,2543,1,0,0:0:0:0:
320,0,2543,1,0,0:0:0:0:
448,0,2543,1,0,0:0:0:0:
320,0,2668,1,0,0:0:0:0:
448,0,2668,1,0,0:0:0:0:
64,0,2730,1,0,0:0:0:0:
192,0,2824,1,0,0:0:0:0:
64,0,2918,1,0,0:0:0:0:
192,0,2918,1,0,0:0:0:0:
320,0,2918,1,0,0:0:0:0:
448,0,2918,1,0,0:0:0:0:
320,0,3043,1,0,0:0:0:0:
448,0,3043,1,0,0:0:0:0:
64,0,3105,1,0,0:0:0:0:
192,0,3199,1,0,0:0:0:0:
64,0,3293,1,0,0:0:0:0:
192,0,3293,1,0,0:0:0:0:
320,0,3293,1,0,0:0:0:0:
448,0,3293,1,0,0:0:0:0:
320,0,3418,1,0,0:0:0:0:
448,0,3418,1,0,0:0:0:0:
64,0,3480,1,0,0:0:0:0:
192,0,3574,1,0,0:0:0:0:
64,0,3668,1,0,0:0:0:0:
448,0,3668,1,0,0:0:0:0:
320,0,3793,1,0,0:0:0:0:
192,0,3871,1,0,0:0:0:0:
448,0,3996,1,0,0:0:0:0:
64,0,4043,1,0,0:0:0:0:
192,0,4043,1,0,0:0:0:0:
320,0,4043,1,0,0:0:0:0:
64,0,4168,1,0,0:0:0:0:
192,0,4168,1,0,0:0:0:0:
448,0,4230,1,0,0:0:0:0:
320,0,4324,1,0,0:0:0:0:
64,0,4418,1,0,0:0:0:0:
192,0,4418,1,0,0:0:0:0:
320,0,4418,1,0,0:0:0:0:
448,0,4418,1,0,0:0:0:0:
64,0,4543,1,0,0:0:0:0:
192,0,4543,1,0,0:0:0:0:
448,0,4605,1,0,0:0:0:0:
320,0,4699,1,0,0:0:0:0:
64,0,4793,1,0,0:0:0:0:
192,0,4793,1,0,0:0:0:0:
320,0,4793,1,0,0:0:0:0:
448,0,4793,1,0,0:0:0:0:
64,0,4918,1,0,0:0:0:0:
192,0,4918,1,0,0:0:0:0:
448,0,4980,1,0,0:0:0:0:
320,0,5074,1,0,0:0:0:0:
64,0,5168,1,0,0:0:0:0:
192,0,5168,1,0,0:0:0:0:
320,0,5168,1,0,0:0:0:0:
448,0,5168,1,0,0:0:0:0:
64,0,5293,1,0,0:0:0:0:
192,0,5293,1,0,0:0:0:0:
448,0,5355,1,0,0:0:0:0:
320,0,5449,1,0,0:0:0:0:
64,0,5543,1,0,0:0:0:0:
192,0,5543,1,0,0:0:0:0:
320,0,5543,1,0,0:0:0:0:
448,0,5543,1,0,0:0:0:0:
64,0,5668,1,0,0:0:0:0:
192,0,5668,1,0,0:0:0:0:
448,0,5730,1,0,0:0:0:0:
320,0,5824,1,0,0:0:0:0:
64,0,5918,1,0,0:0:0:0:
192,0,5918,1,0,0:0:0:0:
320,0,5918,1,0,0:0:0:0:
448,0,5918,1,0,0:0:0:0:
64,0,6043,1,0,0:0:0:0:
192,0,6043,1,0,0:0:0:0:
448,0,6105,1,0,0:0:0:0:
320,0,6199,1,0,0:0:0:0:
64,0,6293,1,0,0:0:0:0:
192,0,6293,1,0,0:0:0:0:
320,0,6293,1,0,0:0:0:0:
448,0,6293,1,0,0:0:0:0:
64,0,6418,1,0,0:0:0:0:
192,0,6418,1,0,0:0:0:0:
448,0,6480,1,0,0:0:0:0:
320,0,6574,1,0,0:0:0:0:
64,0,6668,1,0,0:0:0:0:
448,0,6668,1,0,0:0:0:0:
192,0,6793,1,0,0:0:0:0:
320,0,6871,1,0,0:0:0:0:
64,0,6996,1,0,0:0:0:0:
192,0,7043,1,0,0:0:0:0:
320,0,7043,1,0,0:0:0:0:
448,0,7043,1,0,0:0:0:0:
320,0,7168,1,0,0:0:0:0:
448,0,7168,1,0,0:0:0:0:
64,0,7230,1,0,0:0:0:0:
192,0,7324,1,0,0:0:0:0:
64,0,7418,1,0,0:0:0:0:
192,0,7418,1,0,0:0:0:0:
320,0,7418,1,0,0:0:0:0:
448,0,7418,1,0,0:0:0:0:
320,0,7543,1,0,0:0:0:0:
448,0,7543,1,0,0:0:0:0:
64,0,7605,1,0,0:0:0:0:
192,0,7699,1,0,0:0:0:0:
64,0,7793,1,0,0:0:0:0:
192,0,7793,1,0,0:0:0:0:
320,0,7793,1,0,0:0:0:0:
448,0,7793,1,0,0:0:0:0:
320,0,7918,1,0,0:0:0:0:
448,0,7918,1,0,0:0:0:0:
64,0,7980,1,0,0:0:0:0:
192,0,8074,1,0,0:0:0:0:
64,0,8168,1,0,0:0:0:0:
448,0,8168,1,0,0:0:0:0:
320,0,8293,1,0,0:0:0:0:
192,0,8371,1,0,0:0:0:0:
448,0,8496,1,0,0:0:0:0:
64,0,8543,1,0,0:0:0:0:
192,0,8543,1,0,0:0:0:0:
320,0,8543,1,0,0:0:0:0:
64,0,8668,1,0,0:0:0:0:
192,0,8668,1,0,0:0:0:0:
448,0,8730,1,0,0:0:0:0:
320,0,8824,1,0,0:0:0:0:
64,0,8918,1,0,0:0:0:0:
192,0,8918,1,0,0:0:0:0:
320,0,8918,1,0,0:0:0:0:
448,0,8918,1,0,0:0:0:0:
64,0,9043,1,0,0:0:0:0:
192,0,9043,1,0,0:0:0:0:
448,0,9105,1,0,0:0:0:0:
320,0,9199,1,0,0:0:0:0:
64,0,9293,1,0,0:0:0:0:
192,0,9293,1,0,0:0:0:0:
320,0,9293,1,0,0:0:0:0:
448,0,9293,1,0,0:0:0:0:
64,0,9418,1,0,0:0:0:0:
192,0,9418,1,0,0:0:0:0:
448,0,9480,1,0,0:0:0:0:
320,0,9574,1,0,0:0:0:0:
64,0,9668,1,0,0:0:0:0:
448,0,9668,1,0,0:0:0:0:
192,0,9793,1,0,0:0:0:0:
320,0,9871,1,0,0:0:0:0:
64,0,9996,1,0,0:0:0:0:
192,0,10043,1,0,0:0:0:0:
320,0,10043,1,0,0:0:0:0:
448,0,10043,1,0,0:0:0:0:
320,0,10168,1,0,0:0:0:0:
448,0,10168,1,0,0:0:0:0:
64,0,10230,1,0,0:0:0:0:
192,0,10324,1,0,0:0:0:0:
64,0,10418,1,0,0:0:0:0:
448,0,10418,1,0,0:0:0:0:
320,0,10543,1,0,0:0:0:0:
192,0,10621,1,0,0:0:0:0:
448,0,10746,1,0,0:0:0:0:
64,0,10793,1,0,0:0:0:0:
192,0,10793,1,0,0:0:0:0:
320,0,10793,1,0,0:0:0:0:
64,0,10918,1,0,0:0:0:0:
192,0,10918,1,0,0:0:0:0:
448,0,10980,1,0,0:0:0:0:
320,0,11074,1,0,0:0:0:0:
64,0,11168,1,0,0:0:0:0:
448,0,11168,1,0,0:0:0:0:
192,0,11293,1,0,0:0:0:0:
320,0,11371,1,0,0:0:0:0:
64,0,11496,1,0,0:0:0:0:
192,0,11543,1,0,0:0:0:0:
320,0,11543,1,0,0:0:0:0:
448,0,11543,1,0,0:0:0:0:
320,0,11668,1,0,0:0:0:0:
448,0,11668,1,0,0:0:0:0:
64,0,11730,1,0,0:0:0:0:
192,0,11824,1,0,0:0:0:0:
64,0,11918,1,0,0:0:0:0:
192,0,11918,1,0,0:0:0:0:
320,0,11918,1,0,0:0:0:0:
448,0,11918,1,0,0:0:0:0:
320,0,12043,1,0,0:0:0:0:
448,0,12043,1,0,0:0:0:0:
64,0,12105,1,0,0:0:0:0:
192,0,12199,1,0,0:0:0:0:
64,0,12293,1,0,0:0:0:0:
448,0,12293,1,0,0:0:0:0:
320,0,12418,1,0,0:0:0:0:
192,0,12496,1,0,0:0:0:0:
320,0,12621,1,0,0:0:0:0:
64,0,12668,1,0,0:0:0:0:
448,0,12668,1,0,0:0:0:0:
192,0,12793,1,0,0:0:0:0:
320,0,12871,1,0,0:0:0:0:
64,0,12996,1,0,0:0:0:0:
192,0,13043,1,0,0:0:0:0:
320,0,13043,1,0,0:0:0:0:
448,0,13043,1,0,0:0:0:0:
320,0,13168,1,0,0:0:0:0:
448,0,13168,1,0,0:0:0:0:
64,0,13230,1,0,0:0:0:0:
192,0,13324,1,0,0:0:0:0:
64,0,13418,1,0,0:0:0:0:
192,0,13418,1,0,0:0:0:0:
320,0,13418,1,0,0:0:0:0:
448,0,13418,1,0,0:0:0:0:
64,0,13543,1,0,0:0:0:0:
192,0,13543,1,0,0:0:0:0:
448,0,13605,1,0,0:0:0:0:
320,0,13699,1,0,0:0:0:0:
64,0,13793,1,0,0:0:0:0:
192,0,13793,1,0,0:0:0:0:
320,0,13793,1,0,0:0:0:0:
448,0,13793,1,0,0:0:0:0:
320,0,13918,1,0,0:0:0:0:
448,0,13918,1,0,0:0:0:0:
64,0,13980,1,0,0:0:0:0:
192,0,14074,1,0,0:0:0:0:
64,0,14168,1,0,0:0:0:0:
192,0,14168,1,0,0:0:0:0:
320,0,14168,1,0,0:0:0:0:
448,0,14168,1,0,0:0:0:0:
64,0,14293,1,0,0:0:0:0:
192,0,14293,1,0,0:0:0:0:
448,0,14355,1,0,0:0:0:0:
320,0,14449,1,0,0:0:0:0:
64,0,14543,1,0,0:0:0:0:
192,0,14543,1,0,0:0:0:0:
320,0,14543,1,0,0:0:0:0:
448,0,14543,1,0,0:0:0:0:
320,0,14668,1,0,0:0:0:0:
448,0,14668,1,0,0:0:0:0:
64,0,14730,1,0,0:0:0:0:
192,0,14824,1,0,0:0:0:0:
64,0,14918,1,0,0:0:0:0:
192,0,14918,1,0,0:0:0:0:
320,0,14918,1,0,0:0:0:0:
448,0,14918,1,0,0:0:0:0:
64,0,15043,1,0,0:0:0:0:
192,0,15043,1,0,0:0:0:0:
448,0,15105,1,0,0:0:0:0:
320,0,15199,1,0,0:0:0:0:
64,0,15293,1,0,0:0:0:0:
192,0,15293,1,0,0:0:0:0:
320,0,15293,1,0,0:0:0:0:
448,0,15293,1,0,0:0:0:0:
320,0,15418,1,0,0:0:0:0:
448,0,15418,1,0,0:0:0:0:
64,0,15480,1,0,0:0:0:0:
192,0,15574,1,0,0:0:0:0:
64,0,15668,1,0,0:0:0:0:
192,0,15668,1,0,0:0:0:0:
320,0,15668,1,0,0:0:0:0:
448,0,15668,1,0,0:0:0:0:
64,0,15793,1,0,0:0:0:0:
192,0,15793,1,0,0:0:0:0:
448,0,15855,1,0,0:0:0:0:
320,0,15949,1,0,0:0:0:0:
64,0,16043,1,0,0:0:0:0:
192,0,16043,1,0,0:0:0:0:
320,0,16043,1,0,0:0:0:0:
448,0,16043,1,0,0:0:0:0:
320,0,16168,1,0,0:0:0:0:
448,0,16168,1,0,0:0:0:0:
64,0,16230,1,0,0:0:0:0:
192,0,16324,1,0,0:0:0:0:
64,0,16418,1,0,0:0:0:0:
192,0,16418,1,0,0:0:0:0:
320,0,16418,1,0,0:0:0:0:
448,0,16418,1,0,0:0:0:0:
64,0,16543,1,0,0:0:0:0:
192,0,16543,1,0,0:0:0:0:
448,0,16605,1,0,0:0:0:0:
320,0,16699,1,0,0:0:0:0:
64,0,16793,1,0,0:0:0:0:
192,0,16793,1,0,0:0:0:0:
320,0,16793,1,0,0:0:0:0:
448,0,16793,1,0,0:0:0:0:
320,0,16918,1,0,0:0:0:0:
448,0,16918,1,0,0:0:0:0:
64,0,16980,1,0,0:0:0:0:
192,0,17074,1,0,0:0:0:0:
64,0,17168,1,0,0:0:0:0:
192,0,17168,1,0,0:0:0:0:
320,0,17168,1,0,0:0:0:0:
448,0,17168,1,0,0:0:0:0:
64,0,17293,1,0,0:0:0:0:
192,0,17293,1,0,0:0:0:0:
448,0,17355,1,0,0:0:0:0:
320,0,17449,1,0,0:0:0:0:
64,0,17543,1,0,0:0:0:0:
192,0,17543,1,0,0:0:0:0:
320,0,17543,1,0,0:0:0:0:
448,0,17543,1,0,0:0:0:0:
320,0,17668,1,0,0:0:0:0:
448,0,17668,1,0,0:0:0:0:
64,0,17730,1,0,0:0:0:0:
192,0,17824,1,0,0:0:0:0:
64,0,17918,1,0,0:0:0:0:
192,0,17918,1,0,0:0:0:0:
320,0,17918,1,0,0:0:0:0:
448,0,17918,1,0,0:0:0:0:
64,0,18043,1,0,0:0:0:0:
192,0,18043,1,0,0:0:0:0:
448,0,18105,1,0,0:0:0:0:
320,0,18199,1,0,0:0:0:0:
64,0,18293,1,0,0:0:0:0:
192,0,18293,1,0,0:0:0:0:
320,0,18293,1,0,0:0:0:0:
448,0,18293,1,0,0:0:0:0:
320,0,18418,1,0,0:0:0:0:
448,0,18418,1,0,0:0:0:0:
64,0,18480,1,0,0:0:0:0:
192,0,18574,1,0,0:0:0:0:
448,0,18668,1,0,0:0:0:0:
320,0,18714,1,0,0:0:0:0:
192,0,18761,1,0,0:0:0:0:
64,0,18808,1,0,0:0:0:0:
448,0,18855,1,0,0:0:0:0:
320,0,18886,1,0,0:0:0:0:
192,0,18918,1,0,0:0:0:0:
64,0,18949,1,0,0:0:0:0:
64,0,19043,1,0,0:0:0:0:
192,0,19043,1,0,0:0:0:0:
320,0,19043,1,0,0:0:0:0:
448,0,19043,1,0,0:0:0:0:
320,0,19168,1,0,0:0:0:0:
448,0,19168,1,0,0:0:0:0:
64,0,19230,1,0,0:0:0:0:
192,0,19324,1,0,0:0:0:0:
64,0,19418,1,0,0:0:0:0:
192,0,19418,1,0,0:0:0:0:
320,0,19418,1,0,0:0:0:0:
448,0,19418,1,0,0:0:0:0:
64,0,19543,1,0,0:0:0:0:
192,0,19543,1,0,0:0:0:0:
448,0,19605,1,0,0:0:0:0:
320,0,19699,1,0,0:0:0:0:
64,0,19793,1,0,0:0:0:0:
192,0,19793,1,0,0:0:0:0:
320,0,19793,1,0,0:0:0:0:
448,0,19793,1,0,0:0:0:0:
320,0,19918,1,0,0:0:0:0:
448,0,19918,1,0,0:0:0:0:
64,0,19980,1,0,0:0:0:0:
192,0,20074,1,0,0:0:0:0:
64,0,20168,1,0,0:0:0:0:
192,0,20168,1,0,0:0:0:0:
320,0,20168,1,0,0:0:0:0:
448,0,20168,1,0,0:0:0:0:
64,0,20293,1,0,0:0:0:0:
192,0,20293,1,0,0:0:0:0:
448,0,20355,1,0,0:0:0:0:
320,0,20449,1,0,0:0:0:0:
64,0,20543,1,0,0:0:0:0:
192,0,20543,1,0,0:0:0:0:
320,0,20543,1,0,0:0:0:0:
448,0,20543,1,0,0:0:0:0:
320,0,20668,1,0,0:0:0:0:
448,0,20668,1,0,0:0:0:0:
64,0,20730,1,0,0:0:0:0:
192,0,20824,1,0,0:0:0:0:
64,0,20918,1,0,0:0:0:0:
192,0,20918,1,0,0:0:0:0:
320,0,20918,1,0,0:0:0:0:
448,0,20918,1,0,0:0:0:0:
64,0,21043,1,0,0:0:0:0:
192,0,21043,1,0,0:0:0:0:
448,0,21105,1,0,0:0:0:0:
320,0,21199,1,0,0:0:0:0:
64,0,21293,1,0,0:0:0:0:
192,0,21293,1,0,0:0:0:0:
320,0,21293,1,0,0:0:0:0:
448,0,21293,1,0,0:0:0:0:
320,0,21418,1,0,0:0:0:0:
448,0,21418,1,0,0:0:0:0:
64,0,21480,1,0,0:0:0:0:
192,0,21574,1,0,0:0:0:0:
64,0,21668,1,0,0:0:0:0:
192,0,21668,1,0,0:0:0:0:
320,0,21668,1,0,0:0:0:0:
448,0,21668,1,0,0:0:0:0:
64,0,21793,1,0,0:0:0:0:
192,0,21793,1,0,0:0:0:0:
448,0,21855,1,0,0:0:0:0:
320,0,21886,1,0,0:0:0:0:
192,0,21918,1,0,0:0:0:0:
64,0,21949,1,0,0:0:0:0:
64,0,22043,1,0,0:0:0:0:
192,0,22043,1,0,0:0:0:0:
320,0,22043,1,0,0:0:0:0:
448,0,22043,1,0,0:0:0:0:
320,0,22168,1,0,0:0:0:0:
448,0,22168,1,0,0:0:0:0:
64,0,22230,1,0,0:0:0:0:
192,0,22324,1,0,0:0:0:0:
64,0,22418,1,0,0:0:0:0:
192,0,22418,1,0,0:0:0:0:
320,0,22418,1,0,0:0:0:0:
448,0,22418,1,0,0:0:0:0:
64,0,22543,1,0,0:0:0:0:
192,0,22543,1,0,0:0:0:0:
448,0,22605,1,0,0:0:0:0:
320,0,22699,1,0,0:0:0:0:
64,0,22793,1,0,0:0:0:0:
192,0,22793,1,0,0:0:0:0:
320,0,22793,1,0,0:0:0:0:
448,0,22793,1,0,0:0:0:0:
320,0,22918,1,0,0:0:0:0:
448,0,22918,1,0,0:0:0:0:
64,0,22980,1,0,0:0:0:0:
192,0,23074,1,0,0:0:0:0:
64,0,23168,1,0,0:0:0:0:
192,0,23168,1,0,0:0:0:0:
320,0,23168,1,0,0:0:0:0:
448,0,23168,1,0,0:0:0:0:
64,0,23293,1,0,0:0:0:0:
192,0,23293,1,0,0:0:0:0:
448,0,23355,1,0,0:0:0:0:
320,0,23386,1,0,0:0:0:0:
192,0,23418,1,0,0:0:0:0:
64,0,23449,1,0,0:0:0:0:
64,0,23543,1,0,0:0:0:0:
192,0,23543,1,0,0:0:0:0:
320,0,23543,1,0,0:0:0:0:
448,0,23543,1,0,0:0:0:0:
320,0,23668,1,0,0:0:0:0:
448,0,23668,1,0,0:0:0:0:
64,0,23730,1,0,0:0:0:0:
192,0,23824,1,0,0:0:0:0:
64,0,23918,1,0,0:0:0:0:
192,0,23918,1,0,0:0:0:0:
320,0,23918,1,0,0:0:0:0:
448,0,23918,1,0,0:0:0:0:
64,0,24043,1,0,0:0:0:0:
192,0,24043,1,0,0:0:0:0:
448,0,24105,1,0,0:0:0:0:
320,0,24199,1,0,0:0:0:0:
64,0,24293,1,0,0:0:0:0:
192,0,24293,1,0,0:0:0:0:
320,0,24293,1,0,0:0:0:0:
448,0,24293,1,0,0:0:0:0:
320,0,24418,1,0,0:0:0:0:
448,0,24418,1,0,0:0:0:0:
64,0,24480,1,0,0:0:0:0:
192,0,24574,1,0,0:0:0:0:
64,0,25043,1,0,0:0:0:0:
192,0,25043,1,0,0:0:0:0:
320,0,25043,1,0,0:0:0:0:
448,0,25043,1,0,0:0:0:0:
64,0,25136,1,0,0:0:0:0:
192,0,25230,1,0,0:0:0:0:
448,0,25230,1,0,0:0:0:0:
320,0,25324,1,0,0:0:0:0:
64,0,25418,1,0,0:0:0:0:
192,0,25418,1,0,0:0:0:0:
320,0,25418,1,0,0:0:0:0:
448,0,25418,1,0,0:0:0:0:
64,0,25511,1,0,0:0:0:0:
320,0,25605,1,0,0:0:0:0:
448,0,25605,1,0,0:0:0:0:
192,0,25699,1,0,0:0:0:0:
64,0,25793,1,0,0:0:0:0:
192,0,25793,1,0,0:0:0:0:
320,0,25793,1,0,0:0:0:0:
448,0,25793,1,0,0:0:0:0:
448,0,25886,1,0,0:0:0:0:
64,0,25980,1,0,0:0:0:0:
320,0,25980,1,0,0:0:0:0:
192,0,26074,1,0,0:0:0:0:
64,0,26168,1,0,0:0:0:0:
192,0,26168,1,0,0:0:0:0:
320,0,26168,1,0,0:0:0:0:
448,0,26168,1,0,0:0:0:0:
448,0,26261,1,0,0:0:0:0:
64,0,26355,1,0,0:0:0:0:
192,0,26355,1,0,0:0:0:0:
320,0,26449,1,0,0:0:0:0:
64,0,26543,1,0,0:0:0:0:
192,0,26543,1,0,0:0:0:0:
320,0,26543,1,0,0:0:0:0:
448,0,26543,1,0,0:0:0:0:
64,0,26636,1,0,0:0:0:0:
192,0,26730,1,0,0:0:0:0:
320,0,26730,1,0,0:0:0:0:
448,0,26824,1,0,0:0:0:0:
64,0,26918,1,0,0:0:0:0:
192,0,26918,1,0,0:0:0:0:
320,0,26918,1,0,0:0:0:0:
448,0,26918,1,0,0:0:0:0:
64,0,27011,1,0,0:0:0:0:
320,0,27105,1,0,0:0:0:0:
448,0,27105,1,0,0:0:0:0:
192,0,27199,1,0,0:0:0:0:
64,0,27293,1,0,0:0:0:0:
192,0,27293,1,0,0:0:0:0:
320,0,27293,1,0,0:0:0:0:
448,0,27293,1,0,0:0:0:0:
448,0,27386,1,0,0:0:0:0:
192,0,27480,1,0,0:0:0:0:
320,0,27480,1,0,0:0:0:0:
64,0,27574,1,0,0:0:0:0:
64,0,27668,1,0,0:0:0:0:
192,0,27668,1,0,0:0:0:0:
320,0,27668,1,0,0:0:0:0:
448,0,27668,1,0,0:0:0:0:
448,0,27761,1,0,0:0:0:0:
64,0,27855,1,0,0:0:0:0:
192,0,27855,1,0,0:0:0:0:
320,0,27949,1,0,0:0:0:0:
64,0,28043,1,0,0:0:0:0:
192,0,28043,1,0,0:0:0:0:
320,0,28043,1,0,0:0:0:0:
448,0,28043,1,0,0:0:0:0:
192,0,28136,1,0,0:0:0:0:
64,0,28230,1,0,0:0:0:0:
448,0,28230,1,0,0:0:0:0:
320,0,28324,1,0,0:0:0:0:
64,0,28418,1,0,0:0:0:0:
192,0,28418,1,0,0:0:0:0:
320,0,28418,1,0,0:0:0:0:
448,0,28418,1,0,0:0:0:0:
64,0,28511,1,0,0:0:0:0:
320,0,28605,1,0,0:0:0:0:
448,0,28605,1,0,0:0:0:0:
192,0,28699,1,0,0:0:0:0:
64,0,28793,1,0,0:0:0:0:
192,0,28793,1,0,0:0:0:0:
320,0,28793,1,0,0:0:0:0:
448,0,28793,1,0,0:0:0:0:
320,0,28886,1,0,0:0:0:0:
64,0,28980,1,0,0:0:0:0:
448,0,28980,1,0,0:0:0:0:
192,0,29074,1,0,0:0:0:0:
64,0,29168,1,0,0:0:0:0:
192,0,29168,1,0,0:0:0:0:
320,0,29168,1,0,0:0:0:0:
448,0,29168,1,0,0:0:0:0:
448,0,29261,1,0,0:0:0:0:
64,0,29355,1,0,0:0:0:0:
192,0,29355,1,0,0:0:0:0:
320,0,29449,1,0,0:0:0:0:
64,0,29543,1,0,0:0:0:0:
192,0,29543,1,0,0:0:0:0:
320,0,29543,1,0,0:0:0:0:
448,0,29543,1,0,0:0:0:0:
192,0,29636,1,0,0:0:0:0:
64,0,29730,1,0,0:0:0:0:
320,0,29730,1,0,0:0:0:0:
448,0,29824,1,0,0:0:0:0:
64,0,29918,1,0,0:0:0:0:
192,0,29918,1,0,0:0:0:0:
320,0,29918,1,0,0:0:0:0:
448,0,29918,1,0,0:0:0:0:
64,0,30011,1,0,0:0:0:0:
320,0,30105,1,0,0:0:0:0:
448,0,30105,1,0,0:0:0:0:
192,0,30199,1,0,0:0:0:0:
64,0,30293,1,0,0:0:0:0:
192,0,30293,1,0,0:0:0:0:
320,0,30293,1,0,0:0:0:0:
448,0,30293,1,0,0:0:0:0:
320,0,30386,1,0,0:0:0:0:
192,0,30480,1,0,0:0:0:0:
448,0,30480,1,0,0:0:0:0:
64,0,30574,1,0,0:0:0:0:
64,0,30668,1,0,0:0:0:0:
192,0,30668,1,0,0:0:0:0:
320,0,30668,1,0,0:0:0:0:
448,0,30668,1,0,0:0:0:0:
448,0,30761,1,0,0:0:0:0:
64,0,30855,1,0,0:0:0:0:
192,0,30855,1,0,0:0:0:0:
320,0,30949,1,0,0:0:0:0:
64,0,31043,1,0,0:0:0:0:
192,0,31043,1,0,0:0:0:0:
320,0,31043,1,0,0:0:0:0:
448,0,31043,1,0,0:0:0:0:
64,0,31136,1,0,0:0:0:0:
192,0,31230,1,0,0:0:0:0:
448,0,31230,1,0,0:0:0:0:
320,0,31324,1,0,0:0:0:0:
64,0,31418,1,0,0:0:0:0:
192,0,31418,1,0,0:0:0:0:
320,0,31418,1,0,0:0:0:0:
448,0,31418,1,0,0:0:0:0:
64,0,31511,1,0,0:0:0:0:
320,0,31605,1,0,0:0:0:0:
448,0,31605,1,0,0:0:0:0:
192,0,31699,1,0,0:0:0:0:
64,0,31793,1,0,0:0:0:0:
192,0,31793,1,0,0:0:0:0:
320,0,31793,1,0,0:0:0:0:
448,0,31793,1,0,0:0:0:0:
448,0,31886,1,0,0:0:0:0:
64,0,31980,1,0,0:0:0:0:
320,0,31980,1,0,0:0:0:0:
192,0,32074,1,0,0:0:0:0:
64,0,32168,1,0,0:0:0:0:
192,0,32168,1,0,0:0:0:0:
320,0,32168,1,0,0:0:0:0:
448,0,32168,1,0,0:0:0:0:
448,0,32261,1,0,0:0:0:0:
64,0,32355,1,0,0:0:0:0:
192,0,32355,1,0,0:0:0:0:
320,0,32449,1,0,0:0:0:0:
64,0,32543,1,0,0:0:0:0:
192,0,32543,1,0,0:0:0:0:
320,0,32543,1,0,0:0:0:0:
448,0,32543,1,0,0:0:0:0:
64,0,32636,1,0,0:0:0:0:
192,0,32730,1,0,0:0:0:0:
320,0,32730,1,0,0:0:0:0:
448,0,32824,1,0,0:0:0:0:
64,0,32918,1,0,0:0:0:0:
192,0,32918,1,0,0:0:0:0:
320,0,32918,1,0,0:0:0:0:
448,0,32918,1,0,0:0:0:0:
64,0,33011,1,0,0:0:0:0:
320,0,33105,1,0,0:0:0:0:
448,0,33105,1,0,0:0:0:0:
192,0,33199,1,0,0:0:0:0:
64,0,33293,1,0,0:0:0:0:
192,0,33293,1,0,0:0:0:0:
320,0,33293,1,0,0:0:0:0:
448,0,33293,1,0,0:0:0:0:
448,0,33386,1,0,0:0:0:0:
192,0,33480,1,0,0:0:0:0:
320,0,33480,1,0,0:0:0:0:
64,0,33574,1,0,0:0:0:0:
64,0,33668,1,0,0:0:0:0:
192,0,33668,1,0,0:0:0:0:
320,0,33668,1,0,0:0:0:0:
448,0,33668,1,0,0:0:0:0:
448,0,33761,1,0,0:0:0:0:
64,0,33855,1,0,0:0:0:0:
192,0,33855,1,0,0:0:0:0:
320,0,33949,1,0,0:0:0:0:
64,0,34043,1,0,0:0:0:0:
192,0,34043,1,0,0:0:0:0:
320,0,34043,1,0,0:0:0:0:
448,0,34043,1,0,0:0:0:0:
192,0,34136,1,0,0:0:0:0:
64,0,34230,1,0,0:0:0:0:
448,0,34230,1,0,0:0:0:0:
320,0,34324,1,0,0:0:0:0:
64,0,34418,1,0,0:0:0:0:
192,0,34418,1,0,0:0:0:0:
320,0,34418,1,0,0:0:0:0:
448,0,34418,1,0,0:0:0:0:
64,0,34511,1,0,0:0:0:0:
320,0,34605,1,0,0:0:0:0:
448,0,34605,1,0,0:0:0:0:
192,0,34699,1,0,0:0:0:0:
64,0,34793,1,0,0:0:0:0:
192,0,34793,1,0,0:0:0:0:
320,0,34793,1,0,0:0:0:0:
448,0,34793,1,0,0:0:0:0:
320,0,34886,1,0,0:0:0:0:
64,0,34980,1,0,0:0:0:0:
448,0,34980,1,0,0:0:0:0:
192,0,35074,1,0,0:0:0:0:
64,0,35168,1,0,0:0:0:0:
192,0,35168,1,0,0:0:0:0:
320,0,35168,1,0,0:0:0:0:
448,0,35168,1,0,0:0:0:0:
448,0,35261,1,0,0:0:0:0:
64,0,35355,1,0,0:0:0:0:
192,0,35355,1,0,0:0:0:0:
320,0,35449,1,0,0:0:0:0:
64,0,35543,1,0,0:0:0:0:
448,0,35543,1,0,0:0:0:0:
192,0,35636,1,0,0:0:0:0:
320,0,35730,1,0,0:0:0:0:
448,0,35730,1,0,0:0:0:0:
64,0,35824,1,0,0:0:0:0:
192,0,35918,1,0,0:0:0:0:
448,0,35918,1,0,0:0:0:0:
320,0,36011,1,0,0:0:0:0:
64,0,36105,1,0,0:0:0:0:
192,0,36105,1,0,0:0:0:0:
448,0,36199,1,0,0:0:0:0:
64,0,36293,1,0,0:0:0:0:
320,0,36293,1,0,0:0:0:0:
192,0,36386,1,0,0:0:0:0:
320,0,36480,1,0,0:0:0:0:
448,0,36480,1,0,0:0:0:0:
64,0,36574,1,0,0:0:0:0:
448,0,36668,1,0,0:0:0:0:
320,0,36699,1,0,0:0:0:0:
192,0,36730,1,0,0:0:0:0:
64,0,36761,1,0,0:0:0:0:
448,0,36793,1,0,0:0:0:0:
320,0,36824,1,0,0:0:0:0:
192,0,36855,1,0,0:0:0:0:
64,0,36886,1,0,0:0:0:0:
448,0,36918,1,0,0:0:0:0:
320,0,36949,1,0,0:0:0:0:
192,0,36980,1,0,0:0:0:0:
64,0,37011,1,0,0:0:0:0:
320,0,37043,1,0,0:0:0:0:
448,0,37043,1,0,0:0:0:0:
64,0,37136,1,0,0:0:0:0:
192,0,37230,1,0,0:0:0:0:
448,0,37230,1,0,0:0:0:0:
320,0,37324,1,0,0:0:0:0:
64,0,37418,1,0,0:0:0:0:
192,0,37418,1,0,0:0:0:0:
320,0,37418,1,0,0:0:0:0:
448,0,37418,1,0,0:0:0:0:
64,0,37511,1,0,0:0:0:0:
320,0,37605,1,0,0:0:0:0:
448,0,37605,1,0,0:0:0:0:
192,0,37699,1,0,0:0:0:0:
64,0,37793,1,0,0:0:0:0:
192,0,37793,1,0,0:0:0:0:
320,0,37793,1,0,0:0:0:0:
448,0,37793,1,0,0:0:0:0:
448,0,37886,1,0,0:0:0:0:
64,0,37980,1,0,0:0:0:0:
320,0,37980,1,0,0:0:0:0:
192,0,38074,1,0,0:0:0:0:
64,0,38168,1,0,0:0:0:0:
192,0,38168,1,0,0:0:0:0:
320,0,38168,1,0,0:0:0:0:
448,0,38168,1,0,0:0:0:0:
448,0,38261,1,0,0:0:0:0:
64,0,38355,1,0,0:0:0:0:
192,0,38355,1,0,0:0:0:0:
320,0,38449,1,0,0:0:0:0:
64,0,38543,1,0,0:0:0:0:
192,0,38543,1,0,0:0:0:0:
320,0,38543,1,0,0:0:0:0:
448,0,38543,1,0,0:0:0:0:
64,0,38636,1,0,0:0:0:0:
192,0,38730,1,0,0:0:0:0:
320,0,38730,1,0,0:0:0:0:
448,0,38824,1,0,0:0:0:0:
64,0,38918,1,0,0:0:0:0:
192,0,38918,1,0,0:0:0:0:
320,0,38918,1,0,0:0:0:0:
448,0,38918,1,0,0:0:0:0:
64,0,39011,1,0,0:0:0:0:
320,0,39105,1,0,0:0:0:0:
448,0,39105,1,0,0:0:0:0:
192,0,39199,1,0,0:0:0:0:
64,0,39293,1,0,0:0:0:0:
192,0,39293,1,0,0:0:0:0:
320,0,39293,1,0,0:0:0:0:
448,0,39293,1,0,0:0:0:0:
448,0,39386,1,0,0:0:0:0:
192,0,39480,1,0,0:0:0:0:
320,0,39480,1,0,0:0:0:0:
64,0,39574,1,0,0:0:0:0:
64,0,39668,1,0,0:0:0:0:
192,0,39668,1,0,0:0:0:0:
320,0,39668,1,0,0:0:0:0:
448,0,39668,1,0,0:0:0:0:
448,0,39761,1,0,0:0:0:0:
64,0,39855,1,0,0:0:0:0:
192,0,39855,1,0,0:0:0:0:
320,0,39949,1,0,0:0:0:0:
64,0,40043,1,0,0:0:0:0:
192,0,40043,1,0,0:0:0:0:
320,0,40043,1,0,0:0:0:0:
448,0,40043,1,0,0:0:0:0:
192,0,40136,1,0,0:0:0:0:
64,0,40230,1,0,0:0:0:0:
448,0,40230,1,0,0:0:0:0:
320,0,40324,1,0,0:0:0:0:
64,0,40418,1,0,0:0:0:0:
192,0,40418,1,0,0:0:0:0:
320,0,40418,1,0,0:0:0:0:
448,0,40418,1,0,0:0:0:0:
64,0,40511,1,0,0:0:0:0:
320,0,40605,1,0,0:0:0:0:
448,0,40605,1,0,0:0:0:0:
192,0,40699,1,0,0:0:0:0:
64,0,40793,1,0,0:0:0:0:
192,0,40793,1,0,0:0:0:0:
320,0,40793,1,0,0:0:0:0:
448,0,40793,1,0,0:0:0:0:
320,0,40886,1,0,0:0:0:0:
64,0,40980,1,0,0:0:0:0:
448,0,40980,1,0,0:0:0:0:
192,0,41074,1,0,0:0:0:0:
64,0,41168,1,0,0:0:0:0:
192,0,41168,1,0,0:0:0:0:
320,0,41168,1,0,0:0:0:0:
448,0,41168,1,0,0:0:0:0:
448,0,41261,1,0,0:0:0:0:
64,0,41355,1,0,0:0:0:0:
192,0,41355,1,0,0:0:0:0:
320,0,41449,1,0,0:0:0:0:
64,0,41543,1,0,0:0:0:0:
192,0,41543,1,0,0:0:0:0:
320,0,41543,1,0,0:0:0:0:
448,0,41543,1,0,0:0:0:0:
192,0,41636,1,0,0:0:0:0:
64,0,41730,1,0,0:0:0:0:
320,0,41730,1,0,0:0:0:0:
448,0,41824,1,0,0:0:0:0:
64,0,41918,1,0,0:0:0:0:
192,0,41918,1,0,0:0:0:0:
320,0,41918,1,0,0:0:0:0:
448,0,41918,1,0,0:0:0:0:
64,0,42011,1,0,0:0:0:0:
320,0,42105,1,0,0:0:0:0:
448,0,42105,1,0,0:0:0:0:
192,0,42199,1,0,0:0:0:0:
64,0,42293,1,0,0:0:0:0:
192,0,42293,1,0,0:0:0:0:
320,0,42293,1,0,0:0:0:0:
448,0,42293,1,0,0:0:0:0:
320,0,42386,1,0,0:0:0:0:
192,0,42480,1,0,0:0:0:0:
448,0,42480,1,0,0:0:0:0:
64,0,42574,1,0,0:0:0:0:
64,0,42668,1,0,0:0:0:0:
192,0,42668,1,0,0:0:0:0:
320,0,42668,1,0,0:0:0:0:
448,0,42668,1,0,0:0:0:0:
448,0,42761,1,0,0:0:0:0:
64,0,42855,1,0,0:0:0:0:
192,0,42855,1,0,0:0:0:0:
320,0,42949,1,0,0:0:0:0:
64,0,43043,1,0,0:0:0:0:
192,0,43043,1,0,0:0:0:0:
320,0,43043,1,0,0:0:0:0:
448,0,43043,1,0,0:0:0:0:
64,0,43136,1,0,0:0:0:0:
192,0,43230,1,0,0:0:0:0:
448,0,43230,1,0,0:0:0:0:
320,0,43324,1,0,0:0:0:0:
64,0,43418,1,0,0:0:0:0:
192,0,43418,1,0,0:0:0:0:
320,0,43418,1,0,0:0:0:0:
448,0,43418,1,0,0:0:0:0:
64,0,43511,1,0,0:0:0:0:
320,0,43605,1,0,0:0:0:0:
448,0,43605,1,0,0:0:0:0:
192,0,43699,1,0,0:0:0:0:
64,0,43793,1,0,0:0:0:0:
192,0,43793,1,0,0:0:0:0:
320,0,43793,1,0,0:0:0:0:
448,0,43793,1,0,0:0:0:0:
448,0,43886,1,0,0:0:0:0:
64,0,43980,1,0,0:0:0:0:
320,0,43980,1,0,0:0:0:0:
192,0,44074,1,0,0:0:0:0:
64,0,44168,1,0,0:0:0:0:
192,0,44168,1,0,0:0:0:0:
320,0,44168,1,0,0:0:0:0:
448,0,44168,1,0,0:0:0:0:
448,0,44261,1,0,0:0:0:0:
64,0,44355,1,0,0:0:0:0:
192,0,44355,1,0,0:0:0:0:
320,0,44449,1,0,0:0:0:0:
64,0,44543,1,0,0:0:0:0:
192,0,44543,1,0,0:0:0:0:
320,0,44543,1,0,0:0:0:0:
448,0,44543,1,0,0:0:0:0:
64,0,44636,1,0,0:0:0:0:
192,0,44730,1,0,0:0:0:0:
320,0,44730,1,0,0:0:0:0:
448,0,44824,1,0,0:0:0:0:
64,0,44918,1,0,0:0:0:0:
192,0,44918,1,0,0:0:0:0:
320,0,44918,1,0,0:0:0:0:
448,0,44918,1,0,0:0:0:0:
64,0,45011,1,0,0:0:0:0:
320,0,45105,1,0,0:0:0:0:
448,0,45105,1,0,0:0:0:0:
192,0,45199,1,0,0:0:0:0:
64,0,45293,1,0,0:0:0:0:
192,0,45293,1,0,0:0:0:0:
320,0,45293,1,0,0:0:0:0:
448,0,45293,1,0,0:0:0:0:
448,0,45386,1,0,0:0:0:0:
192,0,45480,1,0,0:0:0:0:
320,0,45480,1,0,0:0:0:0:
64,0,45574,1,0,0:0:0:0:
64,0,45668,1,0,0:0:0:0:
192,0,45668,1,0,0:0:0:0:
320,0,45668,1,0,0:0:0:0:
448,0,45668,1,0,0:0:0:0:
448,0,45761,1,0,0:0:0:0:
64,0,45855,1,0,0:0:0:0:
192,0,45855,1,0,0:0:0:0:
320,0,45949,1,0,0:0:0:0:
64,0,46043,1,0,0:0:0:0:
192,0,46043,1,0,0:0:0:0:
320,0,46043,1,0,0:0:0:0:
448,0,46043,1,0,0:0:0:0:
192,0,46136,1,0,0:0:0:0:
64,0,46230,1,0,0:0:0:0:
448,0,46230,1,0,0:0:0:0:
320,0,46324,1,0,0:0:0:0:
64,0,46418,1,0,0:0:0:0:
192,0,46418,1,0,0:0:0:0:
320,0,46418,1,0,0:0:0:0:
448,0,46418,1,0,0:0:0:0:
64,0,46511,1,0,0:0:0:0:
320,0,46605,1,0,0:0:0:0:
448,0,46605,1,0,0:0:0:0:
192,0,46699,1,0,0:0:0:0:
64,0,46793,1,0,0:0:0:0:
192,0,46793,1,0,0:0:0:0:
320,0,46793,1,0,0:0:0:0:
448,0,46793,1,0,0:0:0:0:
320,0,46886,1,0,0:0:0:0:
64,0,46980,1,0,0:0:0:0:
448,0,46980,1,0,0:0:0:0:
192,0,47074,1,0,0:0:0:0:
64,0,47168,1,0,0:0:0:0:
192,0,47168,1,0,0:0:0:0:
320,0,47168,1,0,0:0:0:0:
448,0,47168,1,0,0:0:0:0:
448,0,47261,1,0,0:0:0:0:
64,0,47355,1,0,0:0:0:0:
192,0,47355,1,0,0:0:0:0:
320,0,47449,1,0,0:0:0:0:
64,0,47543,1,0,0:0:0:0:
192,0,47543,1,0,0:0:0:0:
448,0,47543,1,0,0:0:0:0:
64,0,47636,1,0,0:0:0:0:
192,0,47636,1,0,0:0:0:0:
448,0,47636,1,0,0:0:0:0:
64,0,47824,1,0,0:0:0:0:
192,0,47824,1,0,0:0:0:0:
448,0,47824,1,0,0:0:0:0:
64,0,47918,1,0,0:0:0:0:
192,0,47918,1,0,0:0:0:0:
448,0,47918,1,0,0:0:0:0:
64,0,48105,1,0,0:0:0:0:
192,0,48105,1,0,0:0:0:0:
448,0,48105,1,0,0:0:0:0:
64,0,48293,1,0,0:0:0:0:
192,0,48293,1,0,0:0:0:0:
448,0,48293,1,0,0:0:0:0:
64,0,48386,1,0,0:0:0:0:
192,0,48386,1,0,0:0:0:0:
448,0,48386,1,0,0:0:0:0:
64,0,48574,1,0,0:0:0:0:
192,0,48574,1,0,0:0:0:0:
448,0,48574,1,0,0:0:0:0:
64,0,48668,1,0,0:0:0:0:
320,0,48668,1,0,0:0:0:0:
448,0,48668,1,0,0:0:0:0:
320,0,48793,1,0,0:0:0:0:
448,0,48793,1,0,0:0:0:0:
64,0,48855,1,0,0:0:0:0:
192,0,48949,1,0,0:0:0:0:
64,0,49043,1,0,0:0:0:0:
192,0,49043,1,0,0:0:0:0:
320,0,49043,1,0,0:0:0:0:
448,0,49043,1,0,0:0:0:0:
64,0,49136,1,0,0:0:0:0:
192,0,49230,1,0,0:0:0:0:
448,0,49230,1,0,0:0:0:0:
320,0,49324,1,0,0:0:0:0:
64,0,49418,1,0,0:0:0:0:
192,0,49418,1,0,0:0:0:0:
320,0,49418,1,0,0:0:0:0:
448,0,49418,1,0,0:0:0:0:
448,0,49511,1,0,0:0:0:0:
64,0,49605,1,0,0:0:0:0:
192,0,49605,1,0,0:0:0:0:
320,0,49699,1,0,0:0:0:0:
64,0,49793,1,0,0:0:0:0:
192,0,49793,1,0,0:0:0:0:
320,0,49793,1,0,0:0:0:0:
448,0,49793,1,0,0:0:0:0:
448,0,49886,1,0,0:0:0:0:
192,0,49980,1,0,0:0:0:0:
320,0,49980,1,0,0:0:0:0:
64,0,50074,1,0,0:0:0:0:
64,0,50168,1,0,0:0:0:0:
192,0,50168,1,0,0:0:0:0:
320,0,50168,1,0,0:0:0:0:
448,0,50168,1,0,0:0:0:0:
192,0,50261,1,0,0:0:0:0:
320,0,50355,1,0,0:0:0:0:
448,0,50355,1,0,0:0:0:0:
64,0,50449,1,0,0:0:0:0:
64,0,50543,1,0,0:0:0:0:
192,0,50543,1,0,0:0:0:0:
320,0,50543,1,0,0:0:0:0:
448,0,50543,1,0,0:0:0:0:
192,0,50636,1,0,0:0:0:0:
64,0,50730,1,0,0:0:0:0:
320,0,50730,1,0,0:0:0:0:
448,0,50824,1,0,0:0:0:0:
64,0,50918,1,0,0:0:0:0:
192,0,50918,1,0,0:0:0:0:
320,0,50918,1,0,0:0:0:0:
448,0,50918,1,0,0:0:0:0:
320,0,51011,1,0,0:0:0:0:
64,0,51105,1,0,0:0:0:0:
192,0,51105,1,0,0:0:0:0:
448,0,51199,1,0,0:0:0:0:
64,0,51293,1,0,0:0:0:0:
192,0,51293,1,0,0:0:0:0:
320,0,51293,1,0,0:0:0:0:
448,0,51293,1,0,0:0:0:0:
320,0,51386,1,0,0:0:0:0:
64,0,51480,1,0,0:0:0:0:
448,0,51480,1,0,0:0:0:0:
192,0,51574,1,0,0:0:0:0:
64,0,51668,1,0,0:0:0:0:
192,0,51668,1,0,0:0:0:0:
320,0,51668,1,0,0:0:0:0:
448,0,51668,1,0,0:0:0:0:
64,0,51761,1,0,0:0:0:0:
320,0,51855,1,0,0:0:0:0:
448,0,51855,1,0,0:0:0:0:
192,0,51949,1,0,0:0:0:0:
64,0,52043,1,0,0:0:0:0:
192,0,52043,1,0,0:0:0:0:
320,0,52043,1,0,0:0:0:0:
448,0,52043,1,0,0:0:0:0:
64,0,52136,1,0,0:0:0:0:
192,0,52230,1,0,0:0:0:0:
448,0,52230,1,0,0:0:0:0:
320,0,52324,1,0,0:0:0:0:
64,0,52418,1,0,0:0:0:0:
192,0,52418,1,0,0:0:0:0:
320,0,52418,1,0,0:0:0:0:
448,0,52418,1,0,0:0:0:0:
448,0,52511,1,0,0:0:0:0:
64,0,52605,1,0,0:0:0:0:
192,0,52605,1,0,0:0:0:0:
320,0,52699,1,0,0:0:0:0:
64,0,52793,1,0,0:0:0:0:
192,0,52793,1,0,0:0:0:0:
320,0,52793,1,0,0:0:0:0:
448,0,52793,1,0,0:0:0:0:
448,0,52886,1,0,0:0:0:0:
192,0,52980,1,0,0:0:0:0:
320,0,52980,1,0,0:0:0:0:
64,0,53074,1,0,0:0:0:0:
64,0,53168,1,0,0:0:0:0:
192,0,53168,1,0,0:0:0:0:
320,0,53168,1,0,0:0:0:0:
448,0,53168,1,0,0:0:0:0:
192,0,53261,1,0,0:0:0:0:
320,0,53355,1,0,0:0:0:0:
448,0,53355,1,0,0:0:0:0:
64,0,53449,1,0,0:0:0:0:
64,0,53543,1,0,0:0:0:0:
192,0,53543,1,0,0:0:0:0:
320,0,53543,1,0,0:0:0:0:
448,0,53543,1,0,0:0:0:0:
192,0,53636,1,0,0:0:0:0:
64,0,53730,1,0,0:0:0:0:
320,0,53730,1,0,0:0:0:0:
448,0,53824,1,0,0:0:0:0:
64,0,53918,1,0,0:0:0:0:
192,0,53918,1,0,0:0:0:0:
320,0,53918,1,0,0:0:0:0:
448,0,53918,1,0,0:0:0:0:
320,0,54011,1,0,0:0:0:0:
64,0,54105,1,0,0:0:0:0:
192,0,54105,1,0,0:0:0:0:
448,0,54199,1,0,0:0:0:0:
64,0,54293,1,0,0:0:0:0:
192,0,54293,1,0,0:0:0:0:
320,0,54293,1,0,0:0:0:0:
448,0,54293,1,0,0:0:0:0:
320,0,54386,1,0,0:0:0:0:
64,0,54480,1,0,0:0:0:0:
448,0,54480,1,0,0:0:0:0:
192,0,54574,1,0,0:0:0:0:
64,0,54668,1,0,0:0:0:0:
192,0,54668,1,0,0:0:0:0:
320,0,54668,1,0,0:0:0:0:
448,0,54668,1,0,0:0:0:0:
64,0,54761,1,0,0:0:0:0:
192,0,54855,1,0,0:0:0:0:
320,0,54855,1,0,0:0:0:0:
448,0,54855,1,0,0:0:0:0:
448,0,54980,1,0,0:0:0:0:
64,0,55043,1,0,0:0:0:0:
192,0,55043,1,0,0:0:0:0:
320,0,55043,1,0,0:0:0:0:
64,0,55136,1,0,0:0:0:0:
192,0,55230,1,0,0:0:0:0:
448,0,55230,1,0,0:0:0:0:
320,0,55324,1,0,0:0:0:0:
64,0,55418,1,0,0:0:0:0:
192,0,55418,1,0,0:0:0:0:
320,0,55418,1,0,0:0:0:0:
448,0,55418,1,0,0:0:0:0:
448,0,55511,1,0,0:0:0:0:
64,0,55605,1,0,0:0:0:0:
192,0,55605,1,0,0:0:0:0:
320,0,55699,1,0,0:0:0:0:
64,0,55793,1,0,0:0:0:0:
192,0,55793,1,0,0:0:0:0:
320,0,55793,1,0,0:0:0:0:
448,0,55793,1,0,0:0:0:0:
448,0,55886,1,0,0:0:0:0:
192,0,55980,1,0,0:0:0:0:
320,0,55980,1,0,0:0:0:0:
64,0,56074,1,0,0:0:0:0:
64,0,56168,1,0,0:0:0:0:
192,0,56168,1,0,0:0:0:0:
320,0,56168,1,0,0:0:0:0:
448,0,56168,1,0,0:0:0:0:
192,0,56261,1,0,0:0:0:0:
320,0,56355,1,0,0:0:0:0:
448,0,56355,1,0,0:0:0:0:
64,0,56449,1,0,0:0:0:0:
64,0,56543,1,0,0:0:0:0:
192,0,56543,1,0,0:0:0:0:
320,0,56543,1,0,0:0:0:0:
448,0,56543,1,0,0:0:0:0:
192,0,56636,1,0,0:0:0:0:
64,0,56730,1,0,0:0:0:0:
320,0,56730,1,0,0:0:0:0:
448,0,56824,1,0,0:0:0:0:
64,0,56918,1,0,0:0:0:0:
192,0,56918,1,0,0:0:0:0:
320,0,56918,1,0,0:0:0:0:
448,0,56918,1,0,0:0:0:0:
320,0,57011,1,0,0:0:0:0:
64,0,57105,1,0,0:0:0:0:
192,0,57105,1,0,0:0:0:0:
448,0,57199,1,0,0:0:0:0:
64,0,57293,1,0,0:0:0:0:
192,0,57293,1,0,0:0:0:0:
320,0,57293,1,0,0:0:0:0:
448,0,57293,1,0,0:0:0:0:
320,0,57386,1,0,0:0:0:0:
64,0,57480,1,0,0:0:0:0:
448,0,57480,1,0,0:0:0:0:
192,0,57574,1,0,0:0:0:0:
64,0,57668,1,0,0:0:0:0:
192,0,57668,1,0,0:0:0:0:
320,0,57668,1,0,0:0:0:0:
448,0,57668,1,0,0:0:0:0:
64,0,57761,1,0,0:0:0:0:
320,0,57855,1,0,0:0:0:0:
448,0,57855,1,0,0:0:0:0:
192,0,57949,1,0,0:0:0:0:
64,0,58043,1,0,0:0:0:0:
192,0,58043,1,0,0:0:0:0:
320,0,58043,1,0,0:0:0:0:
448,0,58043,1,0,0:0:0:0:
64,0,58136,1,0,0:0:0:0:
192,0,58230,1,0,0:0:0:0:
448,0,58230,1,0,0:0:0:0:
320,0,58324,1,0,0:0:0:0:
64,0,58418,1,0,0:0:0:0:
192,0,58418,1,0,0:0:0:0:
320,0,58418,1,0,0:0:0:0:
448,0,58418,1,0,0:0:0:0:
448,0,58511,1,0,0:0:0:0:
64,0,58605,1,0,0:0:0:0:
192,0,58605,1,0,0:0:0:0:
320,0,58699,1,0,0:0:0:0:
64,0,58793,1,0,0:0:0:0:
192,0,58793,1,0,0:0:0:0:
320,0,58793,1,0,0:0:0:0:
448,0,58793,1,0,0:0:0:0:
448,0,58886,1,0,0:0:0:0:
192,0,58980,1,0,0:0:0:0:
320,0,58980,1,0,0:0:0:0:
64,0,59074,1,0,0:0:0:0:
64,0,59168,1,0,0:0:0:0:
192,0,59168,1,0,0:0:0:0:
320,0,59168,1,0,0:0:0:0:
448,0,59168,1,0,0:0:0:0:
192,0,59261,1,0,0:0:0:0:
320,0,59355,1,0,0:0:0:0:
448,0,59355,1,0,0:0:0:0:
64,0,59449,1,0,0:0:0:0:
64,0,59543,1,0,0:0:0:0:
192,0,59543,1,0,0:0:0:0:
320,0,59543,1,0,0:0:0:0:
448,0,59543,1,0,0:0:0:0:
192,0,59636,1,0,0:0:0:0:
64,0,59730,1,0,0:0:0:0:
320,0,59730,1,0,0:0:0:0:
448,0,59824,1,0,0:0:0:0:
64,0,59918,1,0,0:0:0:0:
192,0,59918,1,0,0:0:0:0:
320,0,60011,1,0,0:0:0:0:
64,0,60105,1,0,0:0:0:0:
448,0,60105,1,0,0:0:0:0:
192,0,60199,1,0,0:0:0:0:
64,0,60293,1,0,0:0:0:0:
192,0,60293,1,0,0:0:0:0:
320,0,60293,1,0,0:0:0:0:
448,0,60293,1,0,0:0:0:0:
320,0,60386,1,0,0:0:0:0:
64,0,60480,1,0,0:0:0:0:
448,0,60480,1,0,0:0:0:0:
192,0,60574,1,0,0:0:0:0:
320,0,60668,1,0,0:0:0:0:
448,0,60668,1,0,0:0:0:0:
192,0,60793,1,0,0:0:0:0:
64,0,60855,1,0,0:0:0:0:
448,0,60855,1,0,0:0:0:0:
320,0,60949,1,0,0:0:0:0:
64,0,61043,1,0,0:0:0:0:
192,0,61043,1,0,0:0:0:0:
320,0,61043,1,0,0:0:0:0:
448,0,61043,1,0,0:0:0:0:
64,0,61168,1,0,0:0:0:0:
192,0,61168,1,0,0:0:0:0:
448,0,61230,1,0,0:0:0:0:
320,0,61324,1,0,0:0:0:0:
64,0,61418,1,0,0:0:0:0:
192,0,61418,1,0,0:0:0:0:
320,0,61418,1,0,0:0:0:0:
448,0,61418,1,0,0:0:0:0:
64,0,61543,1,0,0:0:0:0:
192,0,61543,1,0,0:0:0:0:
448,0,61605,1,0,0:0:0:0:
320,0,61699,1,0,0:0:0:0:
64,0,61793,1,0,0:0:0:0:
192,0,61793,1,0,0:0:0:0:
320,0,61793,1,0,0:0:0:0:
448,0,61793,1,0,0:0:0:0:
64,0,61918,1,0,0:0:0:0:
192,0,61918,1,0,0:0:0:0:
448,0,61980,1,0,0:0:0:0:
320,0,62074,1,0,0:0:0:0:
64,0,62168,1,0,0:0:0:0:
192,0,62168,1,0,0:0:0:0:
320,0,62168,1,0,0:0:0:0:
448,0,62168,1,0,0:0:0:0:
64,0,62293,1,0,0:0:0:0:
192,0,62293,1,0,0:0:0:0:
448,0,62355,1,0,0:0:0:0:
320,0,62449,1,0,0:0:0:0:
64,0,62543,1,0,0:0:0:0:
192,0,62543,1,0,0:0:0:0:
320,0,62543,1,0,0:0:0:0:
448,0,62543,1,0,0:0:0:0:
64,0,62668,1,0,0:0:0:0:
192,0,62668,1,0,0:0:0:0:
448,0,62730,1,0,0:0:0:0:
320,0,62824,1,0,0:0:0:0:
64,0,62918,1,0,0:0:0:0:
192,0,62918,1,0,0:0:0:0:
320,0,62918,1,0,0:0:0:0:
448,0,62918,1,0,0:0:0:0:
64,0,63043,1,0,0:0:0:0:
192,0,63043,1,0,0:0:0:0:
448,0,63105,1,0,0:0:0:0:
320,0,63199,1,0,0:0:0:0:
64,0,63293,1,0,0:0:0:0:
192,0,63293,1,0,0:0:0:0:
320,0,63293,1,0,0:0:0:0:
448,0,63293,1,0,0:0:0:0:
64,0,63418,1,0,0:0:0:0:
192,0,63418,1,0,0:0:0:0:
448,0,63480,1,0,0:0:0:0:
320,0,63574,1,0,0:0:0:0:
64,0,63668,1,0,0:0:0:0:
192,0,63699,1,0,0:0:0:0:
320,0,63730,1,0,0:0:0:0:
448,0,63761,1,0,0:0:0:0:
64,0,63793,1,0,0:0:0:0:
192,0,63824,1,0,0:0:0:0:
320,0,63855,1,0,0:0:0:0:
448,0,63886,1,0,0:0:0:0:
64,0,63918,1,0,0:0:0:0:
192,0,63949,1,0,0:0:0:0:
320,0,63980,1,0,0:0:0:0:
448,0,64011,1,0,0:0:0:0:
64,0,64043,1,0,0:0:0:0:
192,0,64043,1,0,0:0:0:0:
320,0,64168,1,0,0:0:0:0:
448,0,64168,1,0,0:0:0:0:
64,0,64230,1,0,0:0:0:0:
192,0,64324,1,0,0:0:0:0:
64,0,64418,1,0,0:0:0:0:
192,0,64418,1,0,0:0:0:0:
320,0,64418,1,0,0:0:0:0:
448,0,64418,1,0,0:0:0:0:
320,0,64543,1,0,0:0:0:0:
448,0,64543,1,0,0:0:0:0:
64,0,64605,1,0,0:0:0:0:
192,0,64699,1,0,0:0:0:0:
64,0,64793,1,0,0:0:0:0:
192,0,64793,1,0,0:0:0:0:
320,0,64793,1,0,0:0:0:0:
448,0,64793,1,0,0:0:0:0:
320,0,64918,1,0,0:0:0:0:
448,0,64918,1,0,0:0:0:0:
64,0,64980,1,0,0:0:0:0:
192,0,65074,1,0,0:0:0:0:
64,0,65168,1,0,0:0:0:0:
192,0,65168,1,0,0:0:0:0:
320,0,65168,1,0,0:0:0:0:
448,0,65168,1,0,0:0:0:0:
320,0,65293,1,0,0:0:0:0:
448,0,65293,1,0,0:0:0:0:
64,0,65355,1,0,0:0:0:0:
192,0,65449,1,0,0:0:0:0:
64,0,65543,1,0,0:0:0:0:
192,0,65543,1,0,0:0:0:0:
320,0,65543,1,0,0:0:0:0:
448,0,65543,1,0,0:0:0:0:
320,0,65668,1,0,0:0:0:0:
448,0,65668,1,0,0:0:0:0:
64,0,65730,1,0,0:0:0:0:
192,0,65824,1,0,0:0:0:0:
64,0,65918,1,0,0:0:0:0:
192,0,65918,1,0,0:0:0:0:
320,0,65918,1,0,0:0:0:0:
448,0,65918,1,0,0:0:0:0:
320,0,66043,1,0,0:0:0:0:
448,0,66043,1,0,0:0:0:0:
64,0,66105,1,0,0:0:0:0:
192,0,66199,1,0,0:0:0:0:
64,0,66293,1,0,0:0:0:0:
192,0,66293,1,0,0:0:0:0:
320,0,66293,1,0,0:0:0:0:
448,0,66293,1,0,0:0:0:0:
320,0,66418,1,0,0:0:0:0:
448,0,66418,1,0,0:0:0:0:
64,0,66480,1,0,0:0:0:0:
192,0,66574,1,0,0:0:0:0:
448,0,66668,1,0,0:0:0:0:
320,0,66699,1,0,0:0:0:0:
192,0,66730,1,0,0:0:0:0:
64,0,66761,1,0,0:0:0:0:
448,0,66793,1,0,0:0:0:0:
320,0,66824,1,0,0:0:0:0:
192,0,66855,1,0,0:0:0:0:
64,0,66886,1,0,0:0:0:0:
448,0,66918,1,0,0:0:0:0:
320,0,66949,1,0,0:0:0:0:
192,0,66980,1,0,0:0:0:0:
64,0,67011,1,0,0:0:0:0:
320,0,67043,1,0,0:0:0:0:
448,0,67043,1,0,0:0:0:0:
64,0,67168,1,0,0:0:0:0:
192,0,67168,1,0,0:0:0:0:
448,0,67230,1,0,0:0:0:0:
320,0,67324,1,0,0:0:0:0:
64,0,67418,1,0,0:0:0:0:
192,0,67418,1,0,0:0:0:0:
320,0,67418,1,0,0:0:0:0:
448,0,67418,1,0,0:0:0:0:
64,0,67543,1,0,0:0:0:0:
192,0,67543,1,0,0:0:0:0:
448,0,67605,1,0,0:0:0:0:
320,0,67699,1,0,0:0:0:0:
64,0,67793,1,0,0:0:0:0:
192,0,67793,1,0,0:0:0:0:
320,0,67793,1,0,0:0:0:0:
448,0,67793,1,0,0:0:0:0:
64,0,67918,1,0,0:0:0:0:
192,0,67918,1,0,0:0:0:0:
448,0,67980,1,0,0:0:0:0:
320,0,68074,1,0,0:0:0:0:
64,0,68168,1,0,0:0:0:0:
192,0,68168,1,0,0:0:0:0:
320,0,68168,1,0,0:0:0:0:
448,0,68168,1,0,0:0:0:0:
64,0,68293,1,0,0:0:0:0:
192,0,68293,1,0,0:0:0:0:
448,0,68355,1,0,0:0:0:0:
320,0,68449,1,0,0:0:0:0:
64,0,68543,1,0,0:0:0:0:
192,0,68543,1,0,0:0:0:0:
320,0,68543,1,0,0:0:0:0:
448,0,68543,1,0,0:0:0:0:
64,0,68668,1,0,0:0:0:0:
192,0,68668,1,0,0:0:0:0:
448,0,68730,1,0,0:0:0:0:
320,0,68824,1,0,0:0:0:0:
64,0,68918,1,0,0:0:0:0:
192,0,68918,1,0,0:0:0:0:
320,0,68918,1,0,0:0:0:0:
448,0,68918,1,0,0:0:0:0:
64,0,69043,1,0,0:0:0:0:
192,0,69043,1,0,0:0:0:0:
448,0,69105,1,0,0:0:0:0:
320,0,69199,1,0,0:0:0:0:
64,0,69293,1,0,0:0:0:0:
192,0,69293,1,0,0:0:0:0:
320,0,69293,1,0,0:0:0:0:
448,0,69293,1,0,0:0:0:0:
64,0,69418,1,0,0:0:0:0:
192,0,69418,1,0,0:0:0:0:
448,0,69480,1,0,0:0:0:0:
320,0,69574,1,0,0:0:0:0:
64,0,69668,1,0,0:0:0:0:
192,0,69699,1,0,0:0:0:0:
320,0,69730,1,0,0:0:0:0:
448,0,69761,1,0,0:0:0:0:
64,0,69793,1,0,0:0:0:0:
192,0,69824,1,0,0:0:0:0:
320,0,69855,1,0,0:0:0:0:
448,0,69886,1,0,0:0:0:0:
64,0,69918,1,0,0:0:0:0:
192,0,69949,1,0,0:0:0:0:
320,0,69980,1,0,0:0:0:0:
448,0,70011,1,0,0:0:0:0:
64,0,70043,1,0,0:0:0:0:
192,0,70043,1,0,0:0:0:0:
320,0,70168,1,0,0:0:0:0:
448,0,70168,1,0,0:0:0:0:
64,0,70230,1,0,0:0:0:0:
192,0,70324,1,0,0:0:0:0:
64,0,70418,1,0,0:0:0:0:
192,0,70418,1,0,0:0:0:0:
320,0,70418,1,0,0:0:0:0:
448,0,70418,1,0,0:0:0:0:
320,0,70543,1,0,0:0:0:0:
448,0,70543,1,0,0:0:0:0:
64,0,70605,1,0,0:0:0:0:
192,0,70699,1,0,0:0:0:0:
64,0,70793,1,0,0:0:0:0:
192,0,70793,1,0,0:0:0:0:
320,0,70793,1,0,0:0:0:0:
448,0,70793,1,0,0:0:0:0:
320,0,70918,1,0,0:0:0:0:
448,0,70918,1,0,0:0:0:0:
64,0,70980,1,0,0:0:0:0:
192,0,71074,1,0,0:0:0:0:
64,0,71168,1,0,0:0:0:0:
192,0,71168,1,0,0:0:0:0:
320,0,71168,1,0,0:0:0:0:
448,0,71168,1,0,0:0:0:0:
320,0,71293,1,0,0:0:0:0:
448,0,71293,1,0,0:0:0:0:
64,0,71355,1,0,0:0:0:0:
192,0,71449,1,0,0:0:0:0:
64,0,71543,1,0,0:0:0:0:
192,0,71543,1,0,0:0:0:0:
320,0,71543,1,0,0:0:0:0:
448,0,71543,1,0,0:0:0:0:
320,0,71668,1,0,0:0:0:0:
448,0,71668,1,0,0:0:0:0:
64,0,71730,1,0,0:0:0:0:
64,0,71824,1,0,0:0:0:0:
192,0,71824,1,0,0:0:0:0:
320,0,71824,1,0,0:0:0:0:
448,0,71824,1,0,0:0:0:0:
320,0,71941,1,0,0:0:0:0:
448,0,71941,1,0,0:0:0:0:
64,0,72011,1,0,0:0:0:0:
64,0,72105,1,0,0:0:0:0:
192,0,72105,1,0,0:0:0:0:
320,0,72105,1,0,0:0:0:0:
448,0,72105,1,0,0:0:0:0:
320,0,72222,1,0,0:0:0:0:
448,0,72222,1,0,0:0:0:0:
64,0,72293,1,0,0:0:0:0:
192,0,72293,1,0,0:0:0:0:
320,0,72293,1,0,0:0:0:0:
448,0,72293,1,0,0:0:0:0:
64,0,72410,1,0,0:0:0:0:
192,0,72410,1,0,0:0:0:0:
448,0,72480,1,0,0:0:0:0:
192,0,72590,1,0,0:0:0:0:
320,0,72668,128,0,72761:0:0:0:0:
192,0,72855,128,0,72949:0:0:0:0:
64,0,73043,1,0,0:0:0:0:
192,0,73043,1,0,0:0:0:0:
320,0,73043,1,0,0:0:0:0:
448,0,73043,1,0,0:0:0:0:
448,0,73136,1,0,0:0:0:0:
64,0,73230,1,0,0:0:0:0:
320,0,73230,1,0,0:0:0:0:
192,0,73324,1,0,0:0:0:0:
64,0,73418,1,0,0:0:0:0:
192,0,73418,1,0,0:0:0:0:
320,0,73418,1,0,0:0:0:0:
448,0,73418,1,0,0:0:0:0:
64,0,73511,1,0,0:0:0:0:
192,0,73605,1,0,0:0:0:0:
448,0,73605,1,0,0:0:0:0:
320,0,73699,1,0,0:0:0:0:
64,0,73793,1,0,0:0:0:0:
192,0,73793,1,0,0:0:0:0:
320,0,73793,1,0,0:0:0:0:
448,0,73793,1,0,0:0:0:0:
64,0,73886,1,0,0:0:0:0:
320,0,73980,1,0,0:0:0:0:
448,0,73980,1,0,0:0:0:0:
192,0,74074,1,0,0:0:0:0:
64,0,74168,1,0,0:0:0:0:
192,0,74168,1,0,0:0:0:0:
320,0,74168,1,0,0:0:0:0:
448,0,74168,1,0,0:0:0:0:
448,0,74261,1,0,0:0:0:0:
64,0,74355,1,0,0:0:0:0:
192,0,74355,1,0,0:0:0:0:
320,0,74449,1,0,0:0:0:0:
64,0,74543,1,0,0:0:0:0:
192,0,74543,1,0,0:0:0:0:
320,0,74543,1,0,0:0:0:0:
448,0,74543,1,0,0:0:0:0:
192,0,74636,1,0,0:0:0:0:
64,0,74730,1,0,0:0:0:0:
448,0,74730,1,0,0:0:0:0:
320,0,74824,1,0,0:0:0:0:
64,0,74918,1,0,0:0:0:0:
192,0,74918,1,0,0:0:0:0:
320,0,74918,1,0,0:0:0:0:
448,0,74918,1,0,0:0:0:0:
448,0,75011,1,0,0:0:0:0:
192,0,75105,1,0,0:0:0:0:
320,0,75105,1,0,0:0:0:0:
64,0,75199,1,0,0:0:0:0:
64,0,75293,1,0,0:0:0:0:
192,0,75293,1,0,0:0:0:0:
320,0,75293,1,0,0:0:0:0:
448,0,75293,1,0,0:0:0:0:
448,0,75386,1,0,0:0:0:0:
64,0,75480,1,0,0:0:0:0:
192,0,75480,1,0,0:0:0:0:
320,0,75574,1,0,0:0:0:0:
64,0,75668,1,0,0:0:0:0:
192,0,75668,1,0,0:0:0:0:
320,0,75668,1,0,0:0:0:0:
448,0,75668,1,0,0:0:0:0:
64,0,75761,1,0,0:0:0:0:
320,0,75855,1,0,0:0:0:0:
448,0,75855,1,0,0:0:0:0:
192,0,75949,1,0,0:0:0:0:
64,0,76043,1,0,0:0:0:0:
192,0,76043,1,0,0:0:0:0:
320,0,76043,1,0,0:0:0:0:
448,0,76043,1,0,0:0:0:0:
320,0,76136,1,0,0:0:0:0:
64,0,76230,1,0,0:0:0:0:
448,0,76230,1,0,0:0:0:0:
192,0,76324,1,0,0:0:0:0:
64,0,76418,1,0,0:0:0:0:
192,0,76418,1,0,0:0:0:0:
320,0,76418,1,0,0:0:0:0:
448,0,76418,1,0,0:0:0:0:
64,0,76511,1,0,0:0:0:0:
192,0,76605,1,0,0:0:0:0:
448,0,76605,1,0,0:0:0:0:
320,0,76699,1,0,0:0:0:0:
64,0,76793,1,0,0:0:0:0:
192,0,76793,1,0,0:0:0:0:
320,0,76793,1,0,0:0:0:0:
448,0,76793,1,0,0:0:0:0:
64,0,76886,1,0,0:0:0:0:
320,0,76980,1,0,0:0:0:0:
448,0,76980,1,0,0:0:0:0:
192,0,77074,1,0,0:0:0:0:
64,0,77168,1,0,0:0:0:0:
192,0,77168,1,0,0:0:0:0:
320,0,77168,1,0,0:0:0:0:
448,0,77168,1,0,0:0:0:0:
448,0,77261,1,0,0:0:0:0:
64,0,77355,1,0,0:0:0:0:
192,0,77355,1,0,0:0:0:0:
320,0,77449,1,0,0:0:0:0:
64,0,77543,1,0,0:0:0:0:
192,0,77543,1,0,0:0:0:0:
320,0,77543,1,0,0:0:0:0:
448,0,77543,1,0,0:0:0:0:
64,0,77636,1,0,0:0:0:0:
192,0,77730,1,0,0:0:0:0:
448,0,77730,1,0,0:0:0:0:
320,0,77824,1,0,0:0:0:0:
64,0,77918,1,0,0:0:0:0:
192,0,77918,1,0,0:0:0:0:
320,0,77918,1,0,0:0:0:0:
448,0,77918,1,0,0:0:0:0:
448,0,78011,1,0,0:0:0:0:
192,0,78105,1,0,0:0:0:0:
320,0,78105,1,0,0:0:0:0:
64,0,78199,1,0,0:0:0:0:
64,0,78293,1,0,0:0:0:0:
192,0,78293,1,0,0:0:0:0:
320,0,78293,1,0,0:0:0:0:
448,0,78293,1,0,0:0:0:0:
448,0,78386,1,0,0:0:0:0:
64,0,78480,1,0,0:0:0:0:
192,0,78480,1,0,0:0:0:0:
320,0,78574,1,0,0:0:0:0:
64,0,78668,1,0,0:0:0:0:
192,0,78668,1,0,0:0:0:0:
320,0,78668,1,0,0:0:0:0:
448,0,78668,1,0,0:0:0:0:
64,0,78761,1,0,0:0:0:0:
320,0,78855,1,0,0:0:0:0:
448,0,78855,1,0,0:0:0:0:
192,0,78949,1,0,0:0:0:0:
64,0,79043,1,0,0:0:0:0:
192,0,79043,1,0,0:0:0:0:
320,0,79043,1,0,0:0:0:0:
448,0,79043,1,0,0:0:0:0:
320,0,79136,1,0,0:0:0:0:
64,0,79230,1,0,0:0:0:0:
448,0,79230,1,0,0:0:0:0:
192,0,79324,1,0,0:0:0:0:
64,0,79418,1,0,0:0:0:0:
192,0,79418,1,0,0:0:0:0:
320,0,79418,1,0,0:0:0:0:
448,0,79418,1,0,0:0:0:0:
64,0,79511,1,0,0:0:0:0:
192,0,79605,1,0,0:0:0:0:
320,0,79605,1,0,0:0:0:0:
448,0,79699,1,0,0:0:0:0:
64,0,79793,1,0,0:0:0:0:
192,0,79793,1,0,0:0:0:0:
320,0,79793,1,0,0:0:0:0:
448,0,79793,1,0,0:0:0:0:
64,0,79886,1,0,0:0:0:0:
320,0,79980,1,0,0:0:0:0:
448,0,79980,1,0,0:0:0:0:
192,0,80074,1,0,0:0:0:0:
64,0,80168,1,0,0:0:0:0:
192,0,80168,1,0,0:0:0:0:
320,0,80168,1,0,0:0:0:0:
448,0,80168,1,0,0:0:0:0:
448,0,80261,1,0,0:0:0:0:
64,0,80355,1,0,0:0:0:0:
192,0,80355,1,0,0:0:0:0:
320,0,80449,1,0,0:0:0:0:
64,0,80543,1,0,0:0:0:0:
192,0,80543,1,0,0:0:0:0:
320,0,80543,1,0,0:0:0:0:
448,0,80543,1,0,0:0:0:0:
64,0,80636,1,0,0:0:0:0:
192,0,80730,1,0,0:0:0:0:
448,0,80730,1,0,0:0:0:0:
320,0,80824,1,0,0:0:0:0:
64,0,80918,1,0,0:0:0:0:
192,0,80918,1,0,0:0:0:0:
320,0,80918,1,0,0:0:0:0:
448,0,80918,1,0,0:0:0:0:
448,0,81011,1,0,0:0:0:0:
64,0,81105,1,0,0:0:0:0:
320,0,81105,1,0,0:0:0:0:
192,0,81199,1,0,0:0:0:0:
64,0,81293,1,0,0:0:0:0:
192,0,81293,1,0,0:0:0:0:
320,0,81293,1,0,0:0:0:0:
448,0,81293,1,0,0:0:0:0:
448,0,81386,1,0,0:0:0:0:
64,0,81480,1,0,0:0:0:0:
192,0,81480,1,0,0:0:0:0:
320,0,81574,1,0,0:0:0:0:
64,0,81668,1,0,0:0:0:0:
192,0,81668,1,0,0:0:0:0:
320,0,81668,1,0,0:0:0:0:
448,0,81668,1,0,0:0:0:0:
64,0,81761,1,0,0:0:0:0:
320,0,81855,1,0,0:0:0:0:
448,0,81855,1,0,0:0:0:0:
192,0,81949,1,0,0:0:0:0:
64,0,82043,1,0,0:0:0:0:
192,0,82043,1,0,0:0:0:0:
320,0,82043,1,0,0:0:0:0:
448,0,82043,1,0,0:0:0:0:
320,0,82136,1,0,0:0:0:0:
192,0,82230,1,0,0:0:0:0:
448,0,82230,1,0,0:0:0:0:
64,0,82324,1,0,0:0:0:0:
64,0,82418,1,0,0:0:0:0:
192,0,82418,1,0,0:0:0:0:
320,0,82418,1,0,0:0:0:0:
448,0,82418,1,0,0:0:0:0:
192,0,82511,1,0,0:0:0:0:
64,0,82605,1,0,0:0:0:0:
448,0,82605,1,0,0:0:0:0:
320,0,82699,1,0,0:0:0:0:
64,0,82793,1,0,0:0:0:0:
192,0,82793,1,0,0:0:0:0:
320,0,82793,1,0,0:0:0:0:
448,0,82793,1,0,0:0:0:0:
64,0,82886,1,0,0:0:0:0:
320,0,82980,1,0,0:0:0:0:
448,0,82980,1,0,0:0:0:0:
192,0,83074,1,0,0:0:0:0:
64,0,83168,1,0,0:0:0:0:
192,0,83168,1,0,0:0:0:0:
320,0,83168,1,0,0:0:0:0:
448,0,83168,1,0,0:0:0:0:
448,0,83261,1,0,0:0:0:0:
64,0,83355,1,0,0:0:0:0:
192,0,83355,1,0,0:0:0:0:
320,0,83449,1,0,0:0:0:0:
64,0,83543,1,0,0:0:0:0:
192,0,83543,1,0,0:0:0:0:
448,0,83543,1,0,0:0:0:0:
64,0,83636,1,0,0:0:0:0:
192,0,83636,1,0,0:0:0:0:
448,0,83636,1,0,0:0:0:0:
64,0,83824,1,0,0:0:0:0:
192,0,83824,1,0,0:0:0:0:
448,0,83824,1,0,0:0:0:0:
64,0,83918,1,0,0:0:0:0:
192,0,83918,1,0,0:0:0:0:
448,0,83918,1,0,0:0:0:0:
64,0,84105,1,0,0:0:0:0:
192,0,84105,1,0,0:0:0:0:
320,0,84105,1,0,0:0:0:0:
64,0,84293,1,0,0:0:0:0:
192,0,84293,1,0,0:0:0:0:
448,0,84293,1,0,0:0:0:0:
64,0,84386,1,0,0:0:0:0:
192,0,84386,1,0,0:0:0:0:
448,0,84386,1,0,0:0:0:0:
64,0,84574,1,0,0:0:0:0:
192,0,84574,1,0,0:0:0:0:
448,0,84574,1,0,0:0:0:0:
64,0,84668,1,0,0:0:0:0:
320,0,84668,1,0,0:0:0:0:
448,0,84668,1,0,0:0:0:0:
320,0,84793,1,0,0:0:0:0:
448,0,84793,1,0,0:0:0:0:
64,0,84855,1,0,0:0:0:0:
192,0,84949,1,0,0:0:0:0:
64,0,85043,1,0,0:0:0:0:
192,0,85043,1,0,0:0:0:0:
320,0,85043,1,0,0:0:0:0:
448,0,85043,1,0,0:0:0:0:
448,0,85136,1,0,0:0:0:0:
64,0,85230,1,0,0:0:0:0:
320,0,85230,1,0,0:0:0:0:
192,0,85324,1,0,0:0:0:0:
64,0,85418,1,0,0:0:0:0:
192,0,85418,1,0,0:0:0:0:
320,0,85418,1,0,0:0:0:0:
448,0,85418,1,0,0:0:0:0:
64,0,85511,1,0,0:0:0:0:
192,0,85605,1,0,0:0:0:0:
448,0,85605,1,0,0:0:0:0:
320,0,85699,1,0,0:0:0:0:
64,0,85793,1,0,0:0:0:0:
192,0,85793,1,0,0:0:0:0:
320,0,85793,1,0,0:0:0:0:
448,0,85793,1,0,0:0:0:0:
64,0,85886,1,0,0:0:0:0:
320,0,85980,1,0,0:0:0:0:
448,0,85980,1,0,0:0:0:0:
192,0,86074,1,0,0:0:0:0:
64,0,86168,1,0,0:0:0:0:
192,0,86168,1,0,0:0:0:0:
320,0,86168,1,0,0:0:0:0:
448,0,86168,1,0,0:0:0:0:
448,0,86261,1,0,0:0:0:0:
64,0,86355,1,0,0:0:0:0:
192,0,86355,1,0,0:0:0:0:
320,0,86449,1,0,0:0:0:0:
64,0,86543,1,0,0:0:0:0:
192,0,86543,1,0,0:0:0:0:
320,0,86543,1,0,0:0:0:0:
448,0,86543,1,0,0:0:0:0:
192,0,86636,1,0,0:0:0:0:
64,0,86730,1,0,0:0:0:0:
448,0,86730,1,0,0:0:0:0:
320,0,86824,1,0,0:0:0:0:
64,0,86918,1,0,0:0:0:0:
192,0,86918,1,0,0:0:0:0:
320,0,86918,1,0,0:0:0:0:
448,0,86918,1,0,0:0:0:0:
448,0,87011,1,0,0:0:0:0:
192,0,87105,1,0,0:0:0:0:
320,0,87105,1,0,0:0:0:0:
64,0,87199,1,0,0:0:0:0:
64,0,87293,1,0,0:0:0:0:
192,0,87293,1,0,0:0:0:0:
320,0,87293,1,0,0:0:0:0:
448,0,87293,1,0,0:0:0:0:
448,0,87386,1,0,0:0:0:0:
64,0,87480,1,0,0:0:0:0:
192,0,87480,1,0,0:0:0:0:
320,0,87574,1,0,0:0:0:0:
64,0,87668,1,0,0:0:0:0:
192,0,87668,1,0,0:0:0:0:
320,0,87668,1,0,0:0:0:0:
448,0,87668,1,0,0:0:0:0:
64,0,87761,1,0,0:0:0:0:
320,0,87855,1,0,0:0:0:0:
448,0,87855,1,0,0:0:0:0:
192,0,87949,1,0,0:0:0:0:
64,0,88043,1,0,0:0:0:0:
192,0,88043,1,0,0:0:0:0:
320,0,88043,1,0,0:0:0:0:
448,0,88043,1,0,0:0:0:0:
320,0,88136,1,0,0:0:0:0:
64,0,88230,1,0,0:0:0:0:
448,0,88230,1,0,0:0:0:0:
192,0,88324,1,0,0:0:0:0:
64,0,88418,1,0,0:0:0:0:
192,0,88418,1,0,0:0:0:0:
320,0,88418,1,0,0:0:0:0:
448,0,88418,1,0,0:0:0:0:
64,0,88511,1,0,0:0:0:0:
192,0,88605,1,0,0:0:0:0:
448,0,88605,1,0,0:0:0:0:
320,0,88699,1,0,0:0:0:0:
64,0,88793,1,0,0:0:0:0:
192,0,88793,1,0,0:0:0:0:
320,0,88793,1,0,0:0:0:0:
448,0,88793,1,0,0:0:0:0:
64,0,88886,1,0,0:0:0:0:
320,0,88980,1,0,0:0:0:0:
448,0,88980,1,0,0:0:0:0:
192,0,89074,1,0,0:0:0:0:
64,0,89168,1,0,0:0:0:0:
192,0,89168,1,0,0:0:0:0:
320,0,89168,1,0,0:0:0:0:
448,0,89168,1,0,0:0:0:0:
448,0,89261,1,0,0:0:0:0:
64,0,89355,1,0,0:0:0:0:
192,0,89355,1,0,0:0:0:0:
320,0,89449,1,0,0:0:0:0:
64,0,89543,1,0,0:0:0:0:
192,0,89543,1,0,0:0:0:0:
320,0,89543,1,0,0:0:0:0:
448,0,89543,1,0,0:0:0:0:
64,0,89636,1,0,0:0:0:0:
192,0,89730,1,0,0:0:0:0:
448,0,89730,1,0,0:0:0:0:
320,0,89824,1,0,0:0:0:0:
64,0,89918,1,0,0:0:0:0:
192,0,89918,1,0,0:0:0:0:
320,0,89918,1,0,0:0:0:0:
448,0,89918,1,0,0:0:0:0:
448,0,90011,1,0,0:0:0:0:
192,0,90105,1,0,0:0:0:0:
320,0,90105,1,0,0:0:0:0:
64,0,90199,1,0,0:0:0:0:
64,0,90293,1,0,0:0:0:0:
192,0,90293,1,0,0:0:0:0:
320,0,90293,1,0,0:0:0:0:
448,0,90293,1,0,0:0:0:0:
448,0,90386,1,0,0:0:0:0:
64,0,90480,1,0,0:0:0:0:
192,0,90480,1,0,0:0:0:0:
320,0,90574,1,0,0:0:0:0:
64,0,90668,1,0,0:0:0:0:
192,0,90668,1,0,0:0:0:0:
320,0,90668,1,0,0:0:0:0:
448,0,90668,1,0,0:0:0:0:
64,0,90761,1,0,0:0:0:0:
320,0,90855,1,0,0:0:0:0:
448,0,90855,1,0,0:0:0:0:
192,0,90949,1,0,0:0:0:0:
64,0,91043,1,0,0:0:0:0:
192,0,91043,1,0,0:0:0:0:
320,0,91043,1,0,0:0:0:0:
448,0,91043,1,0,0:0:0:0:
320,0,91136,1,0,0:0:0:0:
64,0,91230,1,0,0:0:0:0:
448,0,91230,1,0,0:0:0:0:
192,0,91324,1,0,0:0:0:0:
64,0,91418,1,0,0:0:0:0:
192,0,91418,1,0,0:0:0:0:
320,0,91418,1,0,0:0:0:0:
448,0,91418,1,0,0:0:0:0:
64,0,91511,1,0,0:0:0:0:
192,0,91605,1,0,0:0:0:0:
320,0,91605,1,0,0:0:0:0:
448,0,91699,1,0,0:0:0:0:
64,0,91793,1,0,0:0:0:0:
192,0,91793,1,0,0:0:0:0:
320,0,91793,1,0,0:0:0:0:
448,0,91793,1,0,0:0:0:0:
64,0,91886,1,0,0:0:0:0:
320,0,91980,1,0,0:0:0:0:
448,0,91980,1,0,0:0:0:0:
192,0,92074,1,0,0:0:0:0:
64,0,92168,1,0,0:0:0:0:
192,0,92168,1,0,0:0:0:0:
320,0,92168,1,0,0:0:0:0:
448,0,92168,1,0,0:0:0:0:
448,0,92261,1,0,0:0:0:0:
64,0,92355,1,0,0:0:0:0:
192,0,92355,1,0,0:0:0:0:
320,0,92449,1,0,0:0:0:0:
64,0,92543,1,0,0:0:0:0:
192,0,92543,1,0,0:0:0:0:
320,0,92543,1,0,0:0:0:0:
448,0,92543,1,0,0:0:0:0:
64,0,92636,1,0,0:0:0:0:
192,0,92730,1,0,0:0:0:0:
448,0,92730,1,0,0:0:0:0:
320,0,92824,1,0,0:0:0:0:
64,0,92918,1,0,0:0:0:0:
192,0,92918,1,0,0:0:0:0:
320,0,92918,1,0,0:0:0:0:
448,0,92918,1,0,0:0:0:0:
448,0,93011,1,0,0:0:0:0:
64,0,93105,1,0,0:0:0:0:
320,0,93105,1,0,0:0:0:0:
192,0,93199,1,0,0:0:0:0:
64,0,93293,1,0,0:0:0:0:
192,0,93293,1,0,0:0:0:0:
320,0,93293,1,0,0:0:0:0:
448,0,93293,1,0,0:0:0:0:
448,0,93386,1,0,0:0:0:0:
64,0,93480,1,0,0:0:0:0:
192,0,93480,1,0,0:0:0:0:
320,0,93574,1,0,0:0:0:0:
64,0,93668,1,0,0:0:0:0:
192,0,93668,1,0,0:0:0:0:
320,0,93668,1,0,0:0:0:0:
448,0,93668,1,0,0:0:0:0:
64,0,93761,1,0,0:0:0:0:
320,0,93855,1,0,0:0:0:0:
448,0,93855,1,0,0:0:0:0:
192,0,93949,1,0,0:0:0:0:
64,0,94043,1,0,0:0:0:0:
192,0,94043,1,0,0:0:0:0:
320,0,94043,1,0,0:0:0:0:
448,0,94043,1,0,0:0:0:0:
320,0,94136,1,0,0:0:0:0:
192,0,94230,1,0,0:0:0:0:
448,0,94230,1,0,0:0:0:0:
64,0,94324,1,0,0:0:0:0:
64,0,94418,1,0,0:0:0:0:
192,0,94418,1,0,0:0:0:0:
320,0,94418,1,0,0:0:0:0:
448,0,94418,1,0,0:0:0:0:
192,0,94511,1,0,0:0:0:0:
64,0,94605,1,0,0:0:0:0:
448,0,94605,1,0,0:0:0:0:
320,0,94699,1,0,0:0:0:0:
64,0,94793,1,0,0:0:0:0:
192,0,94793,1,0,0:0:0:0:
320,0,94793,1,0,0:0:0:0:
448,0,94793,1,0,0:0:0:0:
64,0,94886,1,0,0:0:0:0:
320,0,94980,1,0,0:0:0:0:
448,0,94980,1,0,0:0:0:0:
192,0,95074,1,0,0:0:0:0:
64,0,95168,1,0,0:0:0:0:
192,0,95168,1,0,0:0:0:0:
320,0,95168,1,0,0:0:0:0:
448,0,95168,1,0,0:0:0:0:
448,0,95261,1,0,0:0:0:0:
64,0,95355,1,0,0:0:0:0:
192,0,95355,1,0,0:0:0:0:
320,0,95449,1,0,0:0:0:0:
64,0,95543,1,0,0:0:0:0:
192,0,95543,1,0,0:0:0:0:
320,0,95543,1,0,0:0:0:0:
448,0,95543,1,0,0:0:0:0:
448,0,95636,1,0,0:0:0:0:
64,0,95730,1,0,0:0:0:0:
192,0,95730,1,0,0:0:0:0:
64,0,95824,1,0,0:0:0:0:
192,0,95824,1,0,0:0:0:0:
320,0,95824,1,0,0:0:0:0:
448,0,95824,1,0,0:0:0:0:
448,0,95918,1,0,0:0:0:0:
64,0,96011,1,0,0:0:0:0:
192,0,96011,1,0,0:0:0:0:
64,0,96105,1,0,0:0:0:0:
192,0,96105,1,0,0:0:0:0:
320,0,96105,1,0,0:0:0:0:
448,0,96105,1,0,0:0:0:0:
448,0,96199,1,0,0:0:0:0:
64,0,96293,1,0,0:0:0:0:
192,0,96293,1,0,0:0:0:0:
320,0,96293,1,0,0:0:0:0:
64,0,96386,1,0,0:0:0:0:
448,0,96480,1,0,0:0:0:0:
320,0,96511,1,0,0:0:0:0:
192,0,96543,1,0,0:0:0:0:
64,0,96574,1,0,0:0:0:0:
192,0,96668,1,0,0:0:0:0:
320,0,96668,1,0,0:0:0:0:
448,0,96668,1,0,0:0:0:0:
192,0,96761,1,0,0:0:0:0:
320,0,96761,1,0,0:0:0:0:
448,0,96761,1,0,0:0:0:0:
64,0,96855,1,0,0:0:0:0:
192,0,96902,1,0,0:0:0:0:
320,0,96949,1,0,0:0:0:0:
448,0,96996,1,0,0:0:0:0:
64,0,97043,1,0,0:0:0:0:
192,0,97043,1,0,0:0:0:0:
320,0,97043,1,0,0:0:0:0:
192,0,97136,1,0,0:0:0:0:
320,0,97230,1,0,0:0:0:0:
448,0,97230,1,0,0:0:0:0:
192,0,97324,1,0,0:0:0:0:
64,0,97418,1,0,0:0:0:0:
192,0,97418,1,0,0:0:0:0:
320,0,97418,1,0,0:0:0:0:
448,0,97418,1,0,0:0:0:0:
448,0,97511,1,0,0:0:0:0:
64,0,97605,1,0,0:0:0:0:
320,0,97605,1,0,0:0:0:0:
192,0,97699,1,0,0:0:0:0:
64,0,97793,1,0,0:0:0:0:
192,0,97793,1,0,0:0:0:0:
320,0,97793,1,0,0:0:0:0:
448,0,97793,1,0,0:0:0:0:
448,0,97886,1,0,0:0:0:0:
64,0,97980,1,0,0:0:0:0:
192,0,97980,1,0,0:0:0:0:
320,0,98074,1,0,0:0:0:0:
64,0,98168,1,0,0:0:0:0:
192,0,98168,1,0,0:0:0:0:
320,0,98168,1,0,0:0:0:0:
448,0,98168,1,0,0:0:0:0:
64,0,98261,1,0,0:0:0:0:
320,0,98355,1,0,0:0:0:0:
448,0,98355,1,0,0:0:0:0:
192,0,98449,1,0,0:0:0:0:
64,0,98543,1,0,0:0:0:0:
192,0,98543,1,0,0:0:0:0:
320,0,98543,1,0,0:0:0:0:
448,0,98543,1,0,0:0:0:0:
448,0,98636,1,0,0:0:0:0:
64,0,98730,1,0,0:0:0:0:
192,0,98730,1,0,0:0:0:0:
448,0,98824,1,0,0:0:0:0:
64,0,98918,1,0,0:0:0:0:
192,0,98918,1,0,0:0:0:0:
320,0,98918,1,0,0:0:0:0:
448,0,98918,1,0,0:0:0:0:
64,0,99011,1,0,0:0:0:0:
192,0,99105,1,0,0:0:0:0:
320,0,99105,1,0,0:0:0:0:
448,0,99199,1,0,0:0:0:0:
64,0,99293,1,0,0:0:0:0:
192,0,99293,1,0,0:0:0:0:
320,0,99293,1,0,0:0:0:0:
448,0,99293,1,0,0:0:0:0:
64,0,99386,1,0,0:0:0:0:
320,0,99480,1,0,0:0:0:0:
448,0,99480,1,0,0:0:0:0:
192,0,99574,1,0,0:0:0:0:
64,0,99668,1,0,0:0:0:0:
192,0,99668,1,0,0:0:0:0:
320,0,99668,1,0,0:0:0:0:
448,0,99668,1,0,0:0:0:0:
448,0,99761,1,0,0:0:0:0:
64,0,99855,1,0,0:0:0:0:
192,0,99855,1,0,0:0:0:0:
320,0,99949,1,0,0:0:0:0:
64,0,100043,1,0,0:0:0:0:
192,0,100043,1,0,0:0:0:0:
320,0,100043,1,0,0:0:0:0:
448,0,100043,1,0,0:0:0:0:
192,0,100136,1,0,0:0:0:0:
320,0,100230,1,0,0:0:0:0:
448,0,100230,1,0,0:0:0:0:
192,0,100324,1,0,0:0:0:0:
64,0,100418,1,0,0:0:0:0:
192,0,100418,1,0,0:0:0:0:
320,0,100418,1,0,0:0:0:0:
448,0,100418,1,0,0:0:0:0:
448,0,100511,1,0,0:0:0:0:
64,0,100605,1,0,0:0:0:0:
320,0,100605,1,0,0:0:0:0:
192,0,100699,1,0,0:0:0:0:
64,0,100793,1,0,0:0:0:0:
192,0,100793,1,0,0:0:0:0:
320,0,100793,1,0,0:0:0:0:
448,0,100793,1,0,0:0:0:0:
448,0,100886,1,0,0:0:0:0:
64,0,100980,1,0,0:0:0:0:
192,0,100980,1,0,0:0:0:0:
320,0,101074,1,0,0:0:0:0:
64,0,101168,1,0,0:0:0:0:
192,0,101168,1,0,0:0:0:0:
320,0,101168,1,0,0:0:0:0:
448,0,101168,1,0,0:0:0:0:
64,0,101261,1,0,0:0:0:0:
320,0,101355,1,0,0:0:0:0:
448,0,101355,1,0,0:0:0:0:
192,0,101449,1,0,0:0:0:0:
64,0,101543,1,0,0:0:0:0:
192,0,101543,1,0,0:0:0:0:
320,0,101543,1,0,0:0:0:0:
448,0,101543,1,0,0:0:0:0:
448,0,101636,1,0,0:0:0:0:
64,0,101730,1,0,0:0:0:0:
192,0,101730,1,0,0:0:0:0:
448,0,101824,1,0,0:0:0:0:
64,0,101918,1,0,0:0:0:0:
192,0,101918,1,0,0:0:0:0:
320,0,101918,1,0,0:0:0:0:
448,0,101918,1,0,0:0:0:0:
64,0,102011,1,0,0:0:0:0:
192,0,102105,1,0,0:0:0:0:
320,0,102105,1,0,0:0:0:0:
448,0,102199,1,0,0:0:0:0:
64,0,102293,1,0,0:0:0:0:
192,0,102293,1,0,0:0:0:0:
320,0,102293,1,0,0:0:0:0:
448,0,102293,1,0,0:0:0:0:
64,0,102386,1,0,0:0:0:0:
320,0,102480,1,0,0:0:0:0:
448,0,102480,1,0,0:0:0:0:
192,0,102574,1,0,0:0:0:0:
64,0,102668,1,0,0:0:0:0:
192,0,102668,1,0,0:0:0:0:
320,0,102668,1,0,0:0:0:0:
448,0,102668,1,0,0:0:0:0:
448,0,102761,1,0,0:0:0:0:
64,0,102855,1,0,0:0:0:0:
192,0,102855,1,0,0:0:0:0:
320,0,102949,1,0,0:0:0:0:
64,0,103043,1,0,0:0:0:0:
192,0,103043,1,0,0:0:0:0:
320,0,103043,1,0,0:0:0:0:
448,0,103043,1,0,0:0:0:0:
64,0,103136,1,0,0:0:0:0:
320,0,103230,1,0,0:0:0:0:
448,0,103230,1,0,0:0:0:0:
64,0,103324,1,0,0:0:0:0:
64,0,103418,1,0,0:0:0:0:
192,0,103418,1,0,0:0:0:0:
320,0,103418,1,0,0:0:0:0:
448,0,103418,1,0,0:0:0:0:
448,0,103511,1,0,0:0:0:0:
192,0,103605,1,0,0:0:0:0:
320,0,103605,1,0,0:0:0:0:
64,0,103699,1,0,0:0:0:0:
64,0,103793,1,0,0:0:0:0:
192,0,103793,1,0,0:0:0:0:
320,0,103793,1,0,0:0:0:0:
448,0,103793,1,0,0:0:0:0:
448,0,103886,1,0,0:0:0:0:
64,0,103980,1,0,0:0:0:0:
192,0,103980,1,0,0:0:0:0:
320,0,104074,1,0,0:0:0:0:
64,0,104168,1,0,0:0:0:0:
192,0,104168,1,0,0:0:0:0:
320,0,104168,1,0,0:0:0:0:
448,0,104168,1,0,0:0:0:0:
64,0,104261,1,0,0:0:0:0:
320,0,104355,1,0,0:0:0:0:
448,0,104355,1,0,0:0:0:0:
192,0,104449,1,0,0:0:0:0:
64,0,104543,1,0,0:0:0:0:
192,0,104543,1,0,0:0:0:0:
320,0,104543,1,0,0:0:0:0:
448,0,104543,1,0,0:0:0:0:
320,0,104636,1,0,0:0:0:0:
64,0,104730,1,0,0:0:0:0:
192,0,104730,1,0,0:0:0:0:
320,0,104824,1,0,0:0:0:0:
64,0,104918,1,0,0:0:0:0:
192,0,104918,1,0,0:0:0:0:
320,0,104918,1,0,0:0:0:0:
448,0,104918,1,0,0:0:0:0:
64,0,105011,1,0,0:0:0:0:
192,0,105105,1,0,0:0:0:0:
448,0,105105,1,0,0:0:0:0:
320,0,105199,1,0,0:0:0:0:
64,0,105293,1,0,0:0:0:0:
192,0,105293,1,0,0:0:0:0:
320,0,105293,1,0,0:0:0:0:
448,0,105293,1,0,0:0:0:0:
64,0,105386,1,0,0:0:0:0:
320,0,105480,1,0,0:0:0:0:
448,0,105480,1,0,0:0:0:0:
192,0,105574,1,0,0:0:0:0:
64,0,105668,1,0,0:0:0:0:
192,0,105668,1,0,0:0:0:0:
320,0,105668,1,0,0:0:0:0:
448,0,105668,1,0,0:0:0:0:
448,0,105761,1,0,0:0:0:0:
64,0,105855,1,0,0:0:0:0:
192,0,105855,1,0,0:0:0:0:
320,0,105949,1,0,0:0:0:0:
64,0,106043,1,0,0:0:0:0:
192,0,106043,1,0,0:0:0:0:
320,0,106043,1,0,0:0:0:0:
448,0,106043,1,0,0:0:0:0:
192,0,106136,1,0,0:0:0:0:
320,0,106230,1,0,0:0:0:0:
448,0,106230,1,0,0:0:0:0:
192,0,106324,1,0,0:0:0:0:
64,0,106418,1,0,0:0:0:0:
192,0,106418,1,0,0:0:0:0:
320,0,106418,1,0,0:0:0:0:
448,0,106418,1,0,0:0:0:0:
320,0,106511,1,0,0:0:0:0:
64,0,106605,1,0,0:0:0:0:
448,0,106605,1,0,0:0:0:0:
192,0,106699,1,0,0:0:0:0:
64,0,106793,1,0,0:0:0:0:
192,0,106793,1,0,0:0:0:0:
320,0,106793,1,0,0:0:0:0:
448,0,106793,1,0,0:0:0:0:
448,0,106886,1,0,0:0:0:0:
64,0,106980,1,0,0:0:0:0:
192,0,106980,1,0,0:0:0:0:
320,0,107074,1,0,0:0:0:0:
64,0,107168,1,0,0:0:0:0:
192,0,107168,1,0,0:0:0:0:
320,0,107168,1,0,0:0:0:0:
448,0,107168,1,0,0:0:0:0:
64,0,107261,1,0,0:0:0:0:
320,0,107355,1,0,0:0:0:0:
448,0,107355,1,0,0:0:0:0:
192,0,107449,1,0,0:0:0:0:
64,0,107543,1,0,0:0:0:0:
320,0,107543,1,0,0:0:0:0:
448,0,107543,1,0,0:0:0:0:
64,0,107636,1,0,0:0:0:0:
320,0,107636,1,0,0:0:0:0:
448,0,107636,1,0,0:0:0:0:
64,0,107824,1,0,0:0:0:0:
320,0,107824,1,0,0:0:0:0:
448,0,107824,1,0,0:0:0:0:
64,0,107918,1,0,0:0:0:0:
192,0,107949,1,0,0:0:0:0:
320,0,107980,1,0,0:0:0:0:
448,0,108011,1,0,0:0:0:0:
64,0,108105,1,0,0:0:0:0:
320,0,108105,1,0,0:0:0:0:
448,0,108105,1,0,0:0:0:0:
64,0,108293,1,0,0:0:0:0:
320,0,108293,1,0,0:0:0:0:
448,0,108293,1,0,0:0:0:0:
64,0,108386,1,0,0:0:0:0:
320,0,108386,1,0,0:0:0:0:
448,0,108386,1,0,0:0:0:0:
64,0,108574,1,0,0:0:0:0:
320,0,108574,1,0,0:0:0:0:
448,0,108574,1,0,0:0:0:0:
192,0,108668,1,0,0:0:0:0:
320,0,108761,1,0,0:0:0:0:
448,0,108761,1,0,0:0:0:0:
64,0,108855,1,0,0:0:0:0:
192,0,108902,1,0,0:0:0:0:
320,0,108949,1,0,0:0:0:0:
448,0,108996,1,0,0:0:0:0:
64,0,109043,1,0,0:0:0:0:
192,0,109043,1,0,0:0:0:0:
320,0,109043,1,0,0:0:0:0:
192,0,109136,1,0,0:0:0:0:
320,0,109230,1,0,0:0:0:0:
448,0,109230,1,0,0:0:0:0:
192,0,109324,1,0,0:0:0:0:
64,0,109418,1,0,0:0:0:0:
192,0,109418,1,0,0:0:0:0:
320,0,109418,1,0,0:0:0:0:
448,0,109418,1,0,0:0:0:0:
448,0,109511,1,0,0:0:0:0:
64,0,109605,1,0,0:0:0:0:
320,0,109605,1,0,0:0:0:0:
192,0,109699,1,0,0:0:0:0:
64,0,109793,1,0,0:0:0:0:
192,0,109793,1,0,0:0:0:0:
320,0,109793,1,0,0:0:0:0:
448,0,109793,1,0,0:0:0:0:
448,0,109886,1,0,0:0:0:0:
64,0,109980,1,0,0:0:0:0:
192,0,109980,1,0,0:0:0:0:
320,0,110074,1,0,0:0:0:0:
64,0,110168,1,0,0:0:0:0:
192,0,110168,1,0,0:0:0:0:
320,0,110168,1,0,0:0:0:0:
448,0,110168,1,0,0:0:0:0:
64,0,110261,1,0,0:0:0:0:
320,0,110355,1,0,0:0:0:0:
448,0,110355,1,0,0:0:0:0:
192,0,110449,1,0,0:0:0:0:
64,0,110543,1,0,0:0:0:0:
192,0,110543,1,0,0:0:0:0:
320,0,110543,1,0,0:0:0:0:
448,0,110543,1,0,0:0:0:0:
448,0,110636,1,0,0:0:0:0:
64,0,110730,1,0,0:0:0:0:
192,0,110730,1,0,0:0:0:0:
448,0,110824,1,0,0:0:0:0:
64,0,110918,1,0,0:0:0:0:
192,0,110918,1,0,0:0:0:0:
320,0,110918,1,0,0:0:0:0:
448,0,110918,1,0,0:0:0:0:
64,0,111011,1,0,0:0:0:0:
192,0,111105,1,0,0:0:0:0:
320,0,111105,1,0,0:0:0:0:
448,0,111199,1,0,0:0:0:0:
64,0,111293,1,0,0:0:0:0:
192,0,111293,1,0,0:0:0:0:
320,0,111293,1,0,0:0:0:0:
448,0,111293,1,0,0:0:0:0:
64,0,111386,1,0,0:0:0:0:
320,0,111480,1,0,0:0:0:0:
448,0,111480,1,0,0:0:0:0:
192,0,111574,1,0,0:0:0:0:
64,0,111668,1,0,0:0:0:0:
192,0,111668,1,0,0:0:0:0:
320,0,111668,1,0,0:0:0:0:
448,0,111668,1,0,0:0:0:0:
448,0,111761,1,0,0:0:0:0:
64,0,111855,1,0,0:0:0:0:
192,0,111855,1,0,0:0:0:0:
320,0,111949,1,0,0:0:0:0:
64,0,112043,1,0,0:0:0:0:
192,0,112043,1,0,0:0:0:0:
320,0,112043,1,0,0:0:0:0:
448,0,112043,1,0,0:0:0:0:
192,0,112136,1,0,0:0:0:0:
320,0,112230,1,0,0:0:0:0:
448,0,112230,1,0,0:0:0:0:
192,0,112324,1,0,0:0:0:0:
64,0,112418,1,0,0:0:0:0:
192,0,112418,1,0,0:0:0:0:
320,0,112418,1,0,0:0:0:0:
448,0,112418,1,0,0:0:0:0:
448,0,112511,1,0,0:0:0:0:
64,0,112605,1,0,0:0:0:0:
320,0,112605,1,0,0:0:0:0:
192,0,112699,1,0,0:0:0:0:
64,0,112793,1,0,0:0:0:0:
192,0,112793,1,0,0:0:0:0:
320,0,112793,1,0,0:0:0:0:
448,0,112793,1,0,0:0:0:0:
448,0,112886,1,0,0:0:0:0:
64,0,112980,1,0,0:0:0:0:
192,0,112980,1,0,0:0:0:0:
320,0,113074,1,0,0:0:0:0:
64,0,113168,1,0,0:0:0:0:
192,0,113168,1,0,0:0:0:0:
320,0,113168,1,0,0:0:0:0:
448,0,113168,1,0,0:0:0:0:
64,0,113261,1,0,0:0:0:0:
320,0,113355,1,0,0:0:0:0:
448,0,113355,1,0,0:0:0:0:
192,0,113449,1,0,0:0:0:0:
64,0,113543,1,0,0:0:0:0:
192,0,113543,1,0,0:0:0:0:
320,0,113543,1,0,0:0:0:0:
448,0,113543,1,0,0:0:0:0:
448,0,113636,1,0,0:0:0:0:
64,0,113730,1,0,0:0:0:0:
192,0,113730,1,0,0:0:0:0:
448,0,113824,1,0,0:0:0:0:
64,0,113918,1,0,0:0:0:0:
192,0,113918,1,0,0:0:0:0:
320,0,113918,1,0,0:0:0:0:
448,0,113918,1,0,0:0:0:0:
64,0,114011,1,0,0:0:0:0:
192,0,114105,1,0,0:0:0:0:
320,0,114105,1,0,0:0:0:0:
448,0,114199,1,0,0:0:0:0:
64,0,114293,1,0,0:0:0:0:
192,0,114293,1,0,0:0:0:0:
320,0,114293,1,0,0:0:0:0:
448,0,114293,1,0,0:0:0:0:
64,0,114386,1,0,0:0:0:0:
320,0,114480,1,0,0:0:0:0:
448,0,114480,1,0,0:0:0:0:
192,0,114574,1,0,0:0:0:0:
64,0,114668,1,0,0:0:0:0:
192,0,114668,1,0,0:0:0:0:
320,0,114668,1,0,0:0:0:0:
448,0,114668,1,0,0:0:0:0:
448,0,114761,1,0,0:0:0:0:
64,0,114855,1,0,0:0:0:0:
192,0,114855,1,0,0:0:0:0:
320,0,114949,1,0,0:0:0:0:
64,0,115043,1,0,0:0:0:0:
192,0,115043,1,0,0:0:0:0:
320,0,115043,1,0,0:0:0:0:
448,0,115043,1,0,0:0:0:0:
64,0,115136,1,0,0:0:0:0:
320,0,115230,1,0,0:0:0:0:
448,0,115230,1,0,0:0:0:0:
64,0,115324,1,0,0:0:0:0:
64,0,115418,1,0,0:0:0:0:
192,0,115418,1,0,0:0:0:0:
320,0,115418,1,0,0:0:0:0:
448,0,115418,1,0,0:0:0:0:
448,0,115511,1,0,0:0:0:0:
192,0,115605,1,0,0:0:0:0:
320,0,115605,1,0,0:0:0:0:
64,0,115699,1,0,0:0:0:0:
64,0,115793,1,0,0:0:0:0:
192,0,115793,1,0,0:0:0:0:
320,0,115793,1,0,0:0:0:0:
448,0,115793,1,0,0:0:0:0:
448,0,115886,1,0,0:0:0:0:
64,0,115980,1,0,0:0:0:0:
192,0,115980,1,0,0:0:0:0:
320,0,116074,1,0,0:0:0:0:
64,0,116168,1,0,0:0:0:0:
192,0,116168,1,0,0:0:0:0:
320,0,116168,1,0,0:0:0:0:
448,0,116168,1,0,0:0:0:0:
64,0,116261,1,0,0:0:0:0:
320,0,116355,1,0,0:0:0:0:
448,0,116355,1,0,0:0:0:0:
192,0,116449,1,0,0:0:0:0:
64,0,116543,1,0,0:0:0:0:
192,0,116543,1,0,0:0:0:0:
320,0,116543,1,0,0:0:0:0:
448,0,116543,1,0,0:0:0:0:
320,0,116636,1,0,0:0:0:0:
64,0,116730,1,0,0:0:0:0:
192,0,116730,1,0,0:0:0:0:
320,0,116824,1,0,0:0:0:0:
64,0,116918,1,0,0:0:0:0:
192,0,116918,1,0,0:0:0:0:
320,0,116918,1,0,0:0:0:0:
448,0,116918,1,0,0:0:0:0:
64,0,117011,1,0,0:0:0:0:
192,0,117105,1,0,0:0:0:0:
448,0,117105,1,0,0:0:0:0:
320,0,117199,1,0,0:0:0:0:
64,0,117293,1,0,0:0:0:0:
192,0,117293,1,0,0:0:0:0:
320,0,117293,1,0,0:0:0:0:
448,0,117293,1,0,0:0:0:0:
64,0,117386,1,0,0:0:0:0:
320,0,117480,1,0,0:0:0:0:
448,0,117480,1,0,0:0:0:0:
192,0,117574,1,0,0:0:0:0:
64,0,117668,1,0,0:0:0:0:
192,0,117668,1,0,0:0:0:0:
320,0,117668,1,0,0:0:0:0:
448,0,117668,1,0,0:0:0:0:
448,0,117761,1,0,0:0:0:0:
64,0,117855,1,0,0:0:0:0:
192,0,117855,1,0,0:0:0:0:
320,0,117949,1,0,0:0:0:0:
64,0,118043,1,0,0:0:0:0:
192,0,118043,1,0,0:0:0:0:
320,0,118043,1,0,0:0:0:0:
448,0,118043,1,0,0:0:0:0:
192,0,118136,1,0,0:0:0:0:
320,0,118230,1,0,0:0:0:0:
448,0,118230,1,0,0:0:0:0:
192,0,118324,1,0,0:0:0:0:
64,0,118418,1,0,0:0:0:0:
192,0,118418,1,0,0:0:0:0:
320,0,118418,1,0,0:0:0:0:
448,0,118418,1,0,0:0:0:0:
320,0,118511,1,0,0:0:0:0:
64,0,118605,1,0,0:0:0:0:
448,0,118605,1,0,0:0:0:0:
192,0,118699,1,0,0:0:0:0:
64,0,118793,1,0,0:0:0:0:
192,0,118793,1,0,0:0:0:0:
320,0,118793,1,0,0:0:0:0:
448,0,118793,1,0,0:0:0:0:
448,0,118886,1,0,0:0:0:0:
64,0,118980,1,0,0:0:0:0:
192,0,118980,1,0,0:0:0:0:
320,0,119074,1,0,0:0:0:0:
64,0,119168,1,0,0:0:0:0:
192,0,119168,1,0,0:0:0:0:
320,0,119168,1,0,0:0:0:0:
448,0,119168,1,0,0:0:0:0:
64,0,119261,1,0,0:0:0:0:
320,0,119355,1,0,0:0:0:0:
448,0,119355,1,0,0:0:0:0:
192,0,119449,1,0,0:0:0:0:
64,0,119543,1,0,0:0:0:0:
192,0,119543,1,0,0:0:0:0:
320,0,119543,1,0,0:0:0:0:
448,0,119543,1,0,0:0:0:0:
448,0,119636,1,0,0:0:0:0:
64,0,119730,1,0,0:0:0:0:
192,0,119730,1,0,0:0:0:0:
64,0,119824,1,0,0:0:0:0:
192,0,119824,1,0,0:0:0:0:
320,0,119824,1,0,0:0:0:0:
448,0,119824,1,0,0:0:0:0:
448,0,119918,1,0,0:0:0:0:
64,0,120011,1,0,0:0:0:0:
192,0,120011,1,0,0:0:0:0:
64,0,120105,1,0,0:0:0:0:
192,0,120105,1,0,0:0:0:0:
320,0,120105,1,0,0:0:0:0:
448,0,120105,1,0,0:0:0:0:
448,0,120199,1,0,0:0:0:0:
64,0,120293,1,0,0:0:0:0:
192,0,120293,1,0,0:0:0:0:
320,0,120293,1,0,0:0:0:0:
64,0,120386,1,0,0:0:0:0:
192,0,120480,1,0,0:0:0:0:
320,0,120480,1,0,0:0:0:0:
448,0,120574,1,0,0:0:0:0:
64,0,120668,1,0,0:0:0:0:
192,0,120668,1,0,0:0:0:0:
320,0,120668,1,0,0:0:0:0:
64,0,120761,1,0,0:0:0:0:
192,0,120761,1,0,0:0:0:0:
320,0,120761,1,0,0:0:0:0:
448,0,120855,1,0,0:0:0:0:
320,0,120902,1,0,0:0:0:0:
192,0,120949,1,0,0:0:0:0:
64,0,120996,1,0,0:0:0:0:
192,0,121043,1,0,0:0:0:0:
320,0,121043,1,0,0:0:0:0:
448,0,121043,1,0,0:0:0:0:
64,0,121136,1,0,0:0:0:0:
448,0,121230,128,0,121324:0:0:0:0:
320,0,121261,128,0,121324:0:0:0:0:
64,0,121324,1,0,0:0:0:0:
192,0,121324,1,0,0:0:0:0:
64,0,121418,1,0,0:0:0:0:
448,0,121511,128,0,121605:0:0:0:0:
320,0,121543,128,0,121605:0:0:0:0:
64,0,121605,1,0,0:0:0:0:
192,0,121605,1,0,0:0:0:0:
192,0,121699,1,0,0:0:0:0:
64,0,121793,1,0,0:0:0:0:
320,0,121793,1,0,0:0:0:0:
448,0,121793,1,0,0:0:0:0:
320,0,121886,1,0,0:0:0:0:
64,0,121980,128,0,122074:0:0:0:0:
192,0,122011,128,0,122074:0:0:0:0:
320,0,122074,1,0,0:0:0:0:
448,0,122074,1,0,0:0:0:0:
320,0,122168,1,0,0:0:0:0:
64,0,122261,128,0,122355:0:0:0:0:
192,0,122293,128,0,122355:0:0:0:0:
320,0,122355,1,0,0:0:0:0:
448,0,122355,1,0,0:0:0:0:
448,0,122449,1,0,0:0:0:0:
64,0,122543,1,0,0:0:0:0:
192,0,122543,1,0,0:0:0:0:
320,0,122543,1,0,0:0:0:0:
192,0,122636,1,0,0:0:0:0:
448,0,122730,128,0,122824:0:0:0:0:
320,0,122761,128,0,122824:0:0:0:0:
64,0,122824,1,0,0:0:0:0:
192,0,122824,1,0,0:0:0:0:
192,0,122918,1,0,0:0:0:0:
448,0,123011,128,0,123105:0:0:0:0:
320,0,123043,128,0,123105:0:0:0:0:
64,0,123105,1,0,0:0:0:0:
192,0,123105,1,0,0:0:0:0:
64,0,123199,1,0,0:0:0:0:
192,0,123293,1,0,0:0:0:0:
320,0,123293,1,0,0:0:0:0:
448,0,123293,1,0,0:0:0:0:
448,0,123386,1,0,0:0:0:0:
64,0,123480,128,0,123574:0:0:0:0:
192,0,123511,128,0,123574:0:0:0:0:
320,0,123574,1,0,0:0:0:0:
448,0,123574,1,0,0:0:0:0:
448,0,123668,1,0,0:0:0:0:
64,0,123761,128,0,123855:0:0:0:0:
192,0,123793,128,0,123855:0:0:0:0:
320,0,123824,128,0,123855:0:0:0:0:
448,0,123855,1,0,0:0:0:0:
320,0,123949,1,0,0:0:0:0:
64,0,124043,1,0,0:0:0:0:
192,0,124043,1,0,0:0:0:0:
448,0,124043,1,0,0:0:0:0:
64,0,124136,1,0,0:0:0:0:
448,0,124230,128,0,124324:0:0:0:0:
320,0,124261,128,0,124324:0:0:0:0:
64,0,124324,1,0,0:0:0:0:
192,0,124324,1,0,0:0:0:0:
64,0,124418,1,0,0:0:0:0:
448,0,124511,128,0,124605:0:0:0:0:
320,0,124543,128,0,124605:0:0:0:0:
64,0,124605,1,0,0:0:0:0:
192,0,124605,1,0,0:0:0:0:
192,0,124699,1,0,0:0:0:0:
64,0,124793,1,0,0:0:0:0:
320,0,124793,1,0,0:0:0:0:
448,0,124793,1,0,0:0:0:0:
320,0,124886,1,0,0:0:0:0:
64,0,124980,128,0,125074:0:0:0:0:
192,0,125011,128,0,125074:0:0:0:0:
320,0,125074,1,0,0:0:0:0:
448,0,125074,1,0,0:0:0:0:
320,0,125168,1,0,0:0:0:0:
64,0,125261,128,0,125355:0:0:0:0:
192,0,125293,128,0,125355:0:0:0:0:
320,0,125355,1,0,0:0:0:0:
448,0,125355,1,0,0:0:0:0:
448,0,125449,1,0,0:0:0:0:
64,0,125543,1,0,0:0:0:0:
192,0,125543,1,0,0:0:0:0:
320,0,125543,1,0,0:0:0:0:
192,0,125636,1,0,0:0:0:0:
448,0,125730,128,0,125824:0:0:0:0:
320,0,125761,128,0,125824:0:0:0:0:
64,0,125824,1,0,0:0:0:0:
192,0,125824,1,0,0:0:0:0:
192,0,125918,1,0,0:0:0:0:
448,0,126011,128,0,126105:0:0:0:0:
320,0,126043,128,0,126105:0:0:0:0:
64,0,126105,1,0,0:0:0:0:
192,0,126105,1,0,0:0:0:0:
64,0,126199,1,0,0:0:0:0:
192,0,126293,1,0,0:0:0:0:
320,0,126293,1,0,0:0:0:0:
448,0,126293,1,0,0:0:0:0:
448,0,126386,1,0,0:0:0:0:
64,0,126480,128,0,126574:0:0:0:0:
192,0,126511,128,0,126574:0:0:0:0:
320,0,126574,1,0,0:0:0:0:
448,0,126574,1,0,0:0:0:0:
448,0,126668,1,0,0:0:0:0:
64,0,126761,1,0,0:0:0:0:
192,0,126793,1,0,0:0:0:0:
320,0,126824,1,0,0:0:0:0:
448,0,126855,1,0,0:0:0:0:
64,0,126886,1,0,0:0:0:0:
192,0,126918,1,0,0:0:0:0:
320,0,126949,128,0,127043:0:0:0:0:
448,0,126949,128,0,127043:0:0:0:0:
64,0,127043,1,0,0:0:0:0:
192,0,127043,1,0,0:0:0:0:
64,0,127136,1,0,0:0:0:0:
448,0,127230,128,0,127324:0:0:0:0:
320,0,127261,128,0,127324:0:0:0:0:
64,0,127324,1,0,0:0:0:0:
192,0,127324,1,0,0:0:0:0:
64,0,127418,1,0,0:0:0:0:
448,0,127511,128,0,127605:0:0:0:0:
320,0,127543,128,0,127605:0:0:0:0:
64,0,127605,1,0,0:0:0:0:
192,0,127605,1,0,0:0:0:0:
192,0,127699,1,0,0:0:0:0:
64,0,127793,1,0,0:0:0:0:
320,0,127793,1,0,0:0:0:0:
448,0,127793,1,0,0:0:0:0:
320,0,127886,1,0,0:0:0:0:
64,0,127980,128,0,128074:0:0:0:0:
192,0,128011,128,0,128074:0:0:0:0:
320,0,128074,1,0,0:0:0:0:
448,0,128074,1,0,0:0:0:0:
320,0,128168,1,0,0:0:0:0:
64,0,128261,128,0,128355:0:0:0:0:
192,0,128293,128,0,128355:0:0:0:0:
320,0,128355,1,0,0:0:0:0:
448,0,128355,1,0,0:0:0:0:
448,0,128449,1,0,0:0:0:0:
64,0,128543,1,0,0:0:0:0:
192,0,128543,1,0,0:0:0:0:
320,0,128543,1,0,0:0:0:0:
192,0,128636,1,0,0:0:0:0:
448,0,128730,128,0,128824:0:0:0:0:
320,0,128761,128,0,128824:0:0:0:0:
64,0,128824,1,0,0:0:0:0:
192,0,128824,1,0,0:0:0:0:
192,0,128918,1,0,0:0:0:0:
448,0,129011,128,0,129105:0:0:0:0:
320,0,129043,128,0,129105:0:0:0:0:
64,0,129105,1,0,0:0:0:0:
192,0,129105,1,0,0:0:0:0:
64,0,129199,1,0,0:0:0:0:
192,0,129293,1,0,0:0:0:0:
320,0,129293,1,0,0:0:0:0:
448,0,129293,1,0,0:0:0:0:
448,0,129386,1,0,0:0:0:0:
64,0,129480,128,0,129574:0:0:0:0:
192,0,129511,128,0,129574:0:0:0:0:
320,0,129574,1,0,0:0:0:0:
448,0,129574,1,0,0:0:0:0:
448,0,129668,1,0,0:0:0:0:
64,0,129761,128,0,129855:0:0:0:0:
192,0,129793,128,0,129855:0:0:0:0:
320,0,129824,128,0,129855:0:0:0:0:
448,0,129855,1,0,0:0:0:0:
320,0,129949,1,0,0:0:0:0:
64,0,130043,1,0,0:0:0:0:
192,0,130043,1,0,0:0:0:0:
448,0,130043,1,0,0:0:0:0:
64,0,130136,1,0,0:0:0:0:
448,0,130230,128,0,130324:0:0:0:0:
320,0,130261,128,0,130324:0:0:0:0:
64,0,130324,1,0,0:0:0:0:
192,0,130324,1,0,0:0:0:0:
64,0,130418,1,0,0:0:0:0:
448,0,130511,128,0,130605:0:0:0:0:
320,0,130543,128,0,130605:0:0:0:0:
64,0,130605,1,0,0:0:0:0:
192,0,130605,1,0,0:0:0:0:
192,0,130699,1,0,0:0:0:0:
64,0,130793,1,0,0:0:0:0:
320,0,130793,1,0,0:0:0:0:
448,0,130793,1,0,0:0:0:0:
320,0,130886,1,0,0:0:0:0:
64,0,130980,128,0,131074:0:0:0:0:
192,0,131011,128,0,131074:0:0:0:0:
320,0,131074,1,0,0:0:0:0:
448,0,131074,1,0,0:0:0:0:
320,0,131168,1,0,0:0:0:0:
64,0,131261,128,0,131355:0:0:0:0:
192,0,131293,128,0,131355:0:0:0:0:
320,0,131355,1,0,0:0:0:0:
448,0,131355,1,0,0:0:0:0:
448,0,131449,1,0,0:0:0:0:
64,0,131543,1,0,0:0:0:0:
320,0,131543,1,0,0:0:0:0:
192,0,131636,1,0,0:0:0:0:
320,0,131730,1,0,0:0:0:0:
64,0,131824,1,0,0:0:0:0:
448,0,131824,1,0,0:0:0:0:
320,0,131918,1,0,0:0:0:0:
192,0,132011,1,0,0:0:0:0:
64,0,132105,1,0,0:0:0:0:
448,0,132105,1,0,0:0:0:0:
320,0,132199,1,0,0:0:0:0:
64,0,132293,1,0,0:0:0:0:
448,0,132293,1,0,0:0:0:0:
192,0,132386,1,0,0:0:0:0:
320,0,132480,128,0,132574:0:0:0:0:
64,0,132668,1,0,0:0:0:0:
192,0,132668,1,0,0:0:0:0:
448,0,132668,1,0,0:0:0:0:
64,0,132855,1,0,0:0:0:0:
320,0,132855,1,0,0:0:0:0:
448,0,132855,1,0,0:0:0:0:
64,0,133043,1,0,0:0:0:0:
192,0,133043,1,0,0:0:0:0:
320,0,133043,1,0,0:0:0:0:
448,0,133043,1,0,0:0:0:0:
192,0,133136,1,0,0:0:0:0:
64,0,133230,1,0,0:0:0:0:
448,0,133230,1,0,0:0:0:0:
320,0,133324,1,0,0:0:0:0:
64,0,133418,1,0,0:0:0:0:
192,0,133418,1,0,0:0:0:0:
320,0,133418,1,0,0:0:0:0:
448,0,133418,1,0,0:0:0:0:
64,0,133511,1,0,0:0:0:0:
192,0,133605,1,0,0:0:0:0:
448,0,133605,1,0,0:0:0:0:
64,0,133699,1,0,0:0:0:0:
64,0,133793,1,0,0:0:0:0:
192,0,133793,1,0,0:0:0:0:
320,0,133793,1,0,0:0:0:0:
448,0,133793,1,0,0:0:0:0:
448,0,133886,1,0,0:0:0:0:
192,0,133980,1,0,0:0:0:0:
320,0,133980,1,0,0:0:0:0:
64,0,134074,1,0,0:0:0:0:
64,0,134168,1,0,0:0:0:0:
192,0,134168,1,0,0:0:0:0:
320,0,134168,1,0,0:0:0:0:
448,0,134168,1,0,0:0:0:0:
448,0,134261,1,0,0:0:0:0:
64,0,134355,1,0,0:0:0:0:
320,0,134355,1,0,0:0:0:0:
448,0,134449,1,0,0:0:0:0:
64,0,134543,1,0,0:0:0:0:
192,0,134543,1,0,0:0:0:0:
320,0,134543,1,0,0:0:0:0:
448,0,134543,1,0,0:0:0:0:
64,0,134636,1,0,0:0:0:0:
192,0,134730,1,0,0:0:0:0:
448,0,134730,1,0,0:0:0:0:
320,0,134824,1,0,0:0:0:0:
64,0,134918,1,0,0:0:0:0:
192,0,134918,1,0,0:0:0:0:
320,0,134918,1,0,0:0:0:0:
448,0,134918,1,0,0:0:0:0:
192,0,135011,1,0,0:0:0:0:
64,0,135105,1,0,0:0:0:0:
448,0,135105,1,0,0:0:0:0:
192,0,135199,1,0,0:0:0:0:
64,0,135293,1,0,0:0:0:0:
192,0,135293,1,0,0:0:0:0:
320,0,135293,1,0,0:0:0:0:
448,0,135293,1,0,0:0:0:0:
448,0,135386,1,0,0:0:0:0:
64,0,135480,1,0,0:0:0:0:
192,0,135480,1,0,0:0:0:0:
320,0,135574,1,0,0:0:0:0:
64,0,135668,1,0,0:0:0:0:
192,0,135668,1,0,0:0:0:0:
320,0,135668,1,0,0:0:0:0:
448,0,135668,1,0,0:0:0:0:
64,0,135761,1,0,0:0:0:0:
320,0,135855,1,0,0:0:0:0:
448,0,135855,1,0,0:0:0:0:
192,0,135949,1,0,0:0:0:0:
64,0,136043,1,0,0:0:0:0:
192,0,136043,1,0,0:0:0:0:
320,0,136043,1,0,0:0:0:0:
448,0,136043,1,0,0:0:0:0:
320,0,136136,1,0,0:0:0:0:
64,0,136230,1,0,0:0:0:0:
448,0,136230,1,0,0:0:0:0:
192,0,136324,1,0,0:0:0:0:
64,0,136418,1,0,0:0:0:0:
192,0,136418,1,0,0:0:0:0:
320,0,136418,1,0,0:0:0:0:
448,0,136418,1,0,0:0:0:0:
448,0,136511,1,0,0:0:0:0:
64,0,136605,1,0,0:0:0:0:
320,0,136605,1,0,0:0:0:0:
448,0,136699,1,0,0:0:0:0:
64,0,136793,1,0,0:0:0:0:
192,0,136793,1,0,0:0:0:0:
320,0,136793,1,0,0:0:0:0:
448,0,136793,1,0,0:0:0:0:
64,0,136886,1,0,0:0:0:0:
192,0,136980,1,0,0:0:0:0:
320,0,136980,1,0,0:0:0:0:
448,0,137074,1,0,0:0:0:0:
64,0,137168,1,0,0:0:0:0:
192,0,137168,1,0,0:0:0:0:
320,0,137168,1,0,0:0:0:0:
448,0,137168,1,0,0:0:0:0:
64,0,137261,1,0,0:0:0:0:
192,0,137355,1,0,0:0:0:0:
448,0,137355,1,0,0:0:0:0:
64,0,137449,1,0,0:0:0:0:
64,0,137543,1,0,0:0:0:0:
192,0,137543,1,0,0:0:0:0:
320,0,137543,1,0,0:0:0:0:
448,0,137543,1,0,0:0:0:0:
448,0,137636,1,0,0:0:0:0:
64,0,137730,1,0,0:0:0:0:
320,0,137730,1,0,0:0:0:0:
192,0,137824,1,0,0:0:0:0:
64,0,137918,1,0,0:0:0:0:
192,0,137918,1,0,0:0:0:0:
320,0,137918,1,0,0:0:0:0:
448,0,137918,1,0,0:0:0:0:
320,0,138011,1,0,0:0:0:0:
64,0,138105,1,0,0:0:0:0:
448,0,138105,1,0,0:0:0:0:
320,0,138199,1,0,0:0:0:0:
64,0,138293,1,0,0:0:0:0:
192,0,138293,1,0,0:0:0:0:
320,0,138293,1,0,0:0:0:0:
448,0,138293,1,0,0:0:0:0:
64,0,138386,1,0,0:0:0:0:
320,0,138480,1,0,0:0:0:0:
448,0,138480,1,0,0:0:0:0:
192,0,138574,1,0,0:0:0:0:
64,0,138668,1,0,0:0:0:0:
192,0,138668,1,0,0:0:0:0:
320,0,138668,1,0,0:0:0:0:
448,0,138668,1,0,0:0:0:0:
448,0,138761,1,0,0:0:0:0:
64,0,138855,1,0,0:0:0:0:
192,0,138855,1,0,0:0:0:0:
320,0,138949,1,0,0:0:0:0:
64,0,139043,1,0,0:0:0:0:
192,0,139043,1,0,0:0:0:0:
320,0,139043,1,0,0:0:0:0:
448,0,139043,1,0,0:0:0:0:
64,0,139136,1,0,0:0:0:0:
192,0,139230,1,0,0:0:0:0:
320,0,139230,1,0,0:0:0:0:
448,0,139324,1,0,0:0:0:0:
64,0,139418,1,0,0:0:0:0:
192,0,139418,1,0,0:0:0:0:
320,0,139418,1,0,0:0:0:0:
448,0,139418,1,0,0:0:0:0:
192,0,139511,1,0,0:0:0:0:
64,0,139605,1,0,0:0:0:0:
320,0,139605,1,0,0:0:0:0:
192,0,139699,1,0,0:0:0:0:
64,0,139793,1,0,0:0:0:0:
192,0,139793,1,0,0:0:0:0:
320,0,139793,1,0,0:0:0:0:
448,0,139793,1,0,0:0:0:0:
320,0,139886,1,0,0:0:0:0:
64,0,139980,1,0,0:0:0:0:
448,0,139980,1,0,0:0:0:0:
192,0,140074,1,0,0:0:0:0:
64,0,140168,1,0,0:0:0:0:
192,0,140168,1,0,0:0:0:0:
320,0,140168,1,0,0:0:0:0:
448,0,140168,1,0,0:0:0:0:
320,0,140261,1,0,0:0:0:0:
192,0,140355,1,0,0:0:0:0:
448,0,140355,1,0,0:0:0:0:
320,0,140449,1,0,0:0:0:0:
64,0,140543,1,0,0:0:0:0:
192,0,140543,1,0,0:0:0:0:
320,0,140543,1,0,0:0:0:0:
448,0,140543,1,0,0:0:0:0:
192,0,140636,1,0,0:0:0:0:
64,0,140730,1,0,0:0:0:0:
320,0,140730,1,0,0:0:0:0:
448,0,140824,1,0,0:0:0:0:
64,0,140918,1,0,0:0:0:0:
192,0,140918,1,0,0:0:0:0:
320,0,140918,1,0,0:0:0:0:
448,0,140918,1,0,0:0:0:0:
64,0,141011,1,0,0:0:0:0:
192,0,141105,1,0,0:0:0:0:
320,0,141105,1,0,0:0:0:0:
64,0,141199,1,0,0:0:0:0:
64,0,141293,1,0,0:0:0:0:
192,0,141293,1,0,0:0:0:0:
320,0,141293,1,0,0:0:0:0:
448,0,141293,1,0,0:0:0:0:
448,0,141386,1,0,0:0:0:0:
64,0,141480,1,0,0:0:0:0:
192,0,141480,1,0,0:0:0:0:
320,0,141574,1,0,0:0:0:0:
64,0,141668,1,0,0:0:0:0:
192,0,141668,1,0,0:0:0:0:
320,0,141668,1,0,0:0:0:0:
448,0,141668,1,0,0:0:0:0:
64,0,141761,1,0,0:0:0:0:
320,0,141855,1,0,0:0:0:0:
448,0,141855,1,0,0:0:0:0:
192,0,141949,1,0,0:0:0:0:
64,0,142043,1,0,0:0:0:0:
192,0,142043,1,0,0:0:0:0:
320,0,142043,1,0,0:0:0:0:
448,0,142043,1,0,0:0:0:0:
448,0,142136,1,0,0:0:0:0:
192,0,142230,1,0,0:0:0:0:
320,0,142230,1,0,0:0:0:0:
64,0,142324,1,0,0:0:0:0:
64,0,142418,1,0,0:0:0:0:
192,0,142418,1,0,0:0:0:0:
320,0,142418,1,0,0:0:0:0:
448,0,142418,1,0,0:0:0:0:
320,0,142511,1,0,0:0:0:0:
192,0,142605,1,0,0:0:0:0:
448,0,142605,1,0,0:0:0:0:
320,0,142699,1,0,0:0:0:0:
64,0,142793,1,0,0:0:0:0:
192,0,142793,1,0,0:0:0:0:
320,0,142793,1,0,0:0:0:0:
448,0,142793,1,0,0:0:0:0:
192,0,142886,1,0,0:0:0:0:
64,0,142980,1,0,0:0:0:0:
448,0,142980,1,0,0:0:0:0:
320,0,143074,1,0,0:0:0:0:
64,0,143168,1,0,0:0:0:0:
192,0,143168,1,0,0:0:0:0:
320,0,143168,1,0,0:0:0:0:
448,0,143168,1,0,0:0:0:0:
192,0,143261,1,0,0:0:0:0:
64,0,143355,1,0,0:0:0:0:
320,0,143355,1,0,0:0:0:0:
192,0,143449,1,0,0:0:0:0:
64,0,143543,1,0,0:0:0:0:
192,0,143543,1,0,0:0:0:0:
320,0,143543,1,0,0:0:0:0:
448,0,143543,1,0,0:0:0:0:
320,0,143636,1,0,0:0:0:0:
192,0,143730,1,0,0:0:0:0:
448,0,143730,1,0,0:0:0:0:
64,0,143824,1,0,0:0:0:0:
64,0,143918,1,0,0:0:0:0:
192,0,143918,1,0,0:0:0:0:
320,0,143918,1,0,0:0:0:0:
448,0,143918,1,0,0:0:0:0:
448,0,144011,1,0,0:0:0:0:
192,0,144105,1,0,0:0:0:0:
320,0,144105,1,0,0:0:0:0:
448,0,144199,1,0,0:0:0:0:
64,0,144293,1,0,0:0:0:0:
192,0,144293,1,0,0:0:0:0:
320,0,144293,1,0,0:0:0:0:
448,0,144293,1,0,0:0:0:0:
64,0,144386,1,0,0:0:0:0:
192,0,144480,1,0,0:0:0:0:
320,0,144480,1,0,0:0:0:0:
64,0,144574,1,0,0:0:0:0:
64,0,144668,1,0,0:0:0:0:
192,0,144668,1,0,0:0:0:0:
320,0,144668,1,0,0:0:0:0:
448,0,144668,1,0,0:0:0:0:
448,0,144761,1,0,0:0:0:0:
192,0,144855,1,0,0:0:0:0:
320,0,144855,1,0,0:0:0:0:
448,0,144949,1,0,0:0:0:0:
64,0,145043,1,0,0:0:0:0:
192,0,145043,1,0,0:0:0:0:
320,0,145043,1,0,0:0:0:0:
448,0,145043,1,0,0:0:0:0:
192,0,145136,1,0,0:0:0:0:
64,0,145230,1,0,0:0:0:0:
448,0,145230,1,0,0:0:0:0:
320,0,145324,1,0,0:0:0:0:
64,0,145418,1,0,0:0:0:0:
192,0,145418,1,0,0:0:0:0:
320,0,145418,1,0,0:0:0:0:
448,0,145418,1,0,0:0:0:0:
64,0,145511,1,0,0:0:0:0:
192,0,145605,1,0,0:0:0:0:
448,0,145605,1,0,0:0:0:0:
64,0,145699,1,0,0:0:0:0:
64,0,145793,1,0,0:0:0:0:
192,0,145793,1,0,0:0:0:0:
320,0,145793,1,0,0:0:0:0:
448,0,145793,1,0,0:0:0:0:
448,0,145886,1,0,0:0:0:0:
192,0,145980,1,0,0:0:0:0:
320,0,145980,1,0,0:0:0:0:
64,0,146074,1,0,0:0:0:0:
64,0,146168,1,0,0:0:0:0:
192,0,146168,1,0,0:0:0:0:
320,0,146168,1,0,0:0:0:0:
448,0,146168,1,0,0:0:0:0:
448,0,146261,1,0,0:0:0:0:
64,0,146355,1,0,0:0:0:0:
320,0,146355,1,0,0:0:0:0:
448,0,146449,1,0,0:0:0:0:
64,0,146543,1,0,0:0:0:0:
192,0,146543,1,0,0:0:0:0:
320,0,146543,1,0,0:0:0:0:
448,0,146543,1,0,0:0:0:0:
64,0,146636,1,0,0:0:0:0:
192,0,146730,1,0,0:0:0:0:
448,0,146730,1,0,0:0:0:0:
320,0,146824,1,0,0:0:0:0:
64,0,146918,1,0,0:0:0:0:
192,0,146918,1,0,0:0:0:0:
320,0,146918,1,0,0:0:0:0:
448,0,146918,1,0,0:0:0:0:
192,0,147011,1,0,0:0:0:0:
64,0,147105,1,0,0:0:0:0:
448,0,147105,1,0,0:0:0:0:
192,0,147199,1,0,0:0:0:0:
64,0,147293,1,0,0:0:0:0:
192,0,147293,1,0,0:0:0:0:
320,0,147293,1,0,0:0:0:0:
448,0,147293,1,0,0:0:0:0:
448,0,147386,1,0,0:0:0:0:
64,0,147480,1,0,0:0:0:0:
192,0,147480,1,0,0:0:0:0:
320,0,147574,1,0,0:0:0:0:
64,0,147668,1,0,0:0:0:0:
192,0,147668,1,0,0:0:0:0:
320,0,147668,1,0,0:0:0:0:
448,0,147668,1,0,0:0:0:0:
64,0,147761,1,0,0:0:0:0:
320,0,147855,1,0,0:0:0:0:
448,0,147855,1,0,0:0:0:0:
192,0,147949,1,0,0:0:0:0:
64,0,148043,1,0,0:0:0:0:
192,0,148043,1,0,0:0:0:0:
320,0,148043,1,0,0:0:0:0:
448,0,148043,1,0,0:0:0:0:
320,0,148136,1,0,0:0:0:0:
64,0,148230,1,0,0:0:0:0:
448,0,148230,1,0,0:0:0:0:
192,0,148324,1,0,0:0:0:0:
64,0,148418,1,0,0:0:0:0:
192,0,148418,1,0,0:0:0:0:
320,0,148418,1,0,0:0:0:0:
448,0,148418,1,0,0:0:0:0:
448,0,148511,1,0,0:0:0:0:
64,0,148605,1,0,0:0:0:0:
320,0,148605,1,0,0:0:0:0:
448,0,148699,1,0,0:0:0:0:
64,0,148793,1,0,0:0:0:0:
192,0,148793,1,0,0:0:0:0:
320,0,148793,1,0,0:0:0:0:
448,0,148793,1,0,0:0:0:0:
64,0,148886,1,0,0:0:0:0:
192,0,148980,1,0,0:0:0:0:
320,0,148980,1,0,0:0:0:0:
448,0,149074,1,0,0:0:0:0:
64,0,149168,1,0,0:0:0:0:
192,0,149168,1,0,0:0:0:0:
320,0,149168,1,0,0:0:0:0:
448,0,149168,1,0,0:0:0:0:
64,0,149261,1,0,0:0:0:0:
192,0,149355,1,0,0:0:0:0:
448,0,149355,1,0,0:0:0:0:
64,0,149449,1,0,0:0:0:0:
64,0,149543,1,0,0:0:0:0:
192,0,149543,1,0,0:0:0:0:
320,0,149543,1,0,0:0:0:0:
448,0,149543,1,0,0:0:0:0:
448,0,149636,1,0,0:0:0:0:
64,0,149730,1,0,0:0:0:0:
320,0,149730,1,0,0:0:0:0:
192,0,149824,1,0,0:0:0:0:
64,0,149918,1,0,0:0:0:0:
192,0,149918,1,0,0:0:0:0:
320,0,149918,1,0,0:0:0:0:
448,0,149918,1,0,0:0:0:0:
320,0,150011,1,0,0:0:0:0:
64,0,150105,1,0,0:0:0:0:
448,0,150105,1,0,0:0:0:0:
320,0,150199,1,0,0:0:0:0:
64,0,150293,1,0,0:0:0:0:
192,0,150293,1,0,0:0:0:0:
320,0,150293,1,0,0:0:0:0:
448,0,150293,1,0,0:0:0:0:
64,0,150386,1,0,0:0:0:0:
320,0,150480,1,0,0:0:0:0:
448,0,150480,1,0,0:0:0:0:
192,0,150574,1,0,0:0:0:0:
64,0,150668,1,0,0:0:0:0:
192,0,150668,1,0,0:0:0:0:
320,0,150668,1,0,0:0:0:0:
448,0,150668,1,0,0:0:0:0:
448,0,150761,1,0,0:0:0:0:
64,0,150855,1,0,0:0:0:0:
192,0,150855,1,0,0:0:0:0:
320,0,150949,1,0,0:0:0:0:
64,0,151043,1,0,0:0:0:0:
192,0,151043,1,0,0:0:0:0:
320,0,151043,1,0,0:0:0:0:
448,0,151043,1,0,0:0:0:0:
64,0,151136,1,0,0:0:0:0:
192,0,151230,1,0,0:0:0:0:
320,0,151230,1,0,0:0:0:0:
448,0,151324,1,0,0:0:0:0:
64,0,151418,1,0,0:0:0:0:
192,0,151418,1,0,0:0:0:0:
320,0,151418,1,0,0:0:0:0:
448,0,151418,1,0,0:0:0:0:
192,0,151511,1,0,0:0:0:0:
64,0,151605,1,0,0:0:0:0:
320,0,151605,1,0,0:0:0:0:
192,0,151699,1,0,0:0:0:0:
64,0,151793,1,0,0:0:0:0:
192,0,151793,1,0,0:0:0:0:
320,0,151793,1,0,0:0:0:0:
448,0,151793,1,0,0:0:0:0:
320,0,151886,1,0,0:0:0:0:
64,0,151980,1,0,0:0:0:0:
448,0,151980,1,0,0:0:0:0:
192,0,152074,1,0,0:0:0:0:
64,0,152168,1,0,0:0:0:0:
192,0,152168,1,0,0:0:0:0:
320,0,152168,1,0,0:0:0:0:
448,0,152168,1,0,0:0:0:0:
320,0,152261,1,0,0:0:0:0:
192,0,152355,1,0,0:0:0:0:
448,0,152355,1,0,0:0:0:0:
320,0,152449,1,0,0:0:0:0:
64,0,152543,1,0,0:0:0:0:
192,0,152543,1,0,0:0:0:0:
320,0,152543,1,0,0:0:0:0:
448,0,152543,1,0,0:0:0:0:
192,0,152636,1,0,0:0:0:0:
64,0,152730,1,0,0:0:0:0:
320,0,152730,1,0,0:0:0:0:
448,0,152824,1,0,0:0:0:0:
64,0,152918,1,0,0:0:0:0:
192,0,152918,1,0,0:0:0:0:
320,0,152918,1,0,0:0:0:0:
448,0,152918,1,0,0:0:0:0:
64,0,153011,1,0,0:0:0:0:
192,0,153105,1,0,0:0:0:0:
320,0,153105,1,0,0:0:0:0:
64,0,153199,1,0,0:0:0:0:
64,0,153293,1,0,0:0:0:0:
192,0,153293,1,0,0:0:0:0:
320,0,153293,1,0,0:0:0:0:
448,0,153293,1,0,0:0:0:0:
448,0,153386,1,0,0:0:0:0:
64,0,153480,1,0,0:0:0:0:
192,0,153480,1,0,0:0:0:0:
320,0,153574,1,0,0:0:0:0:
64,0,153668,1,0,0:0:0:0:
192,0,153668,1,0,0:0:0:0:
320,0,153668,1,0,0:0:0:0:
448,0,153668,1,0,0:0:0:0:
64,0,153761,1,0,0:0:0:0:
320,0,153855,1,0,0:0:0:0:
448,0,153855,1,0,0:0:0:0:
192,0,153949,1,0,0:0:0:0:
64,0,154043,1,0,0:0:0:0:
192,0,154043,1,0,0:0:0:0:
320,0,154043,1,0,0:0:0:0:
448,0,154043,1,0,0:0:0:0:
448,0,154136,1,0,0:0:0:0:
192,0,154230,1,0,0:0:0:0:
320,0,154230,1,0,0:0:0:0:
64,0,154324,1,0,0:0:0:0:
64,0,154418,1,0,0:0:0:0:
192,0,154418,1,0,0:0:0:0:
320,0,154418,1,0,0:0:0:0:
448,0,154418,1,0,0:0:0:0:
320,0,154511,1,0,0:0:0:0:
192,0,154605,1,0,0:0:0:0:
448,0,154605,1,0,0:0:0:0:
320,0,154699,1,0,0:0:0:0:
64,0,154793,1,0,0:0:0:0:
192,0,154793,1,0,0:0:0:0:
320,0,154793,1,0,0:0:0:0:
448,0,154793,1,0,0:0:0:0:
192,0,154886,1,0,0:0:0:0:
64,0,154980,1,0,0:0:0:0:
448,0,154980,1,0,0:0:0:0:
320,0,155074,1,0,0:0:0:0:
64,0,155168,1,0,0:0:0:0:
192,0,155168,1,0,0:0:0:0:
320,0,155168,1,0,0:0:0:0:
448,0,155168,1,0,0:0:0:0:
192,0,155261,1,0,0:0:0:0:
64,0,155355,1,0,0:0:0:0:
320,0,155355,1,0,0:0:0:0:
192,0,155449,1,0,0:0:0:0:
64,0,155543,1,0,0:0:0:0:
448,0,155543,1,0,0:0:0:0:
320,0,155636,1,0,0:0:0:0:
192,0,155730,1,0,0:0:0:0:
320,0,155824,1,0,0:0:0:0:
64,0,155918,1,0,0:0:0:0:
448,0,155918,1,0,0:0:0:0:
192,0,156011,1,0,0:0:0:0:
64,0,156105,1,0,0:0:0:0:
192,0,156199,1,0,0:0:0:0:
320,0,156293,1,0,0:0:0:0:
448,0,156293,1,0,0:0:0:0:
64,0,156386,1,0,0:0:0:0:
320,0,156480,1,0,0:0:0:0:
192,0,156574,1,0,0:0:0:0:
64,0,156668,128,0,156855:0:0:0:0:
448,0,156668,128,0,156855:0:0:0:0:
192,0,156855,1,0,0:0:0:0:
320,0,156855,1,0,0:0:0:0:
64,0,157043,1,0,0:0:0:0:
192,0,157043,1,0,0:0:0:0:
320,0,157043,1,0,0:0:0:0:
448,0,157043,1,0,0:0:0:0:
320,0,157168,1,0,0:0:0:0:
448,0,157168,1,0,0:0:0:0:
64,0,157230,1,0,0:0:0:0:
192,0,157324,1,0,0:0:0:0:
64,0,157418,1,0,0:0:0:0:
192,0,157418,1,0,0:0:0:0:
320,0,157418,1,0,0:0:0:0:
448,0,157418,1,0,0:0:0:0:
320,0,157543,1,0,0:0:0:0:
448,0,157543,1,0,0:0:0:0:
64,0,157605,1,0,0:0:0:0:
192,0,157699,1,0,0:0:0:0:
64,0,157793,1,0,0:0:0:0:
192,0,157793,1,0,0:0:0:0:
320,0,157793,1,0,0:0:0:0:
448,0,157793,1,0,0:0:0:0:
320,0,157918,1,0,0:0:0:0:
448,0,157918,1,0,0:0:0:0:
64,0,157980,1,0,0:0:0:0:
192,0,158074,1,0,0:0:0:0:
64,0,158168,1,0,0:0:0:0:
192,0,158168,1,0,0:0:0:0:
320,0,158168,1,0,0:0:0:0:
448,0,158168,1,0,0:0:0:0:
320,0,158293,1,0,0:0:0:0:
448,0,158293,1,0,0:0:0:0:
64,0,158355,1,0,0:0:0:0:
192,0,158449,1,0,0:0:0:0:
64,0,158543,1,0,0:0:0:0:
192,0,158543,1,0,0:0:0:0:
320,0,158543,1,0,0:0:0:0:
448,0,158543,1,0,0:0:0:0:
320,0,158668,1,0,0:0:0:0:
448,0,158668,1,0,0:0:0:0:
64,0,158730,1,0,0:0:0:0:
192,0,158824,1,0,0:0:0:0:
64,0,158918,1,0,0:0:0:0:
192,0,158918,1,0,0:0:0:0:
320,0,158918,1,0,0:0:0:0:
448,0,158918,1,0,0:0:0:0:
320,0,159043,1,0,0:0:0:0:
448,0,159043,1,0,0:0:0:0:
64,0,159105,1,0,0:0:0:0:
192,0,159199,1,0,0:0:0:0:
64,0,159293,1,0,0:0:0:0:
192,0,159293,1,0,0:0:0:0:
320,0,159293,1,0,0:0:0:0:
448,0,159293,1,0,0:0:0:0:
320,0,159418,1,0,0:0:0:0:
448,0,159418,1,0,0:0:0:0:
64,0,159480,1,0,0:0:0:0:
192,0,159574,1,0,0:0:0:0:
448,0,159668,1,0,0:0:0:0:
320,0,159699,1,0,0:0:0:0:
192,0,159730,1,0,0:0:0:0:
64,0,159761,1,0,0:0:0:0:
448,0,159793,1,0,0:0:0:0:
320,0,159824,1,0,0:0:0:0:
192,0,159855,1,0,0:0:0:0:
64,0,159886,1,0,0:0:0:0:
448,0,159918,1,0,0:0:0:0:
320,0,159949,1,0,0:0:0:0:
192,0,159980,1,0,0:0:0:0:
64,0,160011,1,0,0:0:0:0:
320,0,160043,1,0,0:0:0:0:
448,0,160043,1,0,0:0:0:0:
64,0,160168,1,0,0:0:0:0:
192,0,160168,1,0,0:0:0:0:
448,0,160230,1,0,0:0:0:0:
320,0,160324,1,0,0:0:0:0:
64,0,160418,1,0,0:0:0:0:
192,0,160418,1,0,0:0:0:0:
320,0,160418,1,0,0:0:0:0:
448,0,160418,1,0,0:0:0:0:
64,0,160543,1,0,0:0:0:0:
192,0,160543,1,0,0:0:0:0:
448,0,160605,1,0,0:0:0:0:
320,0,160699,1,0,0:0:0:0:
64,0,160793,1,0,0:0:0:0:
192,0,160793,1,0,0:0:0:0:
320,0,160793,1,0,0:0:0:0:
448,0,160793,1,0,0:0:0:0:
64,0,160918,1,0,0:0:0:0:
192,0,160918,1,0,0:0:0:0:
448,0,160980,1,0,0:0:0:0:
320,0,161074,1,0,0:0:0:0:
64,0,161168,1,0,0:0:0:0:
192,0,161168,1,0,0:0:0:0:
320,0,161168,1,0,0:0:0:0:
448,0,161168,1,0,0:0:0:0:
64,0,161293,1,0,0:0:0:0:
192,0,161293,1,0,0:0:0:0:
448,0,161355,1,0,0:0:0:0:
320,0,161449,1,0,0:0:0:0:
64,0,161543,1,0,0:0:0:0:
192,0,161543,1,0,0:0:0:0:
320,0,161543,1,0,0:0:0:0:
448,0,161543,1,0,0:0:0:0:
64,0,161668,1,0,0:0:0:0:
192,0,161668,1,0,0:0:0:0:
448,0,161730,1,0,0:0:0:0:
320,0,161824,1,0,0:0:0:0:
64,0,161918,1,0,0:0:0:0:
192,0,161918,1,0,0:0:0:0:
320,0,161918,1,0,0:0:0:0:
448,0,161918,1,0,0:0:0:0:
64,0,162043,1,0,0:0:0:0:
192,0,162043,1,0,0:0:0:0:
448,0,162105,1,0,0:0:0:0:
320,0,162199,1,0,0:0:0:0:
64,0,162293,1,0,0:0:0:0:
192,0,162293,1,0,0:0:0:0:
320,0,162293,1,0,0:0:0:0:
448,0,162293,1,0,0:0:0:0:
64,0,162418,1,0,0:0:0:0:
192,0,162418,1,0,0:0:0:0:
448,0,162480,1,0,0:0:0:0:
320,0,162574,1,0,0:0:0:0:
64,0,162668,1,0,0:0:0:0:
192,0,162699,1,0,0:0:0:0:
320,0,162730,1,0,0:0:0:0:
448,0,162761,1,0,0:0:0:0:
64,0,162793,1,0,0:0:0:0:
192,0,162824,1,0,0:0:0:0:
320,0,162855,1,0,0:0:0:0:
448,0,162886,1,0,0:0:0:0:
64,0,162918,1,0,0:0:0:0:
192,0,162949,1,0,0:0:0:0:
320,0,162980,1,0,0:0:0:0:
448,0,163011,1,0,0:0:0:0:
64,0,163043,1,0,0:0:0:0:
192,0,163043,1,0,0:0:0:0:
320,0,163168,1,0,0:0:0:0:
448,0,163168,1,0,0:0:0:0:
64,0,163230,1,0,0:0:0:0:
192,0,163324,1,0,0:0:0:0:
64,0,163418,1,0,0:0:0:0:
192,0,163418,1,0,0:0:0:0:
320,0,163418,1,0,0:0:0:0:
448,0,163418,1,0,0:0:0:0:
320,0,163543,1,0,0:0:0:0:
448,0,163543,1,0,0:0:0:0:
64,0,163605,1,0,0:0:0:0:
192,0,163699,1,0,0:0:0:0:
64,0,163793,1,0,0:0:0:0:
192,0,163793,1,0,0:0:0:0:
320,0,163793,1,0,0:0:0:0:
448,0,163793,1,0,0:0:0:0:
320,0,163918,1,0,0:0:0:0:
448,0,163918,1,0,0:0:0:0:
64,0,163980,1,0,0:0:0:0:
192,0,164074,1,0,0:0:0:0:
64,0,164168,1,0,0:0:0:0:
192,0,164168,1,0,0:0:0:0:
320,0,164168,1,0,0:0:0:0:
448,0,164168,1,0,0:0:0:0:
320,0,164293,1,0,0:0:0:0:
448,0,164293,1,0,0:0:0:0:
64,0,164355,1,0,0:0:0:0:
192,0,164449,1,0,0:0:0:0:
64,0,164543,1,0,0:0:0:0:
192,0,164543,1,0,0:0:0:0:
320,0,164543,1,0,0:0:0:0:
448,0,164543,1,0,0:0:0:0:
320,0,164668,1,0,0:0:0:0:
448,0,164668,1,0,0:0:0:0:
64,0,164730,1,0,0:0:0:0:
192,0,164824,1,0,0:0:0:0:
64,0,164918,1,0,0:0:0:0:
192,0,164918,1,0,0:0:0:0:
320,0,164918,1,0,0:0:0:0:
448,0,164918,1,0,0:0:0:0:
320,0,165043,1,0,0:0:0:0:
448,0,165043,1,0,0:0:0:0:
64,0,165105,1,0,0:0:0:0:
192,0,165199,1,0,0:0:0:0:
64,0,165293,1,0,0:0:0:0:
192,0,165293,1,0,0:0:0:0:
320,0,165293,1,0,0:0:0:0:
448,0,165293,1,0,0:0:0:0:
320,0,165418,1,0,0:0:0:0:
448,0,165418,1,0,0:0:0:0:
64,0,165480,1,0,0:0:0:0:
192,0,165574,1,0,0:0:0:0:
448,0,165668,1,0,0:0:0:0:
320,0,165699,1,0,0:0:0:0:
192,0,165730,1,0,0:0:0:0:
64,0,165761,1,0,0:0:0:0:
448,0,165793,1,0,0:0:0:0:
320,0,165824,1,0,0:0:0:0:
192,0,165855,1,0,0:0:0:0:
64,0,165886,1,0,0:0:0:0:
448,0,165918,1,0,0:0:0:0:
320,0,165949,1,0,0:0:0:0:
192,0,165980,1,0,0:0:0:0:
64,0,166011,1,0,0:0:0:0:
320,0,166043,1,0,0:0:0:0:
448,0,166043,1,0,0:0:0:0:
64,0,166168,1,0,0:0:0:0:
192,0,166168,1,0,0:0:0:0:
448,0,166230,1,0,0:0:0:0:
320,0,166324,1,0,0:0:0:0:
64,0,166418,1,0,0:0:0:0:
192,0,166418,1,0,0:0:0:0:
320,0,166418,1,0,0:0:0:0:
448,0,166418,1,0,0:0:0:0:
64,0,166543,1,0,0:0:0:0:
192,0,166543,1,0,0:0:0:0:
448,0,166605,1,0,0:0:0:0:
320,0,166699,1,0,0:0:0:0:
64,0,166793,1,0,0:0:0:0:
192,0,166793,1,0,0:0:0:0:
320,0,166793,1,0,0:0:0:0:
448,0,166793,1,0,0:0:0:0:
64,0,166918,1,0,0:0:0:0:
192,0,166918,1,0,0:0:0:0:
448,0,166980,1,0,0:0:0:0:
320,0,167074,1,0,0:0:0:0:
64,0,167168,1,0,0:0:0:0:
192,0,167168,1,0,0:0:0:0:
320,0,167168,1,0,0:0:0:0:
448,0,167168,1,0,0:0:0:0:
64,0,167293,1,0,0:0:0:0:
192,0,167293,1,0,0:0:0:0:
448,0,167355,1,0,0:0:0:0:
320,0,167449,1,0,0:0:0:0:
64,0,167543,1,0,0:0:0:0:
192,0,167543,1,0,0:0:0:0:
320,0,167543,1,0,0:0:0:0:
448,0,167543,1,0,0:0:0:0:
64,0,167668,1,0,0:0:0:0:
192,0,167668,1,0,0:0:0:0:
448,0,167730,1,0,0:0:0:0:
320,0,167824,1,0,0:0:0:0:
64,0,167918,1,0,0:0:0:0:
192,0,167918,1,0,0:0:0:0:
320,0,167918,1,0,0:0:0:0:
448,0,167918,1,0,0:0:0:0:
64,0,168043,1,0,0:0:0:0:
192,0,168043,1,0,0:0:0:0:
448,0,168105,1,0,0:0:0:0:
320,0,168199,1,0,0:0:0:0:
64,0,168293,1,0,0:0:0:0:
192,0,168293,1,0,0:0:0:0:
320,0,168293,1,0,0:0:0:0:
448,0,168293,1,0,0:0:0:0:
64,0,168418,1,0,0:0:0:0:
192,0,168418,1,0,0:0:0:0:
448,0,168480,1,0,0:0:0:0:
320,0,168574,1,0,0:0:0:0:
64,0,168668,1,0,0:0:0:0:
192,0,168699,1,0,0:0:0:0:
320,0,168730,1,0,0:0:0:0:
448,0,168761,1,0,0:0:0:0:
64,0,168793,1,0,0:0:0:0:
192,0,168824,1,0,0:0:0:0:
320,0,168855,1,0,0:0:0:0:
448,0,168886,1,0,0:0:0:0:
64,0,168918,1,0,0:0:0:0:
192,0,168949,1,0,0:0:0:0:
320,0,168980,1,0,0:0:0:0:
448,0,169011,1,0,0:0:0:0:
64,0,169043,1,0,0:0:0:0:
192,0,169043,1,0,0:0:0:0:
320,0,169168,1,0,0:0:0:0:
448,0,169168,1,0,0:0:0:0:
64,0,169230,1,0,0:0:0:0:
192,0,169324,1,0,0:0:0:0:
64,0,169418,1,0,0:0:0:0:
192,0,169418,1,0,0:0:0:0:
320,0,169418,1,0,0:0:0:0:
448,0,169418,1,0,0:0:0:0:
320,0,169543,1,0,0:0:0:0:
448,0,169543,1,0,0:0:0:0:
64,0,169605,1,0,0:0:0:0:
192,0,169699,1,0,0:0:0:0:
64,0,169793,1,0,0:0:0:0:
192,0,169793,1,0,0:0:0:0:
320,0,169793,1,0,0:0:0:0:
448,0,169793,1,0,0:0:0:0:
320,0,169918,1,0,0:0:0:0:
448,0,169918,1,0,0:0:0:0:
64,0,169980,1,0,0:0:0:0:
192,0,170074,1,0,0:0:0:0:
64,0,170168,1,0,0:0:0:0:
192,0,170168,1,0,0:0:0:0:
320,0,170168,1,0,0:0:0:0:
448,0,170168,1,0,0:0:0:0:
320,0,170293,1,0,0:0:0:0:
448,0,170293,1,0,0:0:0:0:
64,0,170355,1,0,0:0:0:0:
192,0,170449,1,0,0:0:0:0:
64,0,170543,1,0,0:0:0:0:
192,0,170543,1,0,0:0:0:0:
320,0,170543,1,0,0:0:0:0:
448,0,170543,1,0,0:0:0:0:
320,0,170668,1,0,0:0:0:0:
448,0,170668,1,0,0:0:0:0:
64,0,170730,1,0,0:0:0:0:
192,0,170824,1,0,0:0:0:0:
64,0,170918,1,0,0:0:0:0:
192,0,170918,1,0,0:0:0:0:
320,0,170918,1,0,0:0:0:0:
448,0,170918,1,0,0:0:0:0:
320,0,171043,1,0,0:0:0:0:
448,0,171043,1,0,0:0:0:0:
64,0,171105,1,0,0:0:0:0:
192,0,171199,1,0,0:0:0:0:
64,0,171293,1,0,0:0:0:0:
192,0,171293,1,0,0:0:0:0:
320,0,171293,1,0,0:0:0:0:
448,0,171293,1,0,0:0:0:0:
320,0,171418,1,0,0:0:0:0:
448,0,171418,1,0,0:0:0:0:
64,0,171480,1,0,0:0:0:0:
192,0,171574,1,0,0:0:0:0:
448,0,171668,1,0,0:0:0:0:
320,0,171699,1,0,0:0:0:0:
192,0,171730,1,0,0:0:0:0:
64,0,171761,1,0,0:0:0:0:
448,0,171793,1,0,0:0:0:0:
320,0,171824,1,0,0:0:0:0:
192,0,171855,1,0,0:0:0:0:
64,0,171886,1,0,0:0:0:0:
448,0,171918,1,0,0:0:0:0:
320,0,171949,1,0,0:0:0:0:
192,0,171980,1,0,0:0:0:0:
64,0,172011,1,0,0:0:0:0:
320,0,172043,1,0,0:0:0:0:
448,0,172043,1,0,0:0:0:0:
64,0,172168,1,0,0:0:0:0:
192,0,172168,1,0,0:0:0:0:
448,0,172230,1,0,0:0:0:0:
320,0,172324,1,0,0:0:0:0:
64,0,172418,1,0,0:0:0:0:
192,0,172418,1,0,0:0:0:0:
320,0,172418,1,0,0:0:0:0:
448,0,172418,1,0,0:0:0:0:
64,0,172543,1,0,0:0:0:0:
192,0,172543,1,0,0:0:0:0:
448,0,172605,1,0,0:0:0:0:
320,0,172699,1,0,0:0:0:0:
64,0,172793,1,0,0:0:0:0:
192,0,172793,1,0,0:0:0:0:
320,0,172793,1,0,0:0:0:0:
448,0,172793,1,0,0:0:0:0:
64,0,172918,1,0,0:0:0:0:
192,0,172918,1,0,0:0:0:0:
448,0,172980,1,0,0:0:0:0:
320,0,173074,1,0,0:0:0:0:
64,0,173168,1,0,0:0:0:0:
192,0,173168,1,0,0:0:0:0:
320,0,173168,1,0,0:0:0:0:
448,0,173168,1,0,0:0:0:0:
64,0,173293,1,0,0:0:0:0:
192,0,173293,1,0,0:0:0:0:
448,0,173355,1,0,0:0:0:0:
320,0,173449,1,0,0:0:0:0:
64,0,173543,1,0,0:0:0:0:
192,0,173543,1,0,0:0:0:0:
320,0,173543,1,0,0:0:0:0:
448,0,173543,1,0,0:0:0:0:
64,0,173668,1,0,0:0:0:0:
192,0,173668,1,0,0:0:0:0:
448,0,173730,1,0,0:0:0:0:
320,0,173824,1,0,0:0:0:0:
64,0,173918,1,0,0:0:0:0:
192,0,173918,1,0,0:0:0:0:
320,0,173918,1,0,0:0:0:0:
448,0,173918,1,0,0:0:0:0:
64,0,174043,1,0,0:0:0:0:
192,0,174043,1,0,0:0:0:0:
448,0,174105,1,0,0:0:0:0:
320,0,174199,1,0,0:0:0:0:
64,0,174293,1,0,0:0:0:0:
192,0,174293,1,0,0:0:0:0:
320,0,174293,1,0,0:0:0:0:
448,0,174293,1,0,0:0:0:0:
64,0,174418,1,0,0:0:0:0:
192,0,174418,1,0,0:0:0:0:
448,0,174480,1,0,0:0:0:0:
320,0,174574,1,0,0:0:0:0:
64,0,174668,1,0,0:0:0:0:
192,0,174699,1,0,0:0:0:0:
320,0,174730,1,0,0:0:0:0:
448,0,174761,1,0,0:0:0:0:
64,0,174793,1,0,0:0:0:0:
192,0,174824,1,0,0:0:0:0:
320,0,174855,1,0,0:0:0:0:
448,0,174886,1,0,0:0:0:0:
64,0,174918,1,0,0:0:0:0:
192,0,174949,1,0,0:0:0:0:
320,0,174980,1,0,0:0:0:0:
448,0,175011,1,0,0:0:0:0:
64,0,175043,1,0,0:0:0:0:
192,0,175043,1,0,0:0:0:0:
320,0,175168,1,0,0:0:0:0:
448,0,175168,1,0,0:0:0:0:
64,0,175230,1,0,0:0:0:0:
192,0,175324,1,0,0:0:0:0:
64,0,175418,1,0,0:0:0:0:
192,0,175418,1,0,0:0:0:0:
320,0,175418,1,0,0:0:0:0:
448,0,175418,1,0,0:0:0:0:
320,0,175543,1,0,0:0:0:0:
448,0,175543,1,0,0:0:0:0:
64,0,175605,1,0,0:0:0:0:
192,0,175699,1,0,0:0:0:0:
64,0,175793,1,0,0:0:0:0:
192,0,175793,1,0,0:0:0:0:
320,0,175793,1,0,0:0:0:0:
448,0,175793,1,0,0:0:0:0:
320,0,175918,1,0,0:0:0:0:
448,0,175918,1,0,0:0:0:0:
64,0,175980,1,0,0:0:0:0:
192,0,176074,1,0,0:0:0:0:
64,0,176168,1,0,0:0:0:0:
192,0,176168,1,0,0:0:0:0:
320,0,176168,1,0,0:0:0:0:
448,0,176168,1,0,0:0:0:0:
320,0,176293,1,0,0:0:0:0:
448,0,176293,1,0,0:0:0:0:
64,0,176355,1,0,0:0:0:0:
192,0,176449,1,0,0:0:0:0:
64,0,176543,1,0,0:0:0:0:
192,0,176543,1,0,0:0:0:0:
320,0,176543,1,0,0:0:0:0:
448,0,176543,1,0,0:0:0:0:
320,0,176668,1,0,0:0:0:0:
448,0,176668,1,0,0:0:0:0:
64,0,176730,1,0,0:0:0:0:
192,0,176824,1,0,0:0:0:0:
64,0,176918,1,0,0:0:0:0:
192,0,176918,1,0,0:0:0:0:
320,0,176918,1,0,0:0:0:0:
448,0,176918,1,0,0:0:0:0:
320,0,177043,1,0,0:0:0:0:
448,0,177043,1,0,0:0:0:0:
64,0,177105,1,0,0:0:0:0:
192,0,177199,1,0,0:0:0:0:
64,0,177293,1,0,0:0:0:0:
192,0,177293,1,0,0:0:0:0:
320,0,177293,1,0,0:0:0:0:
448,0,177293,1,0,0:0:0:0:
320,0,177418,1,0,0:0:0:0:
448,0,177418,1,0,0:0:0:0:
64,0,177480,1,0,0:0:0:0:
192,0,177574,1,0,0:0:0:0:
448,0,177668,1,0,0:0:0:0:
320,0,177699,1,0,0:0:0:0:
192,0,177730,1,0,0:0:0:0:
64,0,177761,1,0,0:0:0:0:
448,0,177793,1,0,0:0:0:0:
320,0,177824,1,0,0:0:0:0:
192,0,177855,1,0,0:0:0:0:
64,0,177886,1,0,0:0:0:0:
448,0,177918,1,0,0:0:0:0:
320,0,177949,1,0,0:0:0:0:
192,0,177980,1,0,0:0:0:0:
64,0,178011,1,0,0:0:0:0:
320,0,178043,1,0,0:0:0:0:
448,0,178043,1,0,0:0:0:0:
64,0,178168,1,0,0:0:0:0:
192,0,178168,1,0,0:0:0:0:
448,0,178230,1,0,0:0:0:0:
320,0,178324,1,0,0:0:0:0:
64,0,178418,1,0,0:0:0:0:
192,0,178418,1,0,0:0:0:0:
320,0,178418,1,0,0:0:0:0:
448,0,178418,1,0,0:0:0:0:
64,0,178543,1,0,0:0:0:0:
192,0,178543,1,0,0:0:0:0:
448,0,178605,1,0,0:0:0:0:
320,0,178699,1,0,0:0:0:0:
64,0,178793,1,0,0:0:0:0:
192,0,178793,1,0,0:0:0:0:
320,0,178793,1,0,0:0:0:0:
448,0,178793,1,0,0:0:0:0:
64,0,178918,1,0,0:0:0:0:
192,0,178918,1,0,0:0:0:0:
448,0,178980,1,0,0:0:0:0:
320,0,179074,1,0,0:0:0:0:
64,0,179168,1,0,0:0:0:0:
192,0,179168,1,0,0:0:0:0:
320,0,179168,1,0,0:0:0:0:
448,0,179168,1,0,0:0:0:0:
64,0,179293,1,0,0:0:0:0:
192,0,179293,1,0,0:0:0:0:
448,0,179355,1,0,0:0:0:0:
320,0,179449,1,0,0:0:0:0:
64,0,179543,1,0,0:0:0:0:
192,0,179543,1,0,0:0:0:0:
320,0,179543,1,0,0:0:0:0:
448,0,179543,1,0,0:0:0:0:
64,0,179668,1,0,0:0:0:0:
192,0,179668,1,0,0:0:0:0:
448,0,179730,1,0,0:0:0:0:
64,0,179824,1,0,0:0:0:0:
192,0,179824,1,0,0:0:0:0:
320,0,179824,1,0,0:0:0:0:
448,0,179824,1,0,0:0:0:0:
64,0,179941,1,0,0:0:0:0:
192,0,179941,1,0,0:0:0:0:
448,0,180011,1,0,0:0:0:0:
64,0,180105,1,0,0:0:0:0:
192,0,180105,1,0,0:0:0:0:
320,0,180105,1,0,0:0:0:0:
448,0,180105,1,0,0:0:0:0:
64,0,180222,1,0,0:0:0:0:
192,0,180222,1,0,0:0:0:0:
64,0,180293,1,0,0:0:0:0:
192,0,180293,1,0,0:0:0:0:
320,0,180293,1,0,0:0:0:0:
448,0,180293,1,0,0:0:0:0:
320,0,180410,1,0,0:0:0:0:
448,0,180410,1,0,0:0:0:0:
64,0,180480,1,0,0:0:0:0:
192,0,180574,1,0,0:0:0:0:
448,0,180668,1,0,0:0:0:0:
320,0,180699,1,0,0:0:0:0:
192,0,180730,1,0,0:0:0:0:
64,0,180761,1,0,0:0:0:0:
448,0,180793,1,0,0:0:0:0:
320,0,180824,1,0,0:0:0:0:
192,0,180855,1,0,0:0:0:0:
64,0,180886,1,0,0:0:0:0:
448,0,180918,1,0,0:0:0:0:
320,0,180949,1,0,0:0:0:0:
192,0,180980,1,0,0:0:0:0:
64,0,181011,1,0,0:0:0:0:
320,0,181043,1,0,0:0:0:0:
448,0,181043,1,0,0:0:0:0:
