osu file format v14

[General]
AudioFilename: WORLD CUP VIBE.mp3
AudioLeadIn: 0
PreviewTime: -1
Countdown: 1
SampleSet: None
StackLeniency: 0.7
Mode: 0
LetterboxInBreaks: 1
WidescreenStoryboard: 1

[Editor]
DistanceSpacing: 2.6
BeatDivisor: 2
GridSize: 4
TimelineZoom: 4.599998

[Metadata]
Title:WORLD CUP VIBE
TitleUnicode:WORLD CUP VIBE
Artist:DJ BIGDOG
ArtistUnicode:DJ BIGDOG
Creator:Tarix
Version:2019 cs 7
Source:
Tags:
BeatmapID:2034519
BeatmapSetID:185343

[Difficulty]
HPDrainRate:2
CircleSize:7
OverallDifficulty:9
ApproachRate:9.8
SliderMultiplier:2.99999990463257
SliderTickRate:1

[Events]
//Background and Video events
//Break Periods
//Storyboard Layer 0 (Background)
//Storyboard Layer 1 (Fail)
//Storyboard Layer 2 (Pass)
//Storyboard Layer 3 (Foreground)
//Storyboard Sound Samples

[TimingPoints]
928,375,4,1,0,50,1,0
6929,375,4,1,0,100,1,0

[HitObjects]
314,300,928,5,0,0:0:0:0:
49,186,1209,1,0,0:0:0:0:
49,186,1303,1,0,0:0:0:0:
293,31,1490,1,0,0:0:0:0:
130,328,1678,1,0,0:0:0:0:
389,50,1959,1,0,0:0:0:0:
389,50,2053,1,0,0:0:0:0:
392,276,2240,1,0,0:0:0:0:
254,172,2428,5,0,0:0:0:0:
94,59,2709,1,0,0:0:0:0:
94,59,2803,1,0,0:0:0:0:
440,26,2990,1,0,0:0:0:0:
351,86,3178,1,0,0:0:0:0:
98,260,3459,1,0,0:0:0:0:
98,260,3553,1,0,0:0:0:0:
451,172,3740,1,0,0:0:0:0:
98,328,3928,5,0,0:0:0:0:
298,90,4209,1,0,0:0:0:0:
298,90,4303,1,0,0:0:0:0:
47,47,4490,1,0,0:0:0:0:
353,324,4678,1,0,0:0:0:0:
142,50,4959,1,8,0:0:0:0:
142,50,5053,1,0,0:0:0:0:
460,145,5241,1,0,0:0:0:0:
129,311,5427,1,0,0:0:0:0:
449,74,6928,6,0,P|421:43|350:44,1,74.9999976158142
91,105,7304,1,0,0:0:0:0:
73,183,7491,1,0,0:0:0:0:
73,183,7585,1,0,0:0:0:0:
73,183,7679,1,0,0:0:0:0:
370,253,8054,1,0,3:3:0:0:
305,215,8147,1,0,3:3:0:0:
229,219,8241,1,0,3:3:0:0:
169,264,8335,1,0,0:0:0:0:
133,330,8429,2,0,B|167:344|211:340|237:303|230:314,1,74.9999976158143
319,302,8616,5,0,0:0:0:0:
303,229,8710,2,0,L|291:153,1,74.9999976158143
365,170,8897,1,0,0:0:0:0:
350,97,8991,2,0,L|335:19,1,74.9999976158143
270,63,9179,1,0,0:0:0:0:
55,172,9366,1,0,0:0:0:0:
229,330,9554,2,0,B|308:342|361:324|391:270|388:185,1,224.999992847443
297,252,9929,1,0,0:0:0:0:
120,339,10210,1,0,0:0:0:0:
120,339,10304,1,0,0:0:0:0:
201,180,10491,5,0,0:0:0:0:
322,180,10585,1,0,0:0:0:0:
223,94,10679,1,2,0:0:0:0:
271,261,10866,2,0,L|312:330,1,74.9999976158143
356,266,11054,1,0,0:0:0:0:
413,219,11147,1,0,0:0:0:0:
437,147,11241,1,0,0:0:0:0:
432,71,11335,2,0,P|358:109|353:176,1,149.999995231629
423,151,11616,5,0,0:0:0:0:
388,234,11710,1,0,0:0:0:0:
300,254,11804,1,0,0:0:0:0:
219,215,11897,2,0,P|271:157|345:166,1,149.999995231629
300,244,12179,1,0,0:0:0:0:
226,294,12272,1,0,0:0:0:0:
139,267,12366,2,0,L|171:180,1,74.9999976158143
73,198,12554,1,0,0:0:0:0:
41,50,12741,1,0,0:0:0:0:
41,50,12929,2,0,P|106:22|197:42,1,149.999995231629
455,127,13210,5,0,0:0:0:0:
397,215,13304,1,0,0:0:0:0:
293,227,13397,1,0,0:0:0:0:
202,172,13491,1,0,0:0:0:0:
177,69,13585,1,0,0:0:0:0:
272,112,13679,2,0,B|340:170|299:253,1,149.999995231629
231,196,14054,1,0,0:0:0:0:
230,300,14147,1,0,0:0:0:0:
299,348,14241,1,0,0:0:0:0:
395,306,14335,1,0,0:0:0:0:
319,256,14429,2,0,P|309:206|270:190,1,74.9999976158143
319,256,14616,2,0,B|376:224|360:170,1,74.9999976158143
370,203,14804,5,0,0:0:0:0:
370,203,14897,1,0,0:0:0:0:
370,203,14991,2,0,P|292:189|282:203,1,74.9999976158143
215,206,15179,1,0,0:0:0:0:
258,135,15272,1,0,0:0:0:0:
339,142,15366,1,0,0:0:0:0:
378,213,15460,1,0,0:0:0:0:
294,217,15554,2,0,P|256:280|136:222,1,224.999992847443
85,118,15929,2,0,P|125:57|328:97,1,299.999990463257
410,204,16491,1,0,0:0:0:0:
353,289,16585,1,0,0:0:0:0:
274,244,16679,1,0,0:0:0:0:
87,130,16866,5,0,0:0:0:0:
158,77,16960,1,0,0:0:0:0:
245,65,17054,1,0,0:0:0:0:
327,93,17147,1,0,0:0:0:0:
398,155,17241,1,0,0:0:0:0:
298,181,17335,1,0,0:0:0:0:
257,157,17429,1,0,0:0:0:0:
210,160,17522,1,0,0:0:0:0:
170,183,17616,1,0,0:0:0:0:
208,265,17710,1,0,0:0:0:0:
233,256,17804,1,0,0:0:0:0:
270,264,17897,1,0,0:0:0:0:
293,273,17991,2,0,L|384:297,1,74.9999976158143
365,292,18179,1,0,0:0:0:0:
188,248,18554,6,0,P|188:320|268:320,1,149.999995231628
253,331,18929,1,0,0:0:0:0:
253,331,19304,1,0,0:0:0:0:
300,177,19491,1,0,0:0:0:0:
300,177,19585,1,0,0:0:0:0:
300,177,19679,2,0,L|237:136,1,74.9999976158142
400,124,20054,1,0,0:0:0:0:
346,71,20147,1,0,0:0:0:0:
271,59,20241,1,0,0:0:0:0:
201,88,20335,1,0,0:0:0:0:
246,147,20429,2,0,P|250:191|206:218,1,74.9999976158143
174,162,20616,1,0,0:0:0:0:
105,131,20710,2,0,P|102:93|130:77,1,74.9999976158143
205,83,20897,1,0,0:0:0:0:
280,79,20991,2,0,P|285:119|262:150,1,74.9999976158143
115,249,21179,1,0,0:0:0:0:
221,283,21272,1,0,0:0:0:0:
326,244,21366,1,0,0:0:0:0:
381,145,21460,1,0,0:0:0:0:
385,32,21554,2,0,P|314:11|235:32,1,149.999995231628
218,252,21929,2,0,P|322:280|447:211,1,224.999992847443
418,227,22304,1,0,0:0:0:0:
218,252,22491,5,0,0:0:0:0:
218,252,22585,1,0,0:0:0:0:
116,202,22679,2,0,P|57:172|58:138,1,74.9999976158143
153,113,22866,1,0,0:0:0:0:
243,46,22960,1,0,0:0:0:0:
355,54,23054,1,0,0:0:0:0:
440,125,23147,1,0,0:0:0:0:
468,234,23241,1,0,0:0:0:0:
412,328,23335,1,0,0:0:0:0:
325,255,23429,2,0,P|307:304|264:317,1,74.9999976158143
327,245,23616,5,0,0:0:0:0:
293,175,23710,1,0,0:0:0:0:
221,153,23804,1,0,0:0:0:0:
149,172,23897,1,0,0:0:0:0:
104,258,23991,2,0,P|118:304|161:322,1,74.9999976158143
224,236,24179,1,0,0:0:0:0:
224,236,24272,1,0,0:0:0:0:
366,186,24366,2,0,P|386:147|335:132,1,74.9999976158143
70,63,24554,2,0,B|51:117|113:172|182:132|187:81|166:38|134:30|74:62|75:62,1,262.49999165535
70,63,24929,2,0,B|124:42|169:57|176:82|230:117|307:88,1,224.999992847443
353,96,25304,1,0,0:0:0:0:
353,96,25397,1,0,0:0:0:0:
414,124,25491,5,0,0:0:0:0:
414,124,25585,1,0,0:0:0:0:
441,185,25679,2,0,P|469:227|447:261,1,74.9999976158143
426,303,25866,2,0,P|397:328|340:343,1,74.9999976158143
359,272,26054,1,0,0:0:0:0:
294,290,26147,1,0,0:0:0:0:
227,276,26241,1,0,0:0:0:0:
179,228,26335,1,0,0:0:0:0:
146,168,26429,2,0,L|62:125,1,74.9999976158143
74,28,26616,5,0,0:0:0:0:
74,28,26710,2,0,L|154:70,1,74.9999976158143
447,252,26897,1,0,0:0:0:0:
447,252,26991,2,0,L|350:244,1,74.9999976158143
76,217,27179,5,0,0:0:0:0:
76,217,27272,1,0,0:0:0:0:
244,115,27366,1,0,0:0:0:0:
244,115,27460,1,0,0:0:0:0:
313,296,27554,6,0,L|387:230,1,74.9999976158143
188,208,27741,2,0,L|128:256,1,74.9999976158142
176,304,27929,1,0,0:0:0:0:
230,264,28022,1,0,0:0:0:0:
282,306,28116,1,0,0:0:0:0:
227,346,28210,1,0,0:0:0:0:
176,304,28304,2,0,P|242:313|279:308,1,74.9999976158143
427,293,28491,5,0,0:0:0:0:
462,218,28585,1,0,0:0:0:0:
440,138,28679,2,0,L|372:91,1,74.9999976158142
440,138,28866,2,0,P|386:167|339:161,1,74.9999976158143
384,84,29054,1,0,0:0:0:0:
305,61,29147,1,0,0:0:0:0:
223,76,29241,1,0,0:0:0:0:
160,129,29335,1,0,0:0:0:0:
129,206,29429,1,0,0:0:0:0:
330,317,29689,5,0,0:0:0:0:
400,70,29930,1,0,0:0:0:0:
272,199,30179,1,0,0:0:0:0:
417,288,30304,1,0,0:0:0:0:
4,236,30429,1,0,0:0:0:0:
284,135,30554,1,0,0:0:0:0:
270,361,30679,1,0,0:0:0:0:
118,156,30804,1,0,0:0:0:0:
448,147,30929,1,0,0:0:0:0:
313,280,31210,5,0,0:0:0:0:
313,280,31304,1,0,0:0:0:0:
462,60,31491,1,0,0:0:0:0:
79,340,31679,1,0,0:0:0:0:
334,113,31866,1,0,0:0:0:0:
386,186,31960,1,0,0:0:0:0:
375,66,32054,1,0,0:0:0:0:
336,225,32147,1,0,0:0:0:0:
417,30,32241,1,0,0:0:0:0:
89,295,32429,1,0,0:0:0:0:
96,39,32710,1,0,0:0:0:0:
96,39,32804,1,0,0:0:0:0:
418,306,32991,5,0,0:0:0:0:
50,99,33179,1,0,0:0:0:0:
334,271,33366,1,0,0:0:0:0:
386,198,33460,1,0,0:0:0:0:
375,318,33554,1,0,0:0:0:0:
336,159,33647,1,0,0:0:0:0:
417,354,33741,1,0,0:0:0:0:
155,24,33929,1,0,0:0:0:0:
77,333,34210,1,0,0:0:0:0:
77,333,34304,1,0,0:0:0:0:
377,41,34491,1,0,0:0:0:0:
185,353,34679,1,0,0:0:0:0:
146,88,34866,1,0,0:0:0:0:
204,226,34960,1,0,0:0:0:0:
108,38,35054,1,0,0:0:0:0:
137,221,35147,1,0,0:0:0:0:
61,0,35241,1,0,0:0:0:0:
391,306,35429,1,0,0:0:0:0:
433,44,35710,1,0,0:0:0:0:
433,44,35804,1,0,0:0:0:0:
47,274,35991,1,0,0:0:0:0:
485,167,36179,1,0,0:0:0:0:
48,63,36366,5,0,0:0:0:0:
182,244,36460,1,0,0:0:0:0:
111,29,36554,1,0,0:0:0:0:
418,355,36741,1,0,0:0:0:0:
27,129,36929,1,0,0:0:0:0:
473,179,37210,1,0,0:0:0:0:
473,179,37304,1,0,0:0:0:0:
94,266,37491,1,0,0:0:0:0:
451,107,37679,1,0,0:0:0:0:
61,323,37866,5,0,0:0:0:0:
204,130,37960,1,0,0:0:0:0:
7,294,38054,1,0,0:0:0:0:
287,124,38147,1,0,0:0:0:0:
23,203,38241,1,0,0:0:0:0:
485,24,38429,1,0,0:0:0:0:
152,66,38710,1,0,0:0:0:0:
152,66,38804,1,0,0:0:0:0:
456,308,38991,1,0,0:0:0:0:
100,144,39179,1,0,0:0:0:0:
215,174,39366,5,0,0:0:0:0:
278,345,39460,1,0,0:0:0:0:
264,121,39554,1,0,0:0:0:0:
220,348,39647,1,0,0:0:0:0:
318,71,39741,1,0,0:0:0:0:
142,241,39929,1,0,0:0:0:0:
434,231,40210,1,0,0:0:0:0:
434,231,40304,1,0,0:0:0:0:
23,154,40491,1,0,0:0:0:0:
143,244,40679,1,0,0:0:0:0:
305,355,40866,5,0,0:0:0:0:
288,251,40960,1,0,0:0:0:0:
248,355,41054,1,0,0:0:0:0:
359,184,41147,1,0,0:0:0:0:
184,355,41241,1,0,0:0:0:0:
212,280,41429,1,2,0:0:0:0:
299,326,42929,6,0,P|332:305|331:196,1,149.999995231629
276,54,43210,1,0,0:0:0:0:
276,54,43304,1,0,0:0:0:0:
186,277,43491,1,0,0:0:0:0:
186,277,43585,1,0,0:0:0:0:
186,277,43679,2,0,P|240:228|311:196,1,149.999995231628
289,293,44054,1,0,0:0:0:0:
281,95,44147,1,0,0:0:0:0:
327,224,44241,1,0,0:0:0:0:
248,161,44335,1,0,0:0:0:0:
351,147,44429,1,0,0:0:0:0:
119,181,44616,5,0,0:0:0:0:
207,166,44710,1,0,0:0:0:0:
94,248,44804,1,0,0:0:0:0:
164,115,44897,1,0,0:0:0:0:
123,321,44991,2,0,P|156:338|197:337,1,74.9999976158143
252,317,45179,1,0,0:0:0:0:
252,317,45272,1,0,0:0:0:0:
300,268,45366,2,0,B|314:255|314:255|308:231|308:231|285:227|285:227|267:237|267:237|261:250,1,74.9999976158143
300,268,45554,2,0,B|316:267|335:262|344:249|347:222|341:205,1,74.9999976158143
300,268,45741,2,0,B|316:268|334:265|346:258|365:236,1,74.9999976158143
409,175,45929,2,0,B|411:192|403:210|388:219|359:217|324:195|309:167|301:142|303:149,1,149.999995231629
141,59,46210,1,0,0:0:0:0:
141,59,46304,2,0,P|133:102|154:139,1,74.9999976158143
206,101,46491,1,0,0:0:0:0:
193,163,46585,1,0,0:0:0:0:
254,149,46679,1,0,0:0:0:0:
426,46,46866,1,0,0:0:0:0:
225,228,47054,1,0,0:0:0:0:
94,298,47147,1,0,0:0:0:0:
213,158,47241,1,0,0:0:0:0:
127,351,47335,1,0,0:0:0:0:
197,89,47429,1,0,0:0:0:0:
197,89,47616,5,0,0:0:0:0:
354,194,47710,1,0,0:0:0:0:
151,120,47804,1,0,0:0:0:0:
383,134,47897,1,0,0:0:0:0:
111,176,47991,2,0,P|91:207|92:246,1,74.9999976158143
128,305,48179,1,0,0:0:0:0:
269,170,48272,1,0,0:0:0:0:
162,345,48366,2,0,B|130:353|104:349|88:323,1,74.9999976158143
162,345,48554,2,0,B|179:331|184:303|160:276|163:266,1,74.9999976158143
74,245,48741,1,0,0:0:0:0:
173,161,48929,6,0,L|269:161,1,74.9999976158142
373,161,49210,1,0,0:0:0:0:
373,161,49304,1,0,0:0:0:0:
236,302,49491,1,0,0:0:0:0:
171,152,49585,1,0,0:0:0:0:
165,317,49679,1,0,0:0:0:0:
245,140,49866,2,0,P|236:68|260:33,1,74.9999976158143
292,87,50054,1,0,0:0:0:0:
123,257,50147,1,0,0:0:0:0:
349,92,50241,1,0,0:0:0:0:
69,219,50335,1,0,0:0:0:0:
413,94,50429,1,0,0:0:0:0:
304,293,50616,5,0,0:0:0:0:
361,296,50710,2,0,P|389:254|390:220,1,74.9999976158143
401,152,50897,1,0,0:0:0:0:
401,152,50991,1,0,0:0:0:0:
107,324,51179,1,0,0:0:0:0:
107,324,51272,1,0,0:0:0:0:
300,80,51554,1,0,0:0:0:0:
300,80,51929,6,0,L|209:170,1,74.9999976158142
80,285,52304,1,0,0:0:0:0:
279,293,52491,1,0,0:0:0:0:
279,293,52679,1,0,0:0:0:0:
282,142,52866,1,0,0:0:0:0:
282,142,52960,1,0,0:0:0:0:
282,142,53054,2,0,L|146:232,1,149.999995231628
157,225,53616,1,0,0:0:0:0:
134,270,53710,1,0,0:0:0:0:
91,242,53804,1,0,0:0:0:0:
91,242,54179,1,0,0:0:0:0:
