osu file format v14

[General]
AudioFilename: audio.mp3
AudioLeadIn: 0
PreviewTime: -1
Countdown: 0
SampleSet: Soft
StackLeniency: 0.7
Mode: 3
LetterboxInBreaks: 0
SpecialStyle: 0
WidescreenStoryboard: 0

[Editor]
DistanceSpacing: 0.8
BeatDivisor: 4
GridSize: 4
TimelineZoom: 2.1

[Metadata]
Title:AAA
TitleUnicode:AAA
Artist:DJ Amuro Vs DM Ashura
ArtistUnicode:DJ Amuro Vs DM Ashura
Creator:Stage
Version:SSS
Source:
Tags:
BeatmapID:1976022
BeatmapSetID:946348

[Difficulty]
HPDrainRate:7
CircleSize:4
OverallDifficulty:6.5
ApproachRate:9
SliderMultiplier:1.5
SliderTickRate:1

[Events]
//Background and Video events
0,0,"anime-angel-girl-wallpaper-9.jpg",0,0
//Break Periods
2,120229,131055
//Storyboard Layer 0 (Background)
//Storyboard Layer 1 (Fail)
//Storyboard Layer 2 (Pass)
//Storyboard Layer 3 (Foreground)
//Storyboard Layer 4 (Overlay)
//Storyboard Sound Samples

[TimingPoints]
30.6175413112615,375,4,2,0,35,1,0

[HitObjects]
64,192,32,5,0,0:0:0:0:
192,192,124,1,0,0:0:0:0:
320,192,218,1,0,0:0:0:0:
448,192,311,1,0,0:0:0:0:
64,192,405,1,0,0:0:0:0:
192,192,499,1,0,0:0:0:0:
320,192,593,1,0,0:0:0:0:
448,192,686,1,0,0:0:0:0:
64,192,780,1,0,0:0:0:0:
192,192,874,1,0,0:0:0:0:
320,192,968,1,0,0:0:0:0:
448,192,1061,1,0,0:0:0:0:
64,192,1155,1,0,0:0:0:0:
192,192,1249,1,0,0:0:0:0:
320,192,1343,1,0,0:0:0:0:
448,192,1436,1,0,0:0:0:0:
320,192,1530,1,0,0:0:0:0:
192,192,1624,1,0,0:0:0:0:
64,192,1718,1,0,0:0:0:0:
448,192,1811,1,0,0:0:0:0:
320,192,1905,1,0,0:0:0:0:
192,192,1999,1,0,0:0:0:0:
64,192,2093,1,0,0:0:0:0:
448,192,2186,1,0,0:0:0:0:
320,192,2280,1,0,0:0:0:0:
192,192,2374,1,0,0:0:0:0:
64,192,2468,1,0,0:0:0:0:
448,192,2561,1,0,0:0:0:0:
320,192,2655,1,0,0:0:0:0:
192,192,2749,1,0,0:0:0:0:
64,192,2843,1,0,0:0:0:0:
448,192,2936,1,0,0:0:0:0:
64,192,3030,1,0,0:0:0:0:
320,192,3124,1,0,0:0:0:0:
64,192,3218,1,0,0:0:0:0:
320,192,3311,1,0,0:0:0:0:
192,192,3405,1,0,0:0:0:0:
448,192,3499,1,0,0:0:0:0:
320,192,3593,1,0,0:0:0:0:
192,192,3686,1,0,0:0:0:0:
64,192,3780,1,0,0:0:0:0:
192,192,3874,1,0,0:0:0:0:
320,192,3968,1,0,0:0:0:0:
64,192,4061,1,0,0:0:0:0:
192,192,4155,1,0,0:0:0:0:
320,192,4249,1,0,0:0:0:0:
448,192,4343,1,0,0:0:0:0:
64,192,4436,1,0,0:0:0:0:
448,192,4530,1,0,0:0:0:0:
320,192,4624,1,0,0:0:0:0:
192,192,4718,1,0,0:0:0:0:
64,192,4811,1,0,0:0:0:0:
320,192,4905,1,0,0:0:0:0:
192,192,4999,1,0,0:0:0:0:
64,192,5093,1,0,0:0:0:0:
448,192,5186,1,0,0:0:0:0:
320,192,5280,1,0,0:0:0:0:
192,192,5374,1,0,0:0:0:0:
320,192,5468,1,0,0:0:0:0:
192,192,5561,1,0,0:0:0:0:
448,192,5655,1,0,0:0:0:0:
64,192,5749,1,0,0:0:0:0:
448,192,5843,1,0,0:0:0:0:
192,192,5936,1,0,0:0:0:0:
320,192,6030,1,0,0:0:0:0:
64,192,6124,1,0,0:0:0:0:
320,192,6218,1,0,0:0:0:0:
448,192,6311,1,0,0:0:0:0:
320,192,6405,1,0,0:0:0:0:
448,192,6499,1,0,0:0:0:0:
64,192,6593,1,0,0:0:0:0:
192,192,6686,1,0,0:0:0:0:
64,192,6780,1,0,0:0:0:0:
320,192,6874,1,0,0:0:0:0:
192,192,6968,1,0,0:0:0:0:
64,192,7061,1,0,0:0:0:0:
448,192,7155,1,0,0:0:0:0:
64,192,7249,1,0,0:0:0:0:
192,192,7343,1,0,0:0:0:0:
448,192,7436,1,0,0:0:0:0:
320,192,7530,1,0,0:0:0:0:
64,192,7624,1,0,0:0:0:0:
192,192,7718,1,0,0:0:0:0:
320,192,7811,1,0,0:0:0:0:
448,192,7905,1,0,0:0:0:0:
64,192,7999,1,0,0:0:0:0:
192,192,8093,1,0,0:0:0:0:
448,192,8186,1,0,0:0:0:0:
320,192,8280,1,0,0:0:0:0:
192,192,8374,1,0,0:0:0:0:
64,192,8468,1,0,0:0:0:0:
192,192,8561,1,0,0:0:0:0:
448,192,8655,1,0,0:0:0:0:
320,192,8749,1,0,0:0:0:0:
192,192,8843,1,0,0:0:0:0:
64,192,8936,1,0,0:0:0:0:
448,192,9030,1,0,0:0:0:0:
320,192,9124,1,0,0:0:0:0:
192,192,9218,1,0,0:0:0:0:
64,192,9311,1,0,0:0:0:0:
192,192,9405,1,0,0:0:0:0:
320,192,9499,1,0,0:0:0:0:
448,192,9592,1,0,0:0:0:0:
192,192,9686,1,0,0:0:0:0:
320,192,9780,1,0,0:0:0:0:
64,192,9874,1,0,0:0:0:0:
320,192,9967,1,0,0:0:0:0:
64,192,10061,1,0,0:0:0:0:
320,192,10155,1,0,0:0:0:0:
192,192,10249,1,0,0:0:0:0:
448,192,10342,1,0,0:0:0:0:
192,192,10436,1,0,0:0:0:0:
448,192,10530,1,0,0:0:0:0:
192,192,10624,1,0,0:0:0:0:
320,192,10717,1,0,0:0:0:0:
448,192,10811,1,0,0:0:0:0:
320,192,10905,1,0,0:0:0:0:
448,192,10999,1,0,0:0:0:0:
320,192,11092,1,0,0:0:0:0:
64,192,11186,1,0,0:0:0:0:
320,192,11280,1,0,0:0:0:0:
64,192,11374,1,0,0:0:0:0:
320,192,11467,1,0,0:0:0:0:
448,192,11561,1,0,0:0:0:0:
320,192,11655,1,0,0:0:0:0:
448,192,11749,1,0,0:0:0:0:
64,192,11842,1,0,0:0:0:0:
448,192,11936,1,0,0:0:0:0:
64,192,12030,128,0,13530:0:0:0:0:
448,192,12217,1,0,0:0:0:0:
320,192,12217,1,0,0:0:0:0:
320,192,12405,1,0,0:0:0:0:
448,192,12405,1,0,0:0:0:0:
320,192,12686,1,0,0:0:0:0:
448,192,12780,1,0,0:0:0:0:
448,192,12967,1,0,0:0:0:0:
320,192,12967,1,0,0:0:0:0:
448,192,13155,1,0,0:0:0:0:
320,192,13155,1,0,0:0:0:0:
320,192,13342,1,0,0:0:0:0:
448,192,13389,1,0,0:0:0:0:
192,192,13530,128,0,15030:0:0:0:0:
320,192,13717,1,0,0:0:0:0:
448,192,13717,1,0,0:0:0:0:
320,192,13905,1,0,0:0:0:0:
448,192,13905,1,0,0:0:0:0:
320,192,14186,1,0,0:0:0:0:
448,192,14280,1,0,0:0:0:0:
320,192,14467,1,0,0:0:0:0:
448,192,14467,1,0,0:0:0:0:
320,192,14655,1,0,0:0:0:0:
448,192,14655,1,0,0:0:0:0:
320,192,14842,1,0,0:0:0:0:
448,192,15030,128,0,16530:0:0:0:0:
64,192,15217,1,0,0:0:0:0:
192,192,15217,1,0,0:0:0:0:
64,192,15405,1,0,0:0:0:0:
192,192,15405,1,0,0:0:0:0:
64,192,15686,1,0,0:0:0:0:
192,192,15780,1,0,0:0:0:0:
64,192,15967,1,0,0:0:0:0:
192,192,15967,1,0,0:0:0:0:
64,192,16155,1,0,0:0:0:0:
192,192,16155,1,0,0:0:0:0:
64,192,16342,1,0,0:0:0:0:
192,192,16436,1,0,0:0:0:0:
320,192,16530,128,0,18030:0:0:0:0:
192,192,16717,1,0,0:0:0:0:
64,192,16717,1,0,0:0:0:0:
192,192,16905,1,0,0:0:0:0:
64,192,16905,1,0,0:0:0:0:
64,192,17186,1,0,0:0:0:0:
192,192,17280,1,0,0:0:0:0:
192,192,17467,1,0,0:0:0:0:
64,192,17467,1,0,0:0:0:0:
64,192,17655,1,0,0:0:0:0:
192,192,17655,1,0,0:0:0:0:
64,192,17842,1,0,0:0:0:0:
192,192,17936,1,0,0:0:0:0:
448,192,18030,128,0,19530:0:0:0:0:
64,192,18217,1,0,0:0:0:0:
192,192,18217,1,0,0:0:0:0:
64,192,18405,1,0,0:0:0:0:
192,192,18405,1,0,0:0:0:0:
64,192,18686,1,0,0:0:0:0:
192,192,18780,1,0,0:0:0:0:
64,192,18967,1,0,0:0:0:0:
192,192,18967,1,0,0:0:0:0:
192,192,19155,1,0,0:0:0:0:
64,192,19155,1,0,0:0:0:0:
64,192,19342,1,0,0:0:0:0:
192,192,19436,1,0,0:0:0:0:
192,192,19717,1,0,0:0:0:0:
64,192,19717,1,0,0:0:0:0:
192,192,19905,1,0,0:0:0:0:
64,192,19905,1,0,0:0:0:0:
64,192,20186,1,0,0:0:0:0:
192,192,20280,1,0,0:0:0:0:
192,192,20467,1,0,0:0:0:0:
64,192,20467,1,0,0:0:0:0:
64,192,20655,1,0,0:0:0:0:
192,192,20655,1,0,0:0:0:0:
320,192,20842,1,0,0:0:0:0:
448,192,20936,1,0,0:0:0:0:
64,192,21030,1,0,0:0:0:0:
192,192,21124,1,0,0:0:0:0:
448,192,21217,1,0,0:0:0:0:
320,192,21311,1,0,0:0:0:0:
64,192,21405,1,0,0:0:0:0:
192,192,21499,1,0,0:0:0:0:
448,192,21592,1,0,0:0:0:0:
320,192,21686,1,0,0:0:0:0:
192,192,21780,1,0,0:0:0:0:
64,192,21874,1,0,0:0:0:0:
448,192,21967,1,0,0:0:0:0:
320,192,22061,1,0,0:0:0:0:
192,192,22155,1,0,0:0:0:0:
320,192,22249,1,0,0:0:0:0:
192,192,22342,1,0,0:0:0:0:
64,192,22436,1,0,0:0:0:0:
192,192,22530,1,0,0:0:0:0:
320,192,22624,1,0,0:0:0:0:
448,192,22717,1,0,0:0:0:0:
320,192,22811,1,0,0:0:0:0:
64,192,22905,1,0,0:0:0:0:
192,192,22999,1,0,0:0:0:0:
448,192,23092,1,0,0:0:0:0:
320,192,23186,1,0,0:0:0:0:
64,192,23280,1,0,0:0:0:0:
192,192,23343,1,0,0:0:0:0:
448,192,23405,1,0,0:0:0:0:
320,192,23468,1,0,0:0:0:0:
192,192,23530,1,0,0:0:0:0:
64,192,23593,1,0,0:0:0:0:
448,192,23655,1,0,0:0:0:0:
320,192,23718,1,0,0:0:0:0:
192,192,23780,1,0,0:0:0:0:
64,192,23843,1,0,0:0:0:0:
192,192,23905,1,0,0:0:0:0:
64,192,23968,1,0,0:0:0:0:
448,192,24030,5,0,0:0:0:0:
320,192,24124,1,0,0:0:0:0:
192,192,24218,1,0,0:0:0:0:
320,192,24311,1,0,0:0:0:0:
64,192,24403,1,0,0:0:0:0:
192,192,24497,1,0,0:0:0:0:
320,192,24592,1,0,0:0:0:0:
448,192,24684,1,0,0:0:0:0:
64,192,24778,1,0,0:0:0:0:
192,192,24872,1,0,0:0:0:0:
320,192,24967,1,0,0:0:0:0:
448,192,25059,1,0,0:0:0:0:
64,192,25153,1,0,0:0:0:0:
192,192,25247,1,0,0:0:0:0:
320,192,25342,1,0,0:0:0:0:
448,192,25434,1,0,0:0:0:0:
320,192,25528,1,0,0:0:0:0:
192,192,25622,1,0,0:0:0:0:
64,192,25717,1,0,0:0:0:0:
448,192,25809,1,0,0:0:0:0:
320,192,25903,1,0,0:0:0:0:
192,192,25997,1,0,0:0:0:0:
64,192,26092,1,0,0:0:0:0:
448,192,26184,1,0,0:0:0:0:
320,192,26278,1,0,0:0:0:0:
192,192,26372,1,0,0:0:0:0:
64,192,26467,1,0,0:0:0:0:
448,192,26559,1,0,0:0:0:0:
320,192,26653,1,0,0:0:0:0:
192,192,26747,1,0,0:0:0:0:
64,192,26842,1,0,0:0:0:0:
448,192,26934,1,0,0:0:0:0:
64,192,27028,1,0,0:0:0:0:
320,192,27122,1,0,0:0:0:0:
64,192,27217,1,0,0:0:0:0:
320,192,27309,1,0,0:0:0:0:
192,192,27403,1,0,0:0:0:0:
448,192,27497,1,0,0:0:0:0:
320,192,27592,1,0,0:0:0:0:
192,192,27684,1,0,0:0:0:0:
64,192,27778,1,0,0:0:0:0:
192,192,27872,1,0,0:0:0:0:
320,192,27967,1,0,0:0:0:0:
64,192,28059,1,0,0:0:0:0:
192,192,28153,1,0,0:0:0:0:
320,192,28247,1,0,0:0:0:0:
448,192,28342,1,0,0:0:0:0:
64,192,28434,1,0,0:0:0:0:
448,192,28528,1,0,0:0:0:0:
320,192,28622,1,0,0:0:0:0:
192,192,28717,1,0,0:0:0:0:
64,192,28809,1,0,0:0:0:0:
320,192,28903,1,0,0:0:0:0:
192,192,28997,1,0,0:0:0:0:
64,192,29092,1,0,0:0:0:0:
448,192,29184,1,0,0:0:0:0:
320,192,29278,1,0,0:0:0:0:
192,192,29372,1,0,0:0:0:0:
320,192,29467,1,0,0:0:0:0:
192,192,29559,1,0,0:0:0:0:
448,192,29653,1,0,0:0:0:0:
64,192,29747,1,0,0:0:0:0:
448,192,29842,1,0,0:0:0:0:
192,192,29934,1,0,0:0:0:0:
320,192,30028,1,0,0:0:0:0:
64,192,30123,1,0,0:0:0:0:
320,192,30217,1,0,0:0:0:0:
448,192,30309,1,0,0:0:0:0:
320,192,30403,1,0,0:0:0:0:
448,192,30498,1,0,0:0:0:0:
64,192,30592,1,0,0:0:0:0:
192,192,30684,1,0,0:0:0:0:
64,192,30778,1,0,0:0:0:0:
320,192,30873,1,0,0:0:0:0:
192,192,30967,1,0,0:0:0:0:
64,192,31059,1,0,0:0:0:0:
448,192,31153,1,0,0:0:0:0:
64,192,31248,1,0,0:0:0:0:
192,192,31342,1,0,0:0:0:0:
448,192,31434,1,0,0:0:0:0:
320,192,31528,1,0,0:0:0:0:
64,192,31623,1,0,0:0:0:0:
192,192,31717,1,0,0:0:0:0:
320,192,31809,1,0,0:0:0:0:
448,192,31903,1,0,0:0:0:0:
64,192,31998,1,0,0:0:0:0:
192,192,32092,1,0,0:0:0:0:
448,192,32184,1,0,0:0:0:0:
320,192,32278,1,0,0:0:0:0:
192,192,32373,1,0,0:0:0:0:
64,192,32467,1,0,0:0:0:0:
192,192,32559,1,0,0:0:0:0:
448,192,32653,1,0,0:0:0:0:
320,192,32748,1,0,0:0:0:0:
192,192,32842,1,0,0:0:0:0:
64,192,32934,1,0,0:0:0:0:
448,192,33028,1,0,0:0:0:0:
320,192,33123,1,0,0:0:0:0:
192,192,33217,1,0,0:0:0:0:
64,192,33309,1,0,0:0:0:0:
192,192,33403,1,0,0:0:0:0:
320,192,33498,1,0,0:0:0:0:
448,192,33590,1,0,0:0:0:0:
192,192,33684,1,0,0:0:0:0:
320,192,33778,1,0,0:0:0:0:
64,192,33873,1,0,0:0:0:0:
320,192,33965,1,0,0:0:0:0:
64,192,34059,1,0,0:0:0:0:
320,192,34153,1,0,0:0:0:0:
192,192,34248,1,0,0:0:0:0:
448,192,34340,1,0,0:0:0:0:
192,192,34434,1,0,0:0:0:0:
448,192,34528,1,0,0:0:0:0:
192,192,34623,1,0,0:0:0:0:
320,192,34715,1,0,0:0:0:0:
448,192,34809,1,0,0:0:0:0:
320,192,34903,1,0,0:0:0:0:
448,192,34998,1,0,0:0:0:0:
320,192,35090,1,0,0:0:0:0:
64,192,35184,1,0,0:0:0:0:
320,192,35278,1,0,0:0:0:0:
64,192,35373,1,0,0:0:0:0:
320,192,35465,1,0,0:0:0:0:
448,192,35559,1,0,0:0:0:0:
320,192,35653,1,0,0:0:0:0:
448,192,35748,1,0,0:0:0:0:
64,192,35840,1,0,0:0:0:0:
448,192,35934,1,0,0:0:0:0:
64,192,36030,128,0,36780:0:0:0:0:
320,192,36030,128,0,36780:0:0:0:0:
192,192,36405,1,4,0:0:0:0:
448,192,36405,1,4,0:0:0:0:
448,192,36780,128,0,37530:0:0:0:0:
320,192,37155,1,4,0:0:0:0:
64,192,37155,1,4,0:0:0:0:
64,192,37530,128,0,38280:0:0:0:0:
192,192,37530,128,0,38280:0:0:0:0:
320,192,37530,128,0,38280:0:0:0:0:
448,192,37905,1,4,0:0:0:0:
448,192,38280,1,4,0:0:0:0:
64,192,38655,1,0,0:0:0:0:
320,192,38655,1,0,0:0:0:0:
448,192,38655,1,0,0:0:0:0:
192,192,38936,1,0,0:0:0:0:
448,192,38936,1,0,0:0:0:0:
192,192,39030,1,0,0:0:0:0:
448,192,39030,1,0,0:0:0:0:
64,192,40061,1,0,0:0:0:0:
192,192,40061,1,0,0:0:0:0:
64,192,40155,1,0,0:0:0:0:
192,192,40155,1,0,0:0:0:0:
320,192,40436,1,0,0:0:0:0:
448,192,40436,1,0,0:0:0:0:
320,192,40530,1,0,0:0:0:0:
448,192,40530,1,0,0:0:0:0:
64,192,40717,1,0,0:0:0:0:
320,192,40717,1,0,0:0:0:0:
448,192,40717,1,0,0:0:0:0:
64,192,40811,1,0,0:0:0:0:
320,192,40811,1,0,0:0:0:0:
448,192,40811,1,0,0:0:0:0:
192,192,41092,1,0,0:0:0:0:
64,192,41092,1,0,0:0:0:0:
448,192,41092,1,0,0:0:0:0:
64,192,41186,1,0,0:0:0:0:
192,192,41186,1,0,0:0:0:0:
448,192,41186,1,0,0:0:0:0:
64,192,41467,1,0,0:0:0:0:
320,192,41467,1,0,0:0:0:0:
448,192,41467,1,0,0:0:0:0:
448,192,41561,1,0,0:0:0:0:
320,192,41561,1,0,0:0:0:0:
64,192,41561,1,0,0:0:0:0:
64,192,41842,1,0,0:0:0:0:
192,192,41842,1,0,0:0:0:0:
320,192,41842,1,0,0:0:0:0:
448,192,41842,1,0,0:0:0:0:
192,192,41936,1,0,0:0:0:0:
320,192,41936,1,0,0:0:0:0:
448,192,41936,1,0,0:0:0:0:
64,192,41936,128,0,44842:0:0:0:0:
192,192,42780,128,0,44842:0:0:0:0:
320,192,43530,128,0,44842:0:0:0:0:
448,192,44280,128,0,44842:0:0:0:0:
64,192,44936,1,0,0:0:0:0:
192,192,44936,1,0,0:0:0:0:
320,192,44936,1,0,0:0:0:0:
448,192,44936,1,0,0:0:0:0:
448,192,45030,1,0,0:0:0:0:
320,192,45030,1,0,0:0:0:0:
192,192,45030,1,0,0:0:0:0:
64,192,45030,1,0,0:0:0:0:
448,192,46248,128,0,48030:0:0:0:0:
64,192,46530,128,0,48030:0:0:0:0:
320,192,47280,128,0,48030:0:0:0:0:
192,192,47280,128,0,48030:0:0:0:0:
64,192,48123,1,0,0:0:0:0:
192,192,48217,1,0,0:0:0:0:
320,192,48311,1,0,0:0:0:0:
448,192,48405,1,0,0:0:0:0:
64,192,48498,1,0,0:0:0:0:
192,192,48592,1,0,0:0:0:0:
320,192,48686,1,0,0:0:0:0:
448,192,48780,1,0,0:0:0:0:
192,192,48873,1,0,0:0:0:0:
448,192,48967,1,0,0:0:0:0:
192,192,49061,1,0,0:0:0:0:
64,192,49155,1,0,0:0:0:0:
320,192,49248,1,0,0:0:0:0:
64,192,49342,1,0,0:0:0:0:
448,192,49436,1,0,0:0:0:0:
320,192,49530,1,0,0:0:0:0:
192,192,49623,1,0,0:0:0:0:
64,192,49717,1,0,0:0:0:0:
320,192,49811,1,0,0:0:0:0:
448,192,49905,1,0,0:0:0:0:
320,192,49998,1,0,0:0:0:0:
192,192,50092,1,0,0:0:0:0:
64,192,50186,1,0,0:0:0:0:
320,192,50279,1,0,0:0:0:0:
448,192,50373,1,0,0:0:0:0:
64,192,50467,1,0,0:0:0:0:
320,192,50467,1,0,0:0:0:0:
192,192,50654,1,0,0:0:0:0:
448,192,50654,1,0,0:0:0:0:
320,192,50842,1,0,0:0:0:0:
64,192,50842,1,0,0:0:0:0:
448,192,51029,1,0,0:0:0:0:
320,192,51123,1,0,0:0:0:0:
192,192,51217,1,0,0:0:0:0:
64,192,51311,1,0,0:0:0:0:
448,192,51404,1,0,0:0:0:0:
320,192,51498,1,0,0:0:0:0:
192,192,51592,1,0,0:0:0:0:
64,192,51686,1,0,0:0:0:0:
320,192,51779,1,0,0:0:0:0:
64,192,51873,1,0,0:0:0:0:
320,192,51967,1,0,0:0:0:0:
192,192,52061,1,0,0:0:0:0:
448,192,52154,1,0,0:0:0:0:
192,192,52248,1,0,0:0:0:0:
320,192,52342,1,0,0:0:0:0:
192,192,52436,1,0,0:0:0:0:
64,192,52529,1,0,0:0:0:0:
320,192,52623,1,0,0:0:0:0:
192,192,52717,1,0,0:0:0:0:
320,192,52811,1,0,0:0:0:0:
64,192,52904,1,0,0:0:0:0:
320,192,52998,1,0,0:0:0:0:
448,192,53092,1,0,0:0:0:0:
320,192,53186,1,0,0:0:0:0:
192,192,53279,1,0,0:0:0:0:
448,192,53467,1,0,0:0:0:0:
192,192,53467,1,0,0:0:0:0:
448,192,53654,1,0,0:0:0:0:
192,192,53654,1,0,0:0:0:0:
320,192,53842,1,0,0:0:0:0:
64,192,53842,1,0,0:0:0:0:
192,192,54029,1,0,0:0:0:0:
320,192,54123,1,0,0:0:0:0:
448,192,54217,1,0,0:0:0:0:
320,192,54311,1,0,0:0:0:0:
192,192,54404,1,0,0:0:0:0:
64,192,54498,1,0,0:0:0:0:
320,192,54592,1,0,0:0:0:0:
64,192,54686,1,0,0:0:0:0:
320,192,54779,1,0,0:0:0:0:
448,192,54873,1,0,0:0:0:0:
192,192,54967,1,0,0:0:0:0:
64,192,55061,1,0,0:0:0:0:
320,192,55154,1,0,0:0:0:0:
192,192,55248,1,0,0:0:0:0:
448,192,55342,1,0,0:0:0:0:
192,192,55436,1,0,0:0:0:0:
64,192,55529,1,0,0:0:0:0:
320,192,55623,1,0,0:0:0:0:
64,192,55717,1,0,0:0:0:0:
192,192,55811,1,0,0:0:0:0:
320,192,55904,1,0,0:0:0:0:
64,192,55998,1,0,0:0:0:0:
448,192,56092,1,0,0:0:0:0:
64,192,56186,1,0,0:0:0:0:
320,192,56279,1,0,0:0:0:0:
64,192,56467,1,0,0:0:0:0:
320,192,56467,1,0,0:0:0:0:
448,192,56467,1,0,0:0:0:0:
64,192,56654,1,0,0:0:0:0:
320,192,56654,1,0,0:0:0:0:
448,192,56654,1,0,0:0:0:0:
64,192,56842,1,0,0:0:0:0:
320,192,56842,1,0,0:0:0:0:
448,192,56842,1,0,0:0:0:0:
320,192,57029,1,0,0:0:0:0:
64,192,57123,1,0,0:0:0:0:
192,192,57217,1,0,0:0:0:0:
320,192,57311,1,0,0:0:0:0:
448,192,57404,1,0,0:0:0:0:
192,192,57498,1,0,0:0:0:0:
64,192,57592,1,0,0:0:0:0:
320,192,57686,1,0,0:0:0:0:
64,192,57779,1,0,0:0:0:0:
448,192,57873,1,0,0:0:0:0:
192,192,57967,1,0,0:0:0:0:
320,192,58061,1,0,0:0:0:0:
192,192,58154,1,0,0:0:0:0:
64,192,58248,1,0,0:0:0:0:
320,192,58342,1,0,0:0:0:0:
192,192,58436,1,0,0:0:0:0:
448,192,58529,1,0,0:0:0:0:
192,192,58623,1,0,0:0:0:0:
448,192,58717,1,0,0:0:0:0:
64,192,58811,1,0,0:0:0:0:
192,192,58904,1,0,0:0:0:0:
320,192,58998,1,0,0:0:0:0:
192,192,59092,1,0,0:0:0:0:
64,192,59186,1,0,0:0:0:0:
320,192,59279,1,0,0:0:0:0:
320,192,59467,1,0,0:0:0:0:
448,192,59467,1,0,0:0:0:0:
320,192,59654,1,0,0:0:0:0:
448,192,59654,1,0,0:0:0:0:
64,192,59842,1,0,0:0:0:0:
192,192,59842,1,0,0:0:0:0:
64,192,60029,1,0,0:0:0:0:
320,192,60123,1,0,0:0:0:0:
192,192,60217,1,0,0:0:0:0:
320,192,60311,1,0,0:0:0:0:
64,192,60404,1,0,0:0:0:0:
192,192,60498,1,0,0:0:0:0:
448,192,60592,1,0,0:0:0:0:
192,192,60686,1,0,0:0:0:0:
448,192,60779,1,0,0:0:0:0:
192,192,60873,1,0,0:0:0:0:
64,192,60967,1,0,0:0:0:0:
192,192,61061,1,0,0:0:0:0:
320,192,61154,1,0,0:0:0:0:
448,192,61248,1,0,0:0:0:0:
64,192,61342,1,0,0:0:0:0:
192,192,61436,1,0,0:0:0:0:
320,192,61529,1,0,0:0:0:0:
192,192,61623,1,0,0:0:0:0:
320,192,61717,1,0,0:0:0:0:
448,192,61811,1,0,0:0:0:0:
192,192,61904,1,0,0:0:0:0:
320,192,61998,1,0,0:0:0:0:
64,192,62092,1,0,0:0:0:0:
320,192,62186,1,0,0:0:0:0:
192,192,62279,1,0,0:0:0:0:
448,192,62467,1,0,0:0:0:0:
192,192,62467,1,0,0:0:0:0:
64,192,62467,1,0,0:0:0:0:
64,192,62654,1,0,0:0:0:0:
192,192,62654,1,0,0:0:0:0:
448,192,62654,1,0,0:0:0:0:
64,192,62842,1,0,0:0:0:0:
192,192,62842,1,0,0:0:0:0:
320,192,62842,1,0,0:0:0:0:
448,192,63029,1,0,0:0:0:0:
192,192,63123,1,0,0:0:0:0:
64,192,63217,1,0,0:0:0:0:
320,192,63311,1,0,0:0:0:0:
192,192,63404,1,0,0:0:0:0:
448,192,63498,1,0,0:0:0:0:
64,192,63592,1,0,0:0:0:0:
320,192,63686,1,0,0:0:0:0:
192,192,63779,1,0,0:0:0:0:
320,192,63873,1,0,0:0:0:0:
448,192,63967,1,0,0:0:0:0:
192,192,64061,1,0,0:0:0:0:
64,192,64154,1,0,0:0:0:0:
320,192,64248,1,0,0:0:0:0:
64,192,64342,1,0,0:0:0:0:
320,192,64436,1,0,0:0:0:0:
448,192,64529,1,0,0:0:0:0:
192,192,64623,1,0,0:0:0:0:
64,192,64717,1,0,0:0:0:0:
320,192,64811,1,0,0:0:0:0:
448,192,64904,1,0,0:0:0:0:
192,192,64998,1,0,0:0:0:0:
64,192,65092,1,0,0:0:0:0:
448,192,65186,1,0,0:0:0:0:
64,192,65279,1,0,0:0:0:0:
192,192,65467,1,0,0:0:0:0:
320,192,65467,1,0,0:0:0:0:
192,192,65654,1,0,0:0:0:0:
320,192,65654,1,0,0:0:0:0:
64,192,65842,1,0,0:0:0:0:
448,192,65842,1,0,0:0:0:0:
192,192,65936,1,0,0:0:0:0:
320,192,66029,1,0,0:0:0:0:
192,192,66123,1,0,0:0:0:0:
64,192,66217,1,0,0:0:0:0:
320,192,66311,1,0,0:0:0:0:
448,192,66404,1,0,0:0:0:0:
192,192,66498,1,0,0:0:0:0:
64,192,66592,1,0,0:0:0:0:
320,192,66686,1,0,0:0:0:0:
448,192,66779,1,0,0:0:0:0:
192,192,66873,1,0,0:0:0:0:
64,192,66967,1,0,0:0:0:0:
192,192,67061,1,0,0:0:0:0:
320,192,67154,1,0,0:0:0:0:
448,192,67248,1,0,0:0:0:0:
64,192,67342,1,0,0:0:0:0:
192,192,67436,1,0,0:0:0:0:
320,192,67529,1,0,0:0:0:0:
448,192,67623,1,0,0:0:0:0:
192,192,67717,1,0,0:0:0:0:
448,192,67811,1,0,0:0:0:0:
192,192,67904,1,0,0:0:0:0:
448,192,67998,1,0,0:0:0:0:
192,192,68092,1,0,0:0:0:0:
448,192,68186,1,0,0:0:0:0:
64,192,68279,1,0,0:0:0:0:
320,192,68373,1,0,0:0:0:0:
64,192,68467,1,0,0:0:0:0:
320,192,68561,1,0,0:0:0:0:
64,192,68654,1,0,0:0:0:0:
320,192,68748,1,0,0:0:0:0:
64,192,68842,1,0,0:0:0:0:
320,192,68936,1,0,0:0:0:0:
192,192,69029,1,0,0:0:0:0:
448,192,69124,1,0,0:0:0:0:
192,192,69217,1,0,0:0:0:0:
320,192,69311,1,0,0:0:0:0:
192,192,69404,1,0,0:0:0:0:
448,192,69499,1,0,0:0:0:0:
192,192,69592,1,0,0:0:0:0:
320,192,69686,1,0,0:0:0:0:
64,192,69779,1,0,0:0:0:0:
448,192,69873,1,0,0:0:0:0:
64,192,69967,1,0,0:0:0:0:
448,192,70061,1,0,0:0:0:0:
64,192,70154,1,0,0:0:0:0:
448,192,70248,1,0,0:0:0:0:
64,192,70342,1,0,0:0:0:0:
448,192,70436,1,0,0:0:0:0:
64,192,70529,1,0,0:0:0:0:
192,192,70623,1,0,0:0:0:0:
320,192,70717,1,0,0:0:0:0:
448,192,70810,1,0,0:0:0:0:
64,192,70904,1,0,0:0:0:0:
192,192,70998,1,0,0:0:0:0:
320,192,71092,1,0,0:0:0:0:
448,192,71185,1,0,0:0:0:0:
64,192,71280,1,0,0:0:0:0:
192,192,71343,1,0,0:0:0:0:
320,192,71405,1,0,0:0:0:0:
64,192,71468,1,0,0:0:0:0:
192,192,71530,1,0,0:0:0:0:
320,192,71593,1,0,0:0:0:0:
64,192,71655,1,0,0:0:0:0:
448,192,71718,1,0,0:0:0:0:
320,192,71780,1,0,0:0:0:0:
192,192,71843,1,0,0:0:0:0:
64,192,71905,1,0,0:0:0:0:
448,192,71968,1,0,0:0:0:0:
320,192,72030,1,0,0:0:0:0:
64,192,72030,1,0,0:0:0:0:
64,192,72217,128,0,75029:0:0:0:0:
320,192,72217,1,0,0:0:0:0:
448,192,72217,1,0,0:0:0:0:
320,192,72592,1,0,0:0:0:0:
448,192,72592,1,0,0:0:0:0:
320,192,72967,1,0,0:0:0:0:
448,192,72967,1,0,0:0:0:0:
192,192,73342,1,0,0:0:0:0:
320,192,73342,1,0,0:0:0:0:
192,192,73717,1,0,0:0:0:0:
320,192,73717,1,0,0:0:0:0:
192,192,74092,1,0,0:0:0:0:
320,192,74092,1,0,0:0:0:0:
192,192,74467,1,0,0:0:0:0:
448,192,74467,1,0,0:0:0:0:
320,192,74654,1,0,0:0:0:0:
448,192,74654,1,0,0:0:0:0:
192,192,74842,1,0,0:0:0:0:
320,192,74842,1,0,0:0:0:0:
448,192,75029,128,0,78029:0:0:0:0:
320,192,75217,1,0,0:0:0:0:
64,192,75217,1,0,0:0:0:0:
320,192,75592,1,0,0:0:0:0:
64,192,75592,1,0,0:0:0:0:
320,192,75967,1,0,0:0:0:0:
192,192,75967,1,0,0:0:0:0:
320,192,76342,1,0,0:0:0:0:
192,192,76342,1,0,0:0:0:0:
64,192,76717,1,0,0:0:0:0:
320,192,76717,1,0,0:0:0:0:
64,192,77092,1,0,0:0:0:0:
320,192,77092,1,0,0:0:0:0:
192,192,77467,1,0,0:0:0:0:
320,192,77467,1,0,0:0:0:0:
64,192,77654,1,0,0:0:0:0:
320,192,77654,1,0,0:0:0:0:
64,192,77842,1,0,0:0:0:0:
192,192,77842,1,0,0:0:0:0:
192,192,78029,128,0,81029:0:0:0:0:
64,192,78217,1,0,0:0:0:0:
64,192,78592,1,0,0:0:0:0:
448,192,78967,1,0,0:0:0:0:
448,192,79342,1,0,0:0:0:0:
64,192,79717,1,0,0:0:0:0:
64,192,80092,1,0,0:0:0:0:
448,192,80467,1,0,0:0:0:0:
64,192,80467,1,0,0:0:0:0:
320,192,80654,1,0,0:0:0:0:
64,192,80842,1,0,0:0:0:0:
448,192,80842,1,0,0:0:0:0:
448,192,81029,1,0,0:0:0:0:
64,192,81217,128,0,81592:0:0:0:0:
320,192,81592,128,0,81967:0:0:0:0:
448,192,81967,128,0,82342:0:0:0:0:
192,192,82342,128,0,82717:0:0:0:0:
64,192,82717,128,0,84029:0:0:0:0:
192,192,83092,1,0,0:0:0:0:
320,192,83092,1,0,0:0:0:0:
192,192,83467,1,0,0:0:0:0:
320,192,83467,1,0,0:0:0:0:
448,192,83654,1,0,0:0:0:0:
320,192,83654,1,0,0:0:0:0:
448,192,83842,1,0,0:0:0:0:
320,192,83842,1,0,0:0:0:0:
192,192,84029,1,0,0:0:0:0:
320,192,84029,1,0,0:0:0:0:
448,192,84029,1,0,0:0:0:0:
64,192,84217,1,0,0:0:0:0:
192,192,84310,1,0,0:0:0:0:
320,192,84404,1,0,0:0:0:0:
448,192,84498,1,0,0:0:0:0:
64,192,84592,1,0,0:0:0:0:
192,192,84685,1,0,0:0:0:0:
320,192,84779,1,0,0:0:0:0:
448,192,84873,1,0,0:0:0:0:
64,192,84967,1,0,0:0:0:0:
192,192,85060,1,0,0:0:0:0:
448,192,85154,1,0,0:0:0:0:
320,192,85248,1,0,0:0:0:0:
64,192,85342,1,0,0:0:0:0:
320,192,85435,1,0,0:0:0:0:
448,192,85529,1,0,0:0:0:0:
192,192,85623,1,0,0:0:0:0:
320,192,85717,1,0,0:0:0:0:
448,192,85810,1,0,0:0:0:0:
192,192,85904,1,0,0:0:0:0:
64,192,85998,1,0,0:0:0:0:
320,192,86092,1,0,0:0:0:0:
448,192,86185,1,0,0:0:0:0:
192,192,86279,1,0,0:0:0:0:
64,192,86373,1,0,0:0:0:0:
320,192,86467,1,0,0:0:0:0:
192,192,86560,1,0,0:0:0:0:
64,192,86654,1,0,0:0:0:0:
320,192,86748,1,0,0:0:0:0:
192,192,86842,1,0,0:0:0:0:
448,192,86935,1,0,0:0:0:0:
192,192,87029,1,0,0:0:0:0:
64,192,87123,1,0,0:0:0:0:
192,192,87217,1,0,0:0:0:0:
64,192,87310,1,0,0:0:0:0:
320,192,87404,1,0,0:0:0:0:
192,192,87498,1,0,0:0:0:0:
64,192,87592,1,0,0:0:0:0:
192,192,87685,1,0,0:0:0:0:
320,192,87779,1,0,0:0:0:0:
448,192,87873,1,0,0:0:0:0:
192,192,87967,1,0,0:0:0:0:
448,192,88060,1,0,0:0:0:0:
320,192,88154,1,0,0:0:0:0:
192,192,88248,1,0,0:0:0:0:
64,192,88342,1,0,0:0:0:0:
320,192,88435,1,0,0:0:0:0:
192,192,88529,1,0,0:0:0:0:
448,192,88623,1,0,0:0:0:0:
192,192,88717,1,0,0:0:0:0:
320,192,88810,1,0,0:0:0:0:
192,192,88904,1,0,0:0:0:0:
448,192,88998,1,0,0:0:0:0:
192,192,89092,1,0,0:0:0:0:
64,192,89185,1,0,0:0:0:0:
320,192,89279,1,0,0:0:0:0:
192,192,89373,1,0,0:0:0:0:
448,192,89467,1,0,0:0:0:0:
192,192,89560,1,0,0:0:0:0:
64,192,89654,1,0,0:0:0:0:
192,192,89748,1,0,0:0:0:0:
320,192,89842,1,0,0:0:0:0:
192,192,89935,1,0,0:0:0:0:
448,192,90029,1,0,0:0:0:0:
192,192,90123,1,0,0:0:0:0:
64,192,90217,1,0,0:0:0:0:
192,192,90310,1,0,0:0:0:0:
320,192,90404,1,0,0:0:0:0:
192,192,90498,1,0,0:0:0:0:
448,192,90592,1,0,0:0:0:0:
320,192,90685,1,0,0:0:0:0:
192,192,90779,1,0,0:0:0:0:
64,192,90873,1,0,0:0:0:0:
320,192,90966,1,0,0:0:0:0:
192,192,91060,1,0,0:0:0:0:
448,192,91154,1,0,0:0:0:0:
320,192,91248,1,0,0:0:0:0:
192,192,91341,1,0,0:0:0:0:
320,192,91435,1,0,0:0:0:0:
448,192,91529,1,0,0:0:0:0:
64,192,91623,1,0,0:0:0:0:
192,192,91716,1,0,0:0:0:0:
64,192,91810,1,0,0:0:0:0:
448,192,91904,1,0,0:0:0:0:
320,192,91998,1,0,0:0:0:0:
448,192,92091,1,0,0:0:0:0:
192,192,92185,1,0,0:0:0:0:
320,192,92279,1,0,0:0:0:0:
192,192,92373,1,0,0:0:0:0:
320,192,92466,1,0,0:0:0:0:
192,192,92560,1,0,0:0:0:0:
320,192,92654,1,0,0:0:0:0:
64,192,92748,1,0,0:0:0:0:
192,192,92841,1,0,0:0:0:0:
320,192,92935,1,0,0:0:0:0:
448,192,93029,1,0,0:0:0:0:
64,192,93123,1,0,0:0:0:0:
192,192,93216,1,0,0:0:0:0:
320,192,93310,1,0,0:0:0:0:
448,192,93404,1,0,0:0:0:0:
64,192,93498,1,0,0:0:0:0:
192,192,93591,1,0,0:0:0:0:
448,192,93685,1,0,0:0:0:0:
320,192,93779,1,0,0:0:0:0:
64,192,93873,1,0,0:0:0:0:
192,192,93966,1,0,0:0:0:0:
448,192,94060,1,0,0:0:0:0:
320,192,94154,1,0,0:0:0:0:
64,192,94248,1,0,0:0:0:0:
192,192,94341,1,0,0:0:0:0:
320,192,94435,1,0,0:0:0:0:
64,192,94529,128,0,95279:0:0:0:0:
448,192,94529,128,0,95279:0:0:0:0:
320,192,95279,1,0,0:0:0:0:
192,192,95373,1,0,0:0:0:0:
320,192,95466,1,0,0:0:0:0:
448,192,95560,1,0,0:0:0:0:
192,192,95654,1,0,0:0:0:0:
448,192,95748,1,0,0:0:0:0:
192,192,95841,1,0,0:0:0:0:
64,192,95935,1,0,0:0:0:0:
448,192,96029,128,0,96779:0:0:0:0:
192,192,96029,128,0,96779:0:0:0:0:
320,192,96029,128,0,96779:0:0:0:0:
64,192,96779,1,0,0:0:0:0:
448,192,96873,1,0,0:0:0:0:
320,192,96966,1,0,0:0:0:0:
192,192,97060,1,0,0:0:0:0:
64,192,97154,1,0,0:0:0:0:
192,192,97248,1,0,0:0:0:0:
64,192,97341,1,0,0:0:0:0:
192,192,97435,1,0,0:0:0:0:
64,192,97529,1,0,0:0:0:0:
320,192,97623,1,0,0:0:0:0:
64,192,97716,1,0,0:0:0:0:
320,192,97810,1,0,0:0:0:0:
64,192,97904,1,0,0:0:0:0:
192,192,97998,1,0,0:0:0:0:
64,192,98091,1,0,0:0:0:0:
192,192,98185,1,0,0:0:0:0:
320,192,98279,1,0,0:0:0:0:
448,192,98373,1,0,0:0:0:0:
64,192,98466,1,0,0:0:0:0:
192,192,98560,1,0,0:0:0:0:
320,192,98654,1,0,0:0:0:0:
448,192,98748,1,0,0:0:0:0:
192,192,98841,1,0,0:0:0:0:
448,192,98935,1,0,0:0:0:0:
64,192,99029,1,0,0:0:0:0:
448,192,99123,1,0,0:0:0:0:
192,192,99216,1,0,0:0:0:0:
448,192,99310,1,0,0:0:0:0:
320,192,99404,1,0,0:0:0:0:
448,192,99498,1,0,0:0:0:0:
320,192,99591,1,0,0:0:0:0:
192,192,99685,1,0,0:0:0:0:
64,192,99779,1,0,0:0:0:0:
320,192,99873,1,0,0:0:0:0:
64,192,99966,1,0,0:0:0:0:
448,192,100060,1,0,0:0:0:0:
320,192,100154,1,0,0:0:0:0:
448,192,100248,1,0,0:0:0:0:
320,192,100341,1,0,0:0:0:0:
448,192,100435,1,0,0:0:0:0:
320,192,100529,1,0,0:0:0:0:
192,192,100623,1,0,0:0:0:0:
64,192,100716,1,0,0:0:0:0:
192,192,100810,1,0,0:0:0:0:
64,192,100904,1,0,0:0:0:0:
320,192,100998,1,0,0:0:0:0:
64,192,101091,1,0,0:0:0:0:
448,192,101185,1,0,0:0:0:0:
64,192,101279,1,0,0:0:0:0:
320,192,101373,1,0,0:0:0:0:
64,192,101466,1,0,0:0:0:0:
192,192,101560,1,0,0:0:0:0:
64,192,101654,1,0,0:0:0:0:
192,192,101748,1,0,0:0:0:0:
320,192,101841,1,0,0:0:0:0:
448,192,101935,1,0,0:0:0:0:
64,192,102029,1,0,0:0:0:0:
192,192,102123,1,0,0:0:0:0:
64,192,102216,1,0,0:0:0:0:
192,192,102310,1,0,0:0:0:0:
320,192,102404,1,0,0:0:0:0:
192,192,102498,1,0,0:0:0:0:
320,192,102591,1,0,0:0:0:0:
192,192,102685,1,0,0:0:0:0:
320,192,102779,1,0,0:0:0:0:
448,192,102873,1,0,0:0:0:0:
320,192,102966,1,0,0:0:0:0:
448,192,103060,1,0,0:0:0:0:
64,192,103154,1,0,0:0:0:0:
192,192,103248,1,0,0:0:0:0:
64,192,103341,1,0,0:0:0:0:
192,192,103435,1,0,0:0:0:0:
320,192,103529,1,0,0:0:0:0:
192,192,103623,1,0,0:0:0:0:
320,192,103716,1,0,0:0:0:0:
192,192,103810,1,0,0:0:0:0:
320,192,103904,1,0,0:0:0:0:
448,192,103998,1,0,0:0:0:0:
320,192,104091,1,0,0:0:0:0:
448,192,104185,1,0,0:0:0:0:
320,192,104279,1,0,0:0:0:0:
448,192,104373,1,0,0:0:0:0:
192,192,104466,1,0,0:0:0:0:
320,192,104560,1,0,0:0:0:0:
192,192,104654,1,0,0:0:0:0:
320,192,104748,1,0,0:0:0:0:
448,192,104841,1,0,0:0:0:0:
320,192,104935,1,0,0:0:0:0:
448,192,105029,1,0,0:0:0:0:
64,192,105123,1,0,0:0:0:0:
192,192,105216,1,0,0:0:0:0:
320,192,105310,1,0,0:0:0:0:
192,192,105404,1,0,0:0:0:0:
320,192,105498,1,0,0:0:0:0:
448,192,105591,1,0,0:0:0:0:
320,192,105685,1,0,0:0:0:0:
448,192,105779,1,0,0:0:0:0:
192,192,105873,1,0,0:0:0:0:
320,192,105966,1,0,0:0:0:0:
192,192,106060,1,0,0:0:0:0:
64,192,106154,1,0,0:0:0:0:
192,192,106248,1,0,0:0:0:0:
448,192,106341,1,0,0:0:0:0:
192,192,106435,1,0,0:0:0:0:
64,192,106529,1,0,0:0:0:0:
192,192,106623,1,0,0:0:0:0:
448,192,106716,1,0,0:0:0:0:
192,192,106810,1,0,0:0:0:0:
320,192,106904,1,0,0:0:0:0:
192,192,106998,1,0,0:0:0:0:
448,192,107091,1,0,0:0:0:0:
192,192,107185,1,0,0:0:0:0:
320,192,107279,1,0,0:0:0:0:
192,192,107373,1,0,0:0:0:0:
320,192,107466,1,0,0:0:0:0:
448,192,107560,1,0,0:0:0:0:
320,192,107654,1,0,0:0:0:0:
192,192,107748,1,0,0:0:0:0:
64,192,107841,1,0,0:0:0:0:
192,192,107935,1,0,0:0:0:0:
448,192,108029,1,0,0:0:0:0:
64,192,108123,1,0,0:0:0:0:
448,192,108216,1,0,0:0:0:0:
192,192,108310,1,0,0:0:0:0:
448,192,108404,1,0,0:0:0:0:
320,192,108498,1,0,0:0:0:0:
448,192,108591,1,0,0:0:0:0:
192,192,108685,1,0,0:0:0:0:
448,192,108779,1,0,0:0:0:0:
64,192,108873,1,0,0:0:0:0:
448,192,108966,1,0,0:0:0:0:
64,192,109060,1,0,0:0:0:0:
448,192,109154,1,0,0:0:0:0:
192,192,109248,1,0,0:0:0:0:
448,192,109341,1,0,0:0:0:0:
64,192,109435,1,0,0:0:0:0:
448,192,109529,1,0,0:0:0:0:
192,192,109623,1,0,0:0:0:0:
448,192,109716,1,0,0:0:0:0:
320,192,109810,1,0,0:0:0:0:
448,192,109904,1,0,0:0:0:0:
64,192,109998,1,0,0:0:0:0:
448,192,110091,1,0,0:0:0:0:
192,192,110185,1,0,0:0:0:0:
448,192,110279,1,0,0:0:0:0:
64,192,110373,1,0,0:0:0:0:
448,192,110466,1,0,0:0:0:0:
192,192,110560,1,0,0:0:0:0:
448,192,110654,1,0,0:0:0:0:
64,192,110748,1,0,0:0:0:0:
448,192,110841,1,0,0:0:0:0:
192,192,110935,1,0,0:0:0:0:
448,192,111029,1,0,0:0:0:0:
64,192,111123,1,0,0:0:0:0:
448,192,111216,1,0,0:0:0:0:
192,192,111310,1,0,0:0:0:0:
448,192,111404,1,0,0:0:0:0:
64,192,111497,1,0,0:0:0:0:
192,192,111591,1,0,0:0:0:0:
320,192,111685,1,0,0:0:0:0:
448,192,111779,1,0,0:0:0:0:
192,192,111872,1,0,0:0:0:0:
320,192,111966,1,0,0:0:0:0:
448,192,112060,1,0,0:0:0:0:
320,192,112154,1,0,0:0:0:0:
192,192,112247,1,0,0:0:0:0:
320,192,112341,1,0,0:0:0:0:
448,192,112435,1,0,0:0:0:0:
64,192,112529,1,0,0:0:0:0:
320,192,112529,1,0,0:0:0:0:
448,192,113279,1,0,0:0:0:0:
320,192,113372,1,0,0:0:0:0:
192,192,113466,1,0,0:0:0:0:
64,192,113560,1,0,0:0:0:0:
448,192,113654,1,0,0:0:0:0:
320,192,113747,1,0,0:0:0:0:
192,192,113841,1,0,0:0:0:0:
64,192,113935,1,0,0:0:0:0:
192,192,114029,1,0,0:0:0:0:
64,192,114122,1,0,0:0:0:0:
192,192,114216,1,0,0:0:0:0:
320,192,114310,1,0,0:0:0:0:
448,192,114404,1,0,0:0:0:0:
64,192,114497,1,0,0:0:0:0:
192,192,114591,1,0,0:0:0:0:
320,192,114685,1,0,0:0:0:0:
448,192,114779,1,0,0:0:0:0:
64,192,114872,1,0,0:0:0:0:
192,192,114966,1,0,0:0:0:0:
448,192,115060,1,0,0:0:0:0:
320,192,115154,1,0,0:0:0:0:
64,192,115247,1,0,0:0:0:0:
192,192,115341,1,0,0:0:0:0:
320,192,115435,1,0,0:0:0:0:
448,192,115529,1,0,0:0:0:0:
192,192,115622,1,0,0:0:0:0:
64,192,115716,1,0,0:0:0:0:
320,192,115810,1,0,0:0:0:0:
448,192,115904,1,0,0:0:0:0:
192,192,115997,1,0,0:0:0:0:
64,192,116091,1,0,0:0:0:0:
320,192,116185,1,0,0:0:0:0:
448,192,116279,1,0,0:0:0:0:
64,192,116372,1,0,0:0:0:0:
192,192,116466,1,0,0:0:0:0:
320,192,116560,1,0,0:0:0:0:
64,192,116654,1,0,0:0:0:0:
320,192,116747,1,0,0:0:0:0:
448,192,116841,1,0,0:0:0:0:
320,192,116935,1,0,0:0:0:0:
192,192,117029,1,0,0:0:0:0:
64,192,117122,1,0,0:0:0:0:
448,192,117216,1,0,0:0:0:0:
320,192,117310,1,0,0:0:0:0:
192,192,117404,1,0,0:0:0:0:
64,192,117497,1,0,0:0:0:0:
448,192,117591,1,0,0:0:0:0:
320,192,117685,1,0,0:0:0:0:
192,192,117779,1,0,0:0:0:0:
64,192,117872,1,0,0:0:0:0:
448,192,117966,1,0,0:0:0:0:
320,192,118060,1,0,0:0:0:0:
64,192,118154,1,0,0:0:0:0:
192,192,118247,1,0,0:0:0:0:
448,192,118341,1,0,0:0:0:0:
320,192,118435,1,0,0:0:0:0:
64,192,118529,1,0,0:0:0:0:
448,192,118622,1,0,0:0:0:0:
320,192,118716,1,0,0:0:0:0:
192,192,118810,1,0,0:0:0:0:
64,192,118904,1,0,0:0:0:0:
448,192,118997,1,0,0:0:0:0:
320,192,119091,1,0,0:0:0:0:
192,192,119185,1,0,0:0:0:0:
64,192,119279,1,0,0:0:0:0:
320,192,119372,1,0,0:0:0:0:
192,192,119466,1,0,0:0:0:0:
64,192,119560,1,0,0:0:0:0:
192,192,119654,1,0,0:0:0:0:
64,192,119747,1,0,0:0:0:0:
192,192,119841,1,0,0:0:0:0:
64,192,119935,1,0,0:0:0:0:
192,192,120029,1,0,0:0:0:0:
448,192,120029,1,0,0:0:0:0:
320,192,131655,5,0,0:0:0:0:
448,192,131655,1,0,0:0:0:0:
192,192,131936,1,0,0:0:0:0:
64,192,132030,128,0,132780:0:0:0:0:
192,192,132030,128,0,132780:0:0:0:0:
64,192,133155,1,0,0:0:0:0:
192,192,133155,1,0,0:0:0:0:
320,192,133436,1,0,0:0:0:0:
64,192,133530,1,0,0:0:0:0:
192,192,133530,1,0,0:0:0:0:
192,192,133811,1,0,0:0:0:0:
64,192,133905,1,0,0:0:0:0:
192,192,134655,1,0,0:0:0:0:
448,192,134655,1,0,0:0:0:0:
192,192,134843,1,0,0:0:0:0:
64,192,134936,1,0,0:0:0:0:
192,192,135030,1,0,0:0:0:0:
192,192,135405,1,0,0:0:0:0:
320,192,135593,1,0,0:0:0:0:
320,192,135968,1,0,0:0:0:0:
192,192,136343,1,0,0:0:0:0:
192,192,136718,1,0,0:0:0:0:
64,192,137093,1,0,0:0:0:0:
64,192,137468,1,0,0:0:0:0:
192,192,137843,1,0,0:0:0:0:
320,192,137936,1,0,0:0:0:0:
192,192,138030,1,0,0:0:0:0:
192,192,138593,1,0,0:0:0:0:
320,192,138780,1,0,0:0:0:0:
448,192,138968,1,0,0:0:0:0:
320,192,139155,1,0,0:0:0:0:
448,192,139343,1,0,0:0:0:0:
64,192,139530,1,0,0:0:0:0:
320,192,139530,1,0,0:0:0:0:
192,192,139718,1,0,0:0:0:0:
448,192,139905,1,0,0:0:0:0:
320,192,140093,1,0,0:0:0:0:
320,192,140843,1,0,0:0:0:0:
448,192,140843,1,0,0:0:0:0:
64,192,141030,1,0,0:0:0:0:
320,192,141030,1,0,0:0:0:0:
448,192,141124,1,0,0:0:0:0:
320,192,141218,1,0,0:0:0:0:
192,192,141311,1,0,0:0:0:0:
64,192,141405,1,0,0:0:0:0:
320,192,141499,1,0,0:0:0:0:
192,192,141593,1,0,0:0:0:0:
64,192,141686,1,0,0:0:0:0:
448,192,141780,1,0,0:0:0:0:
320,192,141874,1,0,0:0:0:0:
192,192,141968,1,0,0:0:0:0:
64,192,142061,1,0,0:0:0:0:
320,192,142155,1,0,0:0:0:0:
192,192,142249,1,0,0:0:0:0:
64,192,142343,1,0,0:0:0:0:
192,192,142436,1,0,0:0:0:0:
64,192,142530,1,0,0:0:0:0:
320,192,142624,1,0,0:0:0:0:
64,192,142718,1,0,0:0:0:0:
192,192,142811,1,0,0:0:0:0:
64,192,142905,1,0,0:0:0:0:
448,192,142999,1,0,0:0:0:0:
64,192,143093,1,0,0:0:0:0:
320,192,143186,1,0,0:0:0:0:
64,192,143280,1,0,0:0:0:0:
192,192,143374,1,0,0:0:0:0:
64,192,143468,1,0,0:0:0:0:
192,192,143561,1,0,0:0:0:0:
64,192,143655,1,0,0:0:0:0:
192,192,143749,1,0,0:0:0:0:
320,192,143843,1,0,0:0:0:0:
448,192,143936,1,0,0:0:0:0:
320,192,144030,1,0,0:0:0:0:
192,192,144124,1,0,0:0:0:0:
320,192,144218,1,0,0:0:0:0:
192,192,144311,1,0,0:0:0:0:
64,192,144405,1,0,0:0:0:0:
320,192,144499,1,0,0:0:0:0:
192,192,144593,1,0,0:0:0:0:
448,192,144686,1,0,0:0:0:0:
320,192,144780,1,0,0:0:0:0:
192,192,144874,1,0,0:0:0:0:
320,192,144968,1,0,0:0:0:0:
192,192,145061,1,0,0:0:0:0:
64,192,145155,1,0,0:0:0:0:
320,192,145249,1,0,0:0:0:0:
192,192,145343,1,0,0:0:0:0:
448,192,145436,1,0,0:0:0:0:
320,192,145530,1,0,0:0:0:0:
448,192,145624,1,0,0:0:0:0:
192,192,145718,1,0,0:0:0:0:
448,192,145811,1,0,0:0:0:0:
192,192,145905,1,0,0:0:0:0:
64,192,145999,1,0,0:0:0:0:
320,192,146093,1,0,0:0:0:0:
64,192,146186,1,0,0:0:0:0:
192,192,146280,1,0,0:0:0:0:
64,192,146374,1,0,0:0:0:0:
320,192,146468,1,0,0:0:0:0:
64,192,146561,1,0,0:0:0:0:
448,192,146655,1,0,0:0:0:0:
320,192,146749,1,0,0:0:0:0:
192,192,146843,1,0,0:0:0:0:
64,192,146936,1,0,0:0:0:0:
448,192,147030,1,0,0:0:0:0:
320,192,147124,1,0,0:0:0:0:
192,192,147218,1,0,0:0:0:0:
320,192,147311,1,0,0:0:0:0:
64,192,147405,1,0,0:0:0:0:
192,192,147499,1,0,0:0:0:0:
64,192,147593,1,0,0:0:0:0:
320,192,147686,1,0,0:0:0:0:
448,192,147780,1,0,0:0:0:0:
448,192,147874,1,0,0:0:0:0:
320,192,147968,1,0,0:0:0:0:
192,192,148061,1,0,0:0:0:0:
64,192,148155,1,0,0:0:0:0:
320,192,148249,1,0,0:0:0:0:
64,192,148343,1,0,0:0:0:0:
192,192,148436,1,0,0:0:0:0:
64,192,148530,1,0,0:0:0:0:
448,192,148624,1,0,0:0:0:0:
64,192,148718,1,0,0:0:0:0:
320,192,148811,1,0,0:0:0:0:
64,192,148905,1,0,0:0:0:0:
448,192,148999,1,0,0:0:0:0:
64,192,149093,1,0,0:0:0:0:
320,192,149186,1,0,0:0:0:0:
192,192,149280,1,0,0:0:0:0:
320,192,149374,1,0,0:0:0:0:
192,192,149468,1,0,0:0:0:0:
320,192,149561,1,0,0:0:0:0:
192,192,149655,1,0,0:0:0:0:
64,192,149749,1,0,0:0:0:0:
192,192,149843,1,0,0:0:0:0:
448,192,149936,1,0,0:0:0:0:
192,192,150030,1,0,0:0:0:0:
64,192,150124,1,0,0:0:0:0:
192,192,150218,1,0,0:0:0:0:
320,192,150311,1,0,0:0:0:0:
448,192,150405,1,0,0:0:0:0:
64,192,150499,1,0,0:0:0:0:
192,192,150593,1,0,0:0:0:0:
320,192,150686,1,0,0:0:0:0:
448,192,150780,1,0,0:0:0:0:
192,192,150874,1,0,0:0:0:0:
64,192,150968,1,0,0:0:0:0:
448,192,151061,1,0,0:0:0:0:
192,192,151155,1,0,0:0:0:0:
320,192,151249,1,0,0:0:0:0:
64,192,151343,1,0,0:0:0:0:
448,192,151436,1,0,0:0:0:0:
192,192,151530,1,0,0:0:0:0:
64,192,151624,1,0,0:0:0:0:
320,192,151718,1,0,0:0:0:0:
192,192,151811,1,0,0:0:0:0:
320,192,151905,1,0,0:0:0:0:
448,192,151999,1,0,0:0:0:0:
320,192,152093,1,0,0:0:0:0:
448,192,152186,1,0,0:0:0:0:
320,192,152280,1,0,0:0:0:0:
448,192,152374,1,0,0:0:0:0:
320,192,152468,1,0,0:0:0:0:
192,192,152561,1,0,0:0:0:0:
64,192,152655,1,0,0:0:0:0:
448,192,152749,1,0,0:0:0:0:
320,192,152843,1,0,0:0:0:0:
192,192,152936,1,0,0:0:0:0:
64,192,153030,1,0,0:0:0:0:
320,192,153124,1,0,0:0:0:0:
192,192,153218,1,0,0:0:0:0:
64,192,153311,1,0,0:0:0:0:
320,192,153405,1,0,0:0:0:0:
64,192,153499,1,0,0:0:0:0:
192,192,153593,1,0,0:0:0:0:
64,192,153686,1,0,0:0:0:0:
192,192,153780,1,0,0:0:0:0:
320,192,153874,1,0,0:0:0:0:
448,192,153968,1,0,0:0:0:0:
320,192,154061,1,0,0:0:0:0:
192,192,154155,1,0,0:0:0:0:
64,192,154249,1,0,0:0:0:0:
448,192,154343,1,0,0:0:0:0:
320,192,154436,1,0,0:0:0:0:
192,192,154530,1,0,0:0:0:0:
64,192,154624,1,0,0:0:0:0:
192,192,154718,1,0,0:0:0:0:
320,192,154811,1,0,0:0:0:0:
192,192,154905,1,0,0:0:0:0:
448,192,154999,1,0,0:0:0:0:
192,192,155093,1,0,0:0:0:0:
320,192,155186,1,0,0:0:0:0:
192,192,155280,1,0,0:0:0:0:
448,192,155374,1,0,0:0:0:0:
192,192,155468,1,0,0:0:0:0:
320,192,155561,1,0,0:0:0:0:
192,192,155655,1,0,0:0:0:0:
320,192,155749,1,0,0:0:0:0:
448,192,155843,1,0,0:0:0:0:
320,192,155936,1,0,0:0:0:0:
192,192,156030,1,0,0:0:0:0:
64,192,156124,1,0,0:0:0:0:
192,192,156218,1,0,0:0:0:0:
320,192,156311,1,0,0:0:0:0:
192,192,156405,1,0,0:0:0:0:
448,192,156405,1,0,0:0:0:0:
320,192,156499,1,0,0:0:0:0:
192,192,156593,1,0,0:0:0:0:
448,192,156686,1,0,0:0:0:0:
320,192,156780,1,0,0:0:0:0:
192,192,156874,1,0,0:0:0:0:
64,192,156968,1,0,0:0:0:0:
192,192,157061,1,0,0:0:0:0:
64,192,157155,1,0,0:0:0:0:
320,192,157155,1,0,0:0:0:0:
192,192,157249,1,0,0:0:0:0:
320,192,157343,1,0,0:0:0:0:
448,192,157436,1,0,0:0:0:0:
320,192,157530,1,0,0:0:0:0:
192,192,157624,1,0,0:0:0:0:
64,192,157718,1,0,0:0:0:0:
448,192,157811,1,0,0:0:0:0:
192,192,157905,1,0,0:0:0:0:
320,192,157905,1,0,0:0:0:0:
192,192,157999,1,0,0:0:0:0:
64,192,158093,1,0,0:0:0:0:
320,192,158186,1,0,0:0:0:0:
192,192,158280,1,0,0:0:0:0:
64,192,158374,1,0,0:0:0:0:
192,192,158468,1,0,0:0:0:0:
64,192,158561,1,0,0:0:0:0:
320,192,158655,1,0,0:0:0:0:
448,192,158655,1,0,0:0:0:0:
192,192,158749,1,0,0:0:0:0:
64,192,158843,1,0,0:0:0:0:
320,192,158936,1,0,0:0:0:0:
64,192,159030,1,0,0:0:0:0:
192,192,159124,1,0,0:0:0:0:
64,192,159218,1,0,0:0:0:0:
320,192,159311,1,0,0:0:0:0:
64,192,159405,1,0,0:0:0:0:
448,192,159405,1,0,0:0:0:0:
320,192,159499,1,0,0:0:0:0:
192,192,159593,1,0,0:0:0:0:
320,192,159686,1,0,0:0:0:0:
192,192,159780,1,0,0:0:0:0:
448,192,159874,1,0,0:0:0:0:
192,192,159968,1,0,0:0:0:0:
320,192,160061,1,0,0:0:0:0:
192,192,160155,1,0,0:0:0:0:
64,192,160155,1,0,0:0:0:0:
320,192,160249,1,0,0:0:0:0:
448,192,160343,1,0,0:0:0:0:
320,192,160436,1,0,0:0:0:0:
192,192,160530,1,0,0:0:0:0:
64,192,160624,1,0,0:0:0:0:
192,192,160718,1,0,0:0:0:0:
64,192,160811,1,0,0:0:0:0:
192,192,160905,1,0,0:0:0:0:
320,192,160905,1,0,0:0:0:0:
448,192,160905,1,0,0:0:0:0:
64,192,160999,1,0,0:0:0:0:
320,192,161093,1,0,0:0:0:0:
448,192,161186,1,0,0:0:0:0:
64,192,161280,1,0,0:0:0:0:
448,192,161374,1,0,0:0:0:0:
192,192,161468,1,0,0:0:0:0:
448,192,161561,1,0,0:0:0:0:
320,192,161655,1,0,0:0:0:0:
192,192,161655,1,0,0:0:0:0:
64,192,161655,1,0,0:0:0:0:
448,192,161749,1,0,0:0:0:0:
320,192,161843,1,0,0:0:0:0:
192,192,161936,1,0,0:0:0:0:
64,192,162030,1,0,0:0:0:0:
320,192,162124,1,0,0:0:0:0:
64,192,162218,1,0,0:0:0:0:
448,192,162311,1,0,0:0:0:0:
64,192,162405,1,0,0:0:0:0:
320,192,162499,1,0,0:0:0:0:
64,192,162593,1,0,0:0:0:0:
448,192,162686,1,0,0:0:0:0:
64,192,162780,1,0,0:0:0:0:
192,192,162874,1,0,0:0:0:0:
64,192,162968,1,0,0:0:0:0:
320,192,163061,1,0,0:0:0:0:
64,192,163155,1,0,0:0:0:0:
320,192,163249,1,0,0:0:0:0:
64,192,163343,1,0,0:0:0:0:
448,192,163436,1,0,0:0:0:0:
64,192,163530,1,0,0:0:0:0:
448,192,163624,1,0,0:0:0:0:
64,192,163718,1,0,0:0:0:0:
448,192,163811,1,0,0:0:0:0:
192,192,163905,1,0,0:0:0:0:
448,192,163999,1,0,0:0:0:0:
320,192,164093,1,0,0:0:0:0:
448,192,164186,1,0,0:0:0:0:
320,192,164280,1,0,0:0:0:0:
448,192,164374,1,0,0:0:0:0:
192,192,164468,1,0,0:0:0:0:
448,192,164561,1,0,0:0:0:0:
64,192,164655,1,0,0:0:0:0:
448,192,164749,1,0,0:0:0:0:
64,192,164843,1,0,0:0:0:0:
448,192,164936,1,0,0:0:0:0:
192,192,165030,1,0,0:0:0:0:
320,192,165124,1,0,0:0:0:0:
64,192,165218,1,0,0:0:0:0:
320,192,165311,1,0,0:0:0:0:
64,192,165405,1,0,0:0:0:0:
320,192,165499,1,0,0:0:0:0:
64,192,165593,1,0,0:0:0:0:
320,192,165686,1,0,0:0:0:0:
64,192,165780,1,0,0:0:0:0:
320,192,165874,1,0,0:0:0:0:
192,192,165968,1,0,0:0:0:0:
448,192,166061,1,0,0:0:0:0:
192,192,166155,1,0,0:0:0:0:
448,192,166249,1,0,0:0:0:0:
192,192,166343,1,0,0:0:0:0:
448,192,166436,1,0,0:0:0:0:
320,192,166530,1,0,0:0:0:0:
192,192,166624,1,0,0:0:0:0:
64,192,166718,1,0,0:0:0:0:
320,192,166811,1,0,0:0:0:0:
64,192,166905,1,0,0:0:0:0:
320,192,166999,1,0,0:0:0:0:
64,192,167093,1,0,0:0:0:0:
192,192,167186,1,0,0:0:0:0:
448,192,167280,1,0,0:0:0:0:
320,192,167343,1,0,0:0:0:0:
192,192,167405,1,0,0:0:0:0:
64,192,167468,1,0,0:0:0:0:
320,192,167530,1,0,0:0:0:0:
192,192,167593,1,0,0:0:0:0:
64,192,167655,1,0,0:0:0:0:
192,192,167718,1,0,0:0:0:0:
64,192,167780,1,0,0:0:0:0:
320,192,167843,1,0,0:0:0:0:
64,192,167905,1,0,0:0:0:0:
320,192,167968,1,0,0:0:0:0:
448,192,168030,1,0,0:0:0:0:
64,192,168124,1,0,0:0:0:0:
320,192,168218,1,0,0:0:0:0:
192,192,168311,1,0,0:0:0:0:
320,192,168405,1,0,0:0:0:0:
448,192,168499,1,0,0:0:0:0:
320,192,168593,1,0,0:0:0:0:
192,192,168686,1,0,0:0:0:0:
64,192,168780,1,0,0:0:0:0:
320,192,168874,1,0,0:0:0:0:
192,192,168968,1,0,0:0:0:0:
64,192,169061,1,0,0:0:0:0:
320,192,169155,1,0,0:0:0:0:
64,192,169249,1,0,0:0:0:0:
192,192,169343,1,0,0:0:0:0:
64,192,169436,1,0,0:0:0:0:
448,192,169530,1,0,0:0:0:0:
64,192,169624,1,0,0:0:0:0:
320,192,169718,1,0,0:0:0:0:
64,192,169811,1,0,0:0:0:0:
448,192,169905,1,0,0:0:0:0:
64,192,169999,1,0,0:0:0:0:
320,192,170093,1,0,0:0:0:0:
64,192,170186,1,0,0:0:0:0:
320,192,170280,1,0,0:0:0:0:
192,192,170468,1,0,0:0:0:0:
448,192,170468,1,0,0:0:0:0:
192,192,170655,1,0,0:0:0:0:
448,192,170655,1,0,0:0:0:0:
64,192,170843,1,0,0:0:0:0:
320,192,170843,1,0,0:0:0:0:
448,192,171030,1,0,0:0:0:0:
320,192,171124,1,0,0:0:0:0:
192,192,171218,1,0,0:0:0:0:
320,192,171311,1,0,0:0:0:0:
448,192,171405,1,0,0:0:0:0:
64,192,171499,1,0,0:0:0:0:
448,192,171593,1,0,0:0:0:0:
192,192,171686,1,0,0:0:0:0:
448,192,171780,1,0,0:0:0:0:
64,192,171874,1,0,0:0:0:0:
448,192,171968,1,0,0:0:0:0:
192,192,172061,1,0,0:0:0:0:
448,192,172155,1,0,0:0:0:0:
320,192,172249,1,0,0:0:0:0:
448,192,172343,1,0,0:0:0:0:
320,192,172436,1,0,0:0:0:0:
192,192,172530,1,0,0:0:0:0:
64,192,172624,1,0,0:0:0:0:
320,192,172718,1,0,0:0:0:0:
192,192,172811,1,0,0:0:0:0:
320,192,172905,1,0,0:0:0:0:
192,192,172999,1,0,0:0:0:0:
64,192,173093,1,0,0:0:0:0:
192,192,173186,1,0,0:0:0:0:
320,192,173280,1,0,0:0:0:0:
64,192,173468,1,0,0:0:0:0:
320,192,173468,1,0,0:0:0:0:
448,192,173468,1,0,0:0:0:0:
64,192,173655,1,0,0:0:0:0:
320,192,173655,1,0,0:0:0:0:
448,192,173655,1,0,0:0:0:0:
64,192,173843,1,0,0:0:0:0:
192,192,173843,1,0,0:0:0:0:
448,192,173843,1,0,0:0:0:0:
320,192,174030,1,0,0:0:0:0:
192,192,174124,1,0,0:0:0:0:
64,192,174218,1,0,0:0:0:0:
320,192,174311,1,0,0:0:0:0:
192,192,174405,1,0,0:0:0:0:
64,192,174499,1,0,0:0:0:0:
192,192,174593,1,0,0:0:0:0:
64,192,174686,1,0,0:0:0:0:
320,192,174780,1,0,0:0:0:0:
64,192,174874,1,0,0:0:0:0:
448,192,174968,1,0,0:0:0:0:
64,192,175061,1,0,0:0:0:0:
448,192,175155,1,0,0:0:0:0:
64,192,175249,1,0,0:0:0:0:
320,192,175343,1,0,0:0:0:0:
64,192,175436,1,0,0:0:0:0:
192,192,175530,1,0,0:0:0:0:
64,192,175624,1,0,0:0:0:0:
192,192,175718,1,0,0:0:0:0:
320,192,175811,1,0,0:0:0:0:
448,192,175905,1,0,0:0:0:0:
64,192,175999,1,0,0:0:0:0:
192,192,176093,1,0,0:0:0:0:
320,192,176186,1,0,0:0:0:0:
448,192,176280,1,0,0:0:0:0:
320,192,176374,1,0,0:0:0:0:
448,192,176468,1,0,0:0:0:0:
192,192,176561,1,0,0:0:0:0:
448,192,176655,1,0,0:0:0:0:
192,192,176749,1,0,0:0:0:0:
448,192,176843,1,0,0:0:0:0:
64,192,176936,1,0,0:0:0:0:
448,192,177030,1,0,0:0:0:0:
64,192,177124,1,0,0:0:0:0:
448,192,177218,1,0,0:0:0:0:
320,192,177311,1,0,0:0:0:0:
192,192,177405,1,0,0:0:0:0:
64,192,177499,1,0,0:0:0:0:
320,192,177593,1,0,0:0:0:0:
192,192,177686,1,0,0:0:0:0:
64,192,177780,1,0,0:0:0:0:
192,192,177874,1,0,0:0:0:0:
64,192,177968,1,0,0:0:0:0:
448,192,178061,1,0,0:0:0:0:
64,192,178155,1,0,0:0:0:0:
448,192,178249,1,0,0:0:0:0:
192,192,178343,1,0,0:0:0:0:
448,192,178436,1,0,0:0:0:0:
320,192,178530,1,0,0:0:0:0:
448,192,178624,1,0,0:0:0:0:
320,192,178718,1,0,0:0:0:0:
448,192,178811,1,0,0:0:0:0:
192,192,178905,1,0,0:0:0:0:
448,192,178999,1,0,0:0:0:0:
64,192,179093,1,0,0:0:0:0:
448,192,179186,1,0,0:0:0:0:
192,192,179280,1,0,0:0:0:0:
448,192,179374,1,0,0:0:0:0:
64,192,179468,1,0,0:0:0:0:
448,192,179561,1,0,0:0:0:0:
192,192,179655,1,0,0:0:0:0:
448,192,179749,1,0,0:0:0:0:
64,192,179843,1,0,0:0:0:0:
192,192,180030,1,0,0:0:0:0:
448,192,180030,1,0,0:0:0:0:
320,192,180218,1,0,0:0:0:0:
192,192,180311,1,0,0:0:0:0:
64,192,180405,1,0,0:0:0:0:
320,192,180499,1,0,0:0:0:0:
192,192,180593,1,0,0:0:0:0:
64,192,180686,1,0,0:0:0:0:
192,192,180780,1,0,0:0:0:0:
64,192,180874,1,0,0:0:0:0:
192,192,180968,1,0,0:0:0:0:
64,192,181061,1,0,0:0:0:0:
320,192,181155,1,0,0:0:0:0:
64,192,181249,1,0,0:0:0:0:
192,192,181343,1,0,0:0:0:0:
448,192,181436,1,0,0:0:0:0:
320,192,181530,1,0,0:0:0:0:
192,192,181624,1,0,0:0:0:0:
64,192,181718,1,0,0:0:0:0:
448,192,181811,1,0,0:0:0:0:
320,192,181905,1,0,0:0:0:0:
192,192,181999,1,0,0:0:0:0:
64,192,182093,1,0,0:0:0:0:
448,192,182186,1,0,0:0:0:0:
320,192,182280,1,0,0:0:0:0:
192,192,182374,1,0,0:0:0:0:
320,192,182468,1,0,0:0:0:0:
192,192,182561,1,0,0:0:0:0:
320,192,182655,1,0,0:0:0:0:
192,192,182749,1,0,0:0:0:0:
64,192,182843,1,0,0:0:0:0:
192,192,182936,1,0,0:0:0:0:
64,192,183030,1,0,0:0:0:0:
320,192,183124,1,0,0:0:0:0:
192,192,183218,1,0,0:0:0:0:
320,192,183311,1,0,0:0:0:0:
64,192,183405,1,0,0:0:0:0:
320,192,183499,1,0,0:0:0:0:
448,192,183593,1,0,0:0:0:0:
320,192,183686,1,0,0:0:0:0:
192,192,183780,1,0,0:0:0:0:
320,192,183874,1,0,0:0:0:0:
64,192,183968,1,0,0:0:0:0:
320,192,184061,1,0,0:0:0:0:
448,192,184155,1,0,0:0:0:0:
320,192,184249,1,0,0:0:0:0:
64,192,184343,1,0,0:0:0:0:
320,192,184436,1,0,0:0:0:0:
448,192,184530,1,0,0:0:0:0:
320,192,184624,1,0,0:0:0:0:
192,192,184718,1,0,0:0:0:0:
64,192,184811,1,0,0:0:0:0:
448,192,184905,1,0,0:0:0:0:
320,192,184999,1,0,0:0:0:0:
192,192,185093,1,0,0:0:0:0:
64,192,185186,1,0,0:0:0:0:
320,192,185280,1,0,0:0:0:0:
192,192,185374,1,0,0:0:0:0:
64,192,185468,1,0,0:0:0:0:
192,192,185561,1,0,0:0:0:0:
320,192,185655,1,0,0:0:0:0:
448,192,185749,1,0,0:0:0:0:
320,192,185843,1,0,0:0:0:0:
448,192,185936,1,0,0:0:0:0:
64,192,186030,1,4,0:0:0:0:
192,192,186030,1,4,0:0:0:0:
320,192,186124,1,0,0:0:0:0:
192,192,186218,1,0,0:0:0:0:
448,192,186311,1,0,0:0:0:0:
192,192,186405,1,0,0:0:0:0:
448,192,186499,1,0,0:0:0:0:
320,192,186593,1,0,0:0:0:0:
448,192,186686,1,0,0:0:0:0:
192,192,186780,1,0,0:0:0:0:
448,192,186874,1,0,0:0:0:0:
64,192,186968,1,0,0:0:0:0:
448,192,187061,1,0,0:0:0:0:
192,192,187155,1,0,0:0:0:0:
448,192,187249,1,0,0:0:0:0:
320,192,187343,1,0,0:0:0:0:
192,192,187436,1,0,0:0:0:0:
320,192,187530,1,4,0:0:0:0:
448,192,187530,1,4,0:0:0:0:
192,192,187624,1,0,0:0:0:0:
64,192,187718,1,0,0:0:0:0:
192,192,187811,1,0,0:0:0:0:
64,192,187905,1,0,0:0:0:0:
192,192,187999,1,0,0:0:0:0:
320,192,188093,1,0,0:0:0:0:
448,192,188186,1,0,0:0:0:0:
192,192,188280,1,0,0:0:0:0:
64,192,188374,1,0,0:0:0:0:
320,192,188468,1,0,0:0:0:0:
64,192,188561,1,0,0:0:0:0:
192,192,188655,1,0,0:0:0:0:
64,192,188749,1,0,0:0:0:0:
320,192,188843,1,0,0:0:0:0:
192,192,188936,1,0,0:0:0:0:
64,192,189030,1,4,0:0:0:0:
320,192,189030,1,4,0:0:0:0:
192,192,189124,1,0,0:0:0:0:
320,192,189218,1,0,0:0:0:0:
448,192,189311,1,0,0:0:0:0:
192,192,189405,1,0,0:0:0:0:
320,192,189499,1,0,0:0:0:0:
448,192,189593,1,0,0:0:0:0:
192,192,189686,1,0,0:0:0:0:
320,192,189780,1,4,0:0:0:0:
448,192,189780,1,4,0:0:0:0:
192,192,189874,1,0,0:0:0:0:
64,192,189968,1,0,0:0:0:0:
320,192,190061,1,0,0:0:0:0:
64,192,190155,1,0,0:0:0:0:
192,192,190249,1,0,0:0:0:0:
64,192,190343,1,0,0:0:0:0:
448,192,190436,1,0,0:0:0:0:
64,192,190530,1,4,0:0:0:0:
192,192,190530,1,4,0:0:0:0:
320,192,190718,1,0,0:0:0:0:
64,192,190905,1,4,0:0:0:0:
320,192,190905,1,4,0:0:0:0:
192,192,191093,1,0,0:0:0:0:
192,192,191280,1,4,0:0:0:0:
448,192,191280,1,4,0:0:0:0:
320,192,191468,1,0,0:0:0:0:
192,192,191530,1,0,0:0:0:0:
64,192,191593,1,0,0:0:0:0:
320,192,191655,1,0,0:0:0:0:
192,192,191718,1,0,0:0:0:0:
64,192,191780,1,0,0:0:0:0:
448,192,191843,1,0,0:0:0:0:
192,192,191905,1,0,0:0:0:0:
64,192,192030,128,0,195030:0:0:0:0:
192,192,192030,128,0,195030:0:0:0:0:
320,192,192030,128,0,195030:0:0:0:0:
448,192,192030,128,0,195030:0:0:0:0:
