osu file format v14

[General]
AudioFilename: DJ Amane - Party Stream !!.mp3
AudioLeadIn: 0
PreviewTime: 97324
Countdown: 0
SampleSet: None
StackLeniency: 0.7
Mode: 3
LetterboxInBreaks: 0
SpecialStyle: 0
WidescreenStoryboard: 0

[Editor]
DistanceSpacing: 1.2
BeatDivisor: 4
GridSize: 8
TimelineZoom: 2.3

[Metadata]
Title:Party Stream !!
TitleUnicode:Party Stream !!
Artist:DJ Amane
ArtistUnicode:DJ Amane
Creator:Hathz
Version:EXH Lv14
Source:Sound Voltex -infinite infection-
Tags:
BeatmapID:914846
BeatmapSetID:423339

[Difficulty]
HPDrainRate:7
CircleSize:4
OverallDifficulty:7
ApproachRate:5
SliderMultiplier:1.4
SliderTickRate:1

[Events]
//Background and Video events
0,0,"6be134c143561216fd0eb415fd9b13de.jpg",0,0
//Break Periods
//Storyboard Layer 0 (Background)
//Storyboard Layer 1 (Fail)
//Storyboard Layer 2 (Pass)
//Storyboard Layer 3 (Foreground)
//Storyboard Sound Samples

[TimingPoints]
1324.69326560962,333.333333333333,4,1,0,60,1,0

[HitObjects]
64,192,1324,5,0,0:0:0:0:
192,192,1324,1,0,0:0:0:0:
320,192,1491,1,0,0:0:0:0:
192,192,1658,1,0,0:0:0:0:
448,192,1658,1,0,0:0:0:0:
64,192,1824,1,0,0:0:0:0:
320,192,1908,1,0,0:0:0:0:
64,192,2074,1,0,0:0:0:0:
448,192,2158,1,0,0:0:0:0:
320,192,2324,1,0,0:0:0:0:
192,192,2491,1,0,0:0:0:0:
448,192,2658,128,0,2991:0:0:0:0:
64,192,2658,1,0,0:0:0:0:
64,192,2991,1,0,0:0:0:0:
320,192,2991,128,0,3324:0:0:0:0:
64,192,3324,1,0,0:0:0:0:
192,192,3324,128,0,3658:0:0:0:0:
64,192,3658,128,0,3991:0:0:0:0:
448,192,3658,128,0,3991:0:0:0:0:
192,192,3991,1,0,0:0:0:0:
320,192,4158,1,0,0:0:0:0:
192,192,4324,1,0,0:0:0:0:
448,192,4324,1,0,0:0:0:0:
64,192,4491,1,0,0:0:0:0:
320,192,4574,1,0,0:0:0:0:
64,192,4741,1,0,0:0:0:0:
448,192,4824,1,0,0:0:0:0:
320,192,4991,1,0,0:0:0:0:
192,192,5158,1,0,0:0:0:0:
64,192,5324,128,0,5658:0:0:0:0:
448,192,5324,128,0,5658:0:0:0:0:
192,192,5658,1,0,0:0:0:0:
448,192,5824,1,0,0:0:0:0:
320,192,5991,128,0,6324:0:0:0:0:
64,192,6324,1,0,0:0:0:0:
64,192,6491,1,0,0:0:0:0:
64,192,6658,1,0,0:0:0:0:
192,192,6658,1,0,0:0:0:0:
320,192,6824,1,0,0:0:0:0:
192,192,6991,1,0,0:0:0:0:
448,192,6991,1,0,0:0:0:0:
64,192,7158,1,0,0:0:0:0:
320,192,7241,1,0,0:0:0:0:
64,192,7408,1,0,0:0:0:0:
448,192,7491,1,0,0:0:0:0:
320,192,7658,1,0,0:0:0:0:
192,192,7824,1,0,0:0:0:0:
64,192,7991,1,0,0:0:0:0:
448,192,7991,128,0,8324:0:0:0:0:
64,192,8324,1,0,0:0:0:0:
320,192,8324,128,0,8658:0:0:0:0:
64,192,8658,1,0,0:0:0:0:
192,192,8824,1,0,0:0:0:0:
448,192,8991,128,0,9324:0:0:0:0:
64,192,8991,128,0,9324:0:0:0:0:
192,192,9324,1,0,0:0:0:0:
320,192,9491,1,0,0:0:0:0:
192,192,9658,1,0,0:0:0:0:
448,192,9658,1,0,0:0:0:0:
64,192,9824,1,0,0:0:0:0:
320,192,9908,1,0,0:0:0:0:
64,192,10074,1,0,0:0:0:0:
448,192,10158,1,0,0:0:0:0:
320,192,10324,1,0,0:0:0:0:
192,192,10491,1,0,0:0:0:0:
64,192,10658,1,0,0:0:0:0:
448,192,10658,128,0,10908:0:0:0:0:
64,192,10908,128,0,11158:0:0:0:0:
448,192,11158,128,0,11324:0:0:0:0:
192,192,11324,128,0,11658:0:0:0:0:
448,192,11491,1,0,0:0:0:0:
64,192,11658,128,0,11991:0:0:0:0:
320,192,11991,1,0,0:0:0:0:
448,192,11991,1,0,0:0:0:0:
192,192,12158,1,0,0:0:0:0:
64,192,12324,1,0,0:0:0:0:
448,192,12324,1,0,0:0:0:0:
192,192,12491,1,0,0:0:0:0:
320,192,12574,1,0,0:0:0:0:
448,192,12658,1,0,0:0:0:0:
320,192,12741,1,0,0:0:0:0:
192,192,12824,1,0,0:0:0:0:
64,192,12991,1,0,0:0:0:0:
448,192,12991,1,0,0:0:0:0:
320,192,13158,1,0,0:0:0:0:
192,192,13324,1,0,0:0:0:0:
448,192,13324,128,0,13658:0:0:0:0:
192,192,13658,1,0,0:0:0:0:
320,192,13658,128,0,13991:0:0:0:0:
192,192,13991,1,0,0:0:0:0:
448,192,13991,128,0,14324:0:0:0:0:
64,192,14324,1,0,0:0:0:0:
192,192,14324,128,0,14658:0:0:0:0:
320,192,14658,1,0,0:0:0:0:
448,192,14658,1,0,0:0:0:0:
192,192,14824,1,0,0:0:0:0:
64,192,14991,1,0,0:0:0:0:
448,192,14991,1,0,0:0:0:0:
192,192,15158,1,0,0:0:0:0:
320,192,15241,1,0,0:0:0:0:
448,192,15324,1,0,0:0:0:0:
320,192,15408,1,0,0:0:0:0:
192,192,15491,1,0,0:0:0:0:
64,192,15658,1,0,0:0:0:0:
448,192,15658,1,0,0:0:0:0:
320,192,15824,1,0,0:0:0:0:
192,192,15991,1,0,0:0:0:0:
448,192,15991,128,0,16658:0:0:0:0:
320,192,16324,128,0,16658:0:0:0:0:
192,192,16658,1,0,0:0:0:0:
192,192,16824,1,0,0:0:0:0:
64,192,16991,128,0,17324:0:0:0:0:
448,192,17324,1,0,0:0:0:0:
192,192,17491,1,0,0:0:0:0:
448,192,17491,1,0,0:0:0:0:
320,192,17658,1,0,0:0:0:0:
64,192,17658,1,0,0:0:0:0:
448,192,17824,1,0,0:0:0:0:
192,192,17908,1,0,0:0:0:0:
448,192,17991,1,0,0:0:0:0:
192,192,18074,1,0,0:0:0:0:
320,192,18158,1,0,0:0:0:0:
192,192,18324,1,0,0:0:0:0:
448,192,18324,1,0,0:0:0:0:
320,192,18491,1,0,0:0:0:0:
64,192,18658,128,0,18824:0:0:0:0:
448,192,18658,1,0,0:0:0:0:
448,192,18991,128,0,19158:0:0:0:0:
192,192,18991,1,0,0:0:0:0:
320,192,19324,1,0,0:0:0:0:
192,192,19324,128,0,19491:0:0:0:0:
64,192,19658,128,0,19991:0:0:0:0:
448,192,19658,128,0,19991:0:0:0:0:
320,192,19991,1,0,0:0:0:0:
192,192,20074,1,0,0:0:0:0:
320,192,20158,1,0,0:0:0:0:
192,192,20241,1,0,0:0:0:0:
320,192,20324,1,0,0:0:0:0:
192,192,20408,1,0,0:0:0:0:
320,192,20491,1,0,0:0:0:0:
192,192,20574,1,0,0:0:0:0:
448,192,20658,1,0,0:0:0:0:
64,192,20741,1,0,0:0:0:0:
448,192,20824,1,0,0:0:0:0:
64,192,20908,1,0,0:0:0:0:
448,192,20991,1,0,0:0:0:0:
64,192,21074,1,0,0:0:0:0:
448,192,21158,1,0,0:0:0:0:
64,192,21241,1,0,0:0:0:0:
448,192,21324,1,0,0:0:0:0:
320,192,21491,1,0,0:0:0:0:
192,192,21658,1,0,0:0:0:0:
64,192,21824,128,0,22324:0:0:0:0:
448,192,22324,128,0,22658:0:0:0:0:
64,192,22658,1,0,0:0:0:0:
192,192,22824,1,0,0:0:0:0:
320,192,22991,1,0,0:0:0:0:
448,192,23158,1,0,0:0:0:0:
64,192,23324,1,0,0:0:0:0:
192,192,23491,1,0,0:0:0:0:
320,192,23658,1,0,0:0:0:0:
448,192,23824,1,0,0:0:0:0:
192,192,23991,1,0,0:0:0:0:
320,192,24158,1,0,0:0:0:0:
64,192,24324,1,0,0:0:0:0:
448,192,24491,1,0,0:0:0:0:
192,192,24658,1,0,0:0:0:0:
320,192,24824,1,0,0:0:0:0:
64,192,24991,1,0,0:0:0:0:
448,192,25158,1,0,0:0:0:0:
64,192,25324,1,0,0:0:0:0:
320,192,25491,1,0,0:0:0:0:
192,192,25658,1,0,0:0:0:0:
448,192,25824,1,0,0:0:0:0:
64,192,25991,1,0,0:0:0:0:
320,192,26158,1,0,0:0:0:0:
192,192,26324,1,0,0:0:0:0:
448,192,26491,1,0,0:0:0:0:
64,192,26658,1,0,0:0:0:0:
192,192,26824,1,0,0:0:0:0:
320,192,26991,1,0,0:0:0:0:
448,192,27158,1,0,0:0:0:0:
192,192,27324,1,0,0:0:0:0:
64,192,27491,1,0,0:0:0:0:
320,192,27658,1,0,0:0:0:0:
448,192,27824,1,0,0:0:0:0:
64,192,27991,128,0,31991:0:0:0:0:
192,192,27991,1,0,0:0:0:0:
320,192,28158,1,0,0:0:0:0:
448,192,28324,1,0,0:0:0:0:
192,192,28491,1,0,0:0:0:0:
320,192,28658,1,0,0:0:0:0:
448,192,28824,1,0,0:0:0:0:
192,192,28991,1,0,0:0:0:0:
320,192,29158,1,0,0:0:0:0:
448,192,29324,1,0,0:0:0:0:
192,192,29491,1,0,0:0:0:0:
448,192,29658,1,0,0:0:0:0:
320,192,29824,1,0,0:0:0:0:
448,192,29991,1,0,0:0:0:0:
192,192,30158,1,0,0:0:0:0:
448,192,30324,1,0,0:0:0:0:
320,192,30491,1,0,0:0:0:0:
192,192,30658,1,0,0:0:0:0:
448,192,30824,1,0,0:0:0:0:
320,192,30991,1,0,0:0:0:0:
448,192,31158,1,0,0:0:0:0:
192,192,31324,1,0,0:0:0:0:
448,192,31491,1,0,0:0:0:0:
192,192,31658,1,0,0:0:0:0:
320,192,31824,1,0,0:0:0:0:
192,192,31991,1,0,0:0:0:0:
448,192,31991,1,0,0:0:0:0:
192,192,32324,1,0,0:0:0:0:
448,192,32324,1,0,0:0:0:0:
64,192,32658,1,0,0:0:0:0:
320,192,32658,1,0,0:0:0:0:
64,192,32991,1,0,0:0:0:0:
320,192,32991,1,0,0:0:0:0:
448,192,33324,1,0,0:0:0:0:
320,192,33491,1,0,0:0:0:0:
192,192,33658,1,0,0:0:0:0:
64,192,33824,1,0,0:0:0:0:
320,192,33908,1,0,0:0:0:0:
192,192,33991,1,0,0:0:0:0:
448,192,34158,1,0,0:0:0:0:
192,192,34324,1,0,0:0:0:0:
320,192,34491,1,0,0:0:0:0:
64,192,34658,1,0,0:0:0:0:
192,192,34824,1,0,0:0:0:0:
320,192,34991,1,0,0:0:0:0:
448,192,35158,1,0,0:0:0:0:
192,192,35241,1,0,0:0:0:0:
320,192,35324,1,0,0:0:0:0:
192,192,35491,1,0,0:0:0:0:
64,192,35658,1,0,0:0:0:0:
448,192,35824,1,0,0:0:0:0:
192,192,35991,1,0,0:0:0:0:
320,192,36158,1,0,0:0:0:0:
64,192,36324,1,0,0:0:0:0:
448,192,36491,1,0,0:0:0:0:
320,192,36574,1,0,0:0:0:0:
192,192,36658,1,0,0:0:0:0:
320,192,36824,1,0,0:0:0:0:
64,192,36991,1,0,0:0:0:0:
448,192,37158,1,0,0:0:0:0:
448,192,37324,1,0,0:0:0:0:
192,192,37491,1,0,0:0:0:0:
320,192,37658,1,0,0:0:0:0:
64,192,37824,1,0,0:0:0:0:
192,192,37908,1,0,0:0:0:0:
320,192,37991,1,0,0:0:0:0:
448,192,38158,1,0,0:0:0:0:
320,192,38324,1,0,0:0:0:0:
192,192,38491,1,0,0:0:0:0:
64,192,38658,128,0,39324:0:0:0:0:
320,192,38658,1,0,0:0:0:0:
448,192,38824,1,0,0:0:0:0:
320,192,38991,1,0,0:0:0:0:
448,192,39158,1,0,0:0:0:0:
320,192,39324,128,0,39991:0:0:0:0:
192,192,39324,1,0,0:0:0:0:
64,192,39491,1,0,0:0:0:0:
192,192,39658,1,0,0:0:0:0:
64,192,39824,1,0,0:0:0:0:
192,192,39991,128,0,40658:0:0:0:0:
448,192,39991,1,0,0:0:0:0:
320,192,40158,1,0,0:0:0:0:
448,192,40324,1,0,0:0:0:0:
320,192,40491,1,0,0:0:0:0:
448,192,40658,128,0,41324:0:0:0:0:
64,192,40658,1,0,0:0:0:0:
192,192,40824,1,0,0:0:0:0:
64,192,40991,1,0,0:0:0:0:
192,192,41158,1,0,0:0:0:0:
64,192,41324,1,0,0:0:0:0:
192,192,41408,1,0,0:0:0:0:
320,192,41491,1,0,0:0:0:0:
448,192,41574,1,0,0:0:0:0:
64,192,41658,1,0,0:0:0:0:
192,192,41741,1,0,0:0:0:0:
320,192,41824,1,0,0:0:0:0:
448,192,41908,1,0,0:0:0:0:
64,192,41991,1,0,0:0:0:0:
192,192,42074,1,0,0:0:0:0:
320,192,42158,1,0,0:0:0:0:
448,192,42241,1,0,0:0:0:0:
64,192,42324,1,0,0:0:0:0:
192,192,42408,1,0,0:0:0:0:
320,192,42491,1,0,0:0:0:0:
448,192,42574,1,0,0:0:0:0:
192,192,42658,1,0,0:0:0:0:
320,192,42658,1,0,0:0:0:0:
64,192,42824,1,0,0:0:0:0:
320,192,42824,1,0,0:0:0:0:
192,192,42991,1,0,0:0:0:0:
320,192,42991,1,0,0:0:0:0:
192,192,43158,1,0,0:0:0:0:
448,192,43158,1,0,0:0:0:0:
64,192,43324,1,0,0:0:0:0:
448,192,43324,1,0,0:0:0:0:
320,192,43491,128,0,43658:0:0:0:0:
192,192,43658,1,0,0:0:0:0:
64,192,43991,1,0,0:0:0:0:
448,192,43991,1,0,0:0:0:0:
320,192,44158,1,0,0:0:0:0:
64,192,44324,1,0,0:0:0:0:
320,192,44408,1,0,0:0:0:0:
192,192,44491,1,0,0:0:0:0:
64,192,44658,1,0,0:0:0:0:
448,192,44658,1,0,0:0:0:0:
192,192,44824,1,0,0:0:0:0:
320,192,44908,1,0,0:0:0:0:
448,192,44991,1,0,0:0:0:0:
192,192,45158,1,0,0:0:0:0:
320,192,45158,1,0,0:0:0:0:
64,192,45324,1,0,0:0:0:0:
448,192,45324,1,0,0:0:0:0:
320,192,45491,1,0,0:0:0:0:
64,192,45658,1,0,0:0:0:0:
448,192,45658,1,0,0:0:0:0:
192,192,45824,1,0,0:0:0:0:
64,192,45991,1,0,0:0:0:0:
448,192,45991,1,0,0:0:0:0:
320,192,46158,1,0,0:0:0:0:
64,192,46324,1,0,0:0:0:0:
448,192,46324,1,0,0:0:0:0:
192,192,46491,1,0,0:0:0:0:
64,192,46658,1,0,0:0:0:0:
320,192,46658,1,0,0:0:0:0:
192,192,46824,1,0,0:0:0:0:
64,192,46991,1,0,0:0:0:0:
320,192,47074,1,0,0:0:0:0:
192,192,47158,1,0,0:0:0:0:
320,192,47324,1,0,0:0:0:0:
448,192,47324,1,0,0:0:0:0:
64,192,47491,1,0,0:0:0:0:
192,192,47574,1,0,0:0:0:0:
320,192,47658,1,0,0:0:0:0:
64,192,47824,1,0,0:0:0:0:
448,192,47824,1,0,0:0:0:0:
192,192,47991,1,0,0:0:0:0:
320,192,47991,1,0,0:0:0:0:
192,192,48158,1,0,0:0:0:0:
320,192,48158,1,0,0:0:0:0:
64,192,48324,1,0,0:0:0:0:
192,192,48491,1,0,0:0:0:0:
320,192,48491,1,0,0:0:0:0:
448,192,48658,1,0,0:0:0:0:
64,192,48824,1,0,0:0:0:0:
192,192,48824,1,0,0:0:0:0:
448,192,48991,1,0,0:0:0:0:
320,192,49074,1,0,0:0:0:0:
192,192,49158,1,0,0:0:0:0:
320,192,49241,1,0,0:0:0:0:
448,192,49324,1,0,0:0:0:0:
64,192,49324,1,0,0:0:0:0:
320,192,49491,1,0,0:0:0:0:
64,192,49658,1,0,0:0:0:0:
320,192,49741,1,0,0:0:0:0:
192,192,49824,1,0,0:0:0:0:
64,192,49991,1,0,0:0:0:0:
448,192,49991,1,0,0:0:0:0:
192,192,50158,1,0,0:0:0:0:
320,192,50241,1,0,0:0:0:0:
448,192,50324,1,0,0:0:0:0:
192,192,50491,1,0,0:0:0:0:
320,192,50491,1,0,0:0:0:0:
64,192,50658,1,0,0:0:0:0:
448,192,50658,1,0,0:0:0:0:
320,192,50824,1,0,0:0:0:0:
64,192,50991,1,0,0:0:0:0:
448,192,50991,1,0,0:0:0:0:
192,192,51158,1,0,0:0:0:0:
64,192,51324,1,0,0:0:0:0:
448,192,51324,1,0,0:0:0:0:
320,192,51491,1,0,0:0:0:0:
64,192,51658,1,0,0:0:0:0:
448,192,51658,1,0,0:0:0:0:
192,192,51824,1,0,0:0:0:0:
64,192,51991,1,0,0:0:0:0:
320,192,51991,1,0,0:0:0:0:
192,192,52158,1,0,0:0:0:0:
64,192,52324,1,0,0:0:0:0:
320,192,52408,1,0,0:0:0:0:
192,192,52491,1,0,0:0:0:0:
320,192,52658,1,0,0:0:0:0:
448,192,52658,1,0,0:0:0:0:
64,192,52824,1,0,0:0:0:0:
192,192,52908,1,0,0:0:0:0:
320,192,52991,1,0,0:0:0:0:
64,192,53158,1,0,0:0:0:0:
448,192,53158,1,0,0:0:0:0:
192,192,53324,1,0,0:0:0:0:
320,192,53324,1,0,0:0:0:0:
192,192,53491,1,0,0:0:0:0:
320,192,53491,1,0,0:0:0:0:
64,192,53658,1,0,0:0:0:0:
192,192,53824,1,0,0:0:0:0:
320,192,53824,1,0,0:0:0:0:
448,192,53991,128,0,54158:0:0:0:0:
64,192,54158,128,0,54324:0:0:0:0:
448,192,54324,1,0,0:0:0:0:
320,192,54408,1,0,0:0:0:0:
192,192,54491,1,0,0:0:0:0:
320,192,54574,1,0,0:0:0:0:
64,192,54658,1,0,0:0:0:0:
448,192,54658,1,0,0:0:0:0:
192,192,54824,1,0,0:0:0:0:
320,192,54824,1,0,0:0:0:0:
64,192,54991,1,0,0:0:0:0:
320,192,55074,1,0,0:0:0:0:
192,192,55158,1,0,0:0:0:0:
64,192,55324,1,0,0:0:0:0:
448,192,55324,1,0,0:0:0:0:
192,192,55491,1,0,0:0:0:0:
320,192,55574,1,0,0:0:0:0:
448,192,55658,1,0,0:0:0:0:
64,192,55658,128,0,55991:0:0:0:0:
320,192,55824,1,0,0:0:0:0:
192,192,55991,1,0,0:0:0:0:
320,192,56158,128,0,56324:0:0:0:0:
192,192,56324,1,0,0:0:0:0:
320,192,56491,128,0,56658:0:0:0:0:
64,192,56658,1,0,0:0:0:0:
192,192,56658,1,0,0:0:0:0:
448,192,56824,128,0,56991:0:0:0:0:
192,192,56991,1,0,0:0:0:0:
320,192,56991,1,0,0:0:0:0:
320,192,57158,128,0,57324:0:0:0:0:
64,192,57324,1,0,0:0:0:0:
192,192,57491,1,0,0:0:0:0:
448,192,57491,1,0,0:0:0:0:
64,192,57658,1,0,0:0:0:0:
320,192,57741,1,0,0:0:0:0:
192,192,57824,1,0,0:0:0:0:
320,192,57991,1,0,0:0:0:0:
448,192,57991,1,0,0:0:0:0:
64,192,58158,1,0,0:0:0:0:
192,192,58241,1,0,0:0:0:0:
320,192,58324,1,0,0:0:0:0:
64,192,58491,1,0,0:0:0:0:
192,192,58491,1,0,0:0:0:0:
192,192,58658,1,0,0:0:0:0:
320,192,58658,1,0,0:0:0:0:
192,192,58824,1,0,0:0:0:0:
320,192,58824,1,0,0:0:0:0:
64,192,58991,1,0,0:0:0:0:
320,192,59158,1,0,0:0:0:0:
192,192,59158,1,0,0:0:0:0:
448,192,59324,1,0,0:0:0:0:
320,192,59408,1,0,0:0:0:0:
192,192,59491,1,0,0:0:0:0:
320,192,59658,1,0,0:0:0:0:
64,192,59658,1,0,0:0:0:0:
192,192,59824,1,0,0:0:0:0:
320,192,59991,128,0,61324:0:0:0:0:
448,192,59991,1,0,0:0:0:0:
192,192,60158,1,0,0:0:0:0:
448,192,60324,1,0,0:0:0:0:
64,192,60491,1,0,0:0:0:0:
448,192,60658,1,0,0:0:0:0:
192,192,60824,1,0,0:0:0:0:
448,192,60991,1,0,0:0:0:0:
64,192,61158,1,0,0:0:0:0:
192,192,61324,128,0,62658:0:0:0:0:
448,192,61324,1,0,0:0:0:0:
64,192,61491,1,0,0:0:0:0:
320,192,61658,1,0,0:0:0:0:
64,192,61824,1,0,0:0:0:0:
448,192,61991,1,0,0:0:0:0:
64,192,62158,1,0,0:0:0:0:
320,192,62324,1,0,0:0:0:0:
64,192,62491,1,0,0:0:0:0:
448,192,62658,1,0,0:0:0:0:
64,192,62741,1,0,0:0:0:0:
448,192,62824,1,0,0:0:0:0:
64,192,62908,1,0,0:0:0:0:
448,192,62991,1,0,0:0:0:0:
64,192,63074,1,0,0:0:0:0:
448,192,63158,1,0,0:0:0:0:
64,192,63241,1,0,0:0:0:0:
320,192,63324,1,0,0:0:0:0:
192,192,63408,1,0,0:0:0:0:
320,192,63491,1,0,0:0:0:0:
192,192,63574,1,0,0:0:0:0:
320,192,63658,1,0,0:0:0:0:
192,192,63741,1,0,0:0:0:0:
320,192,63824,1,0,0:0:0:0:
192,192,63908,1,0,0:0:0:0:
320,192,63991,128,0,65324:0:0:0:0:
64,192,64158,1,0,0:0:0:0:
64,192,64491,1,0,0:0:0:0:
64,192,64824,1,0,0:0:0:0:
192,192,64991,1,0,0:0:0:0:
448,192,65158,1,0,0:0:0:0:
64,192,65324,128,0,65991:0:0:0:0:
320,192,65491,1,0,0:0:0:0:
320,192,65824,1,0,0:0:0:0:
448,192,65991,128,0,66658:0:0:0:0:
320,192,66158,1,0,0:0:0:0:
320,192,66324,1,0,0:0:0:0:
320,192,66491,1,0,0:0:0:0:
192,192,66658,128,0,67991:0:0:0:0:
64,192,66908,1,0,0:0:0:0:
64,192,67158,1,0,0:0:0:0:
64,192,67324,1,0,0:0:0:0:
448,192,67491,1,0,0:0:0:0:
448,192,67658,1,0,0:0:0:0:
448,192,67824,1,0,0:0:0:0:
448,192,67991,128,0,68158:0:0:0:0:
64,192,68158,128,0,68324:0:0:0:0:
448,192,68324,128,0,68491:0:0:0:0:
64,192,68491,128,0,68658:0:0:0:0:
448,192,68658,1,0,0:0:0:0:
320,192,68741,1,0,0:0:0:0:
192,192,68824,1,0,0:0:0:0:
64,192,68908,1,0,0:0:0:0:
448,192,68991,128,0,69158:0:0:0:0:
320,192,69158,1,0,0:0:0:0:
64,192,69324,1,0,0:0:0:0:
192,192,69324,1,0,0:0:0:0:
320,192,69491,128,0,69658:0:0:0:0:
448,192,69658,1,0,0:0:0:0:
192,192,69824,128,0,69991:0:0:0:0:
64,192,69991,1,0,0:0:0:0:
448,192,70158,128,0,70324:0:0:0:0:
192,192,70324,1,0,0:0:0:0:
320,192,70491,1,0,0:0:0:0:
192,192,70658,128,0,71324:0:0:0:0:
320,192,70824,1,0,0:0:0:0:
320,192,71158,1,0,0:0:0:0:
448,192,71324,128,0,71991:0:0:0:0:
320,192,71491,1,0,0:0:0:0:
320,192,71658,1,0,0:0:0:0:
320,192,71824,1,0,0:0:0:0:
64,192,71991,128,0,72658:0:0:0:0:
192,192,72158,1,0,0:0:0:0:
192,192,72491,1,0,0:0:0:0:
448,192,72658,128,0,73324:0:0:0:0:
192,192,72824,1,0,0:0:0:0:
192,192,72991,1,0,0:0:0:0:
192,192,73158,1,0,0:0:0:0:
320,192,73324,1,0,0:0:0:0:
64,192,73324,1,0,0:0:0:0:
192,192,73574,1,0,0:0:0:0:
448,192,73574,1,0,0:0:0:0:
64,192,73824,128,0,74158:0:0:0:0:
320,192,73824,128,0,74158:0:0:0:0:
192,192,74158,1,0,0:0:0:0:
448,192,74324,1,0,0:0:0:0:
192,192,74491,1,0,0:0:0:0:
448,192,74658,1,0,0:0:0:0:
192,192,74824,128,0,74991:0:0:0:0:
448,192,74991,1,0,0:0:0:0:
320,192,75158,1,0,0:0:0:0:
448,192,75324,128,0,75491:0:0:0:0:
64,192,75491,1,0,0:0:0:0:
192,192,75658,128,0,75824:0:0:0:0:
320,192,75824,1,0,0:0:0:0:
64,192,75991,1,0,0:0:0:0:
320,192,76158,1,0,0:0:0:0:
448,192,76158,1,0,0:0:0:0:
64,192,76324,1,0,0:0:0:0:
192,192,76324,1,0,0:0:0:0:
320,192,76491,1,0,0:0:0:0:
448,192,76491,1,0,0:0:0:0:
64,192,76658,1,0,0:0:0:0:
320,192,76824,1,0,0:0:0:0:
448,192,76824,1,0,0:0:0:0:
320,192,76991,1,0,0:0:0:0:
448,192,76991,1,0,0:0:0:0:
64,192,76991,1,0,0:0:0:0:
192,192,76991,1,0,0:0:0:0:
320,192,77158,1,0,0:0:0:0:
448,192,77158,1,0,0:0:0:0:
64,192,77324,1,0,0:0:0:0:
320,192,77491,1,0,0:0:0:0:
448,192,77491,1,0,0:0:0:0:
64,192,77658,1,0,0:0:0:0:
192,192,77658,1,0,0:0:0:0:
320,192,77824,1,0,0:0:0:0:
448,192,77824,1,0,0:0:0:0:
64,192,77991,1,0,0:0:0:0:
320,192,78158,1,0,0:0:0:0:
448,192,78158,1,0,0:0:0:0:
320,192,78324,1,0,0:0:0:0:
448,192,78324,1,0,0:0:0:0:
192,192,78324,1,0,0:0:0:0:
64,192,78324,1,0,0:0:0:0:
448,192,78491,1,0,0:0:0:0:
320,192,78491,1,0,0:0:0:0:
320,192,78658,128,0,78824:0:0:0:0:
64,192,78658,1,0,0:0:0:0:
192,192,78824,128,0,78991:0:0:0:0:
320,192,78991,128,0,79158:0:0:0:0:
192,192,79158,128,0,79324:0:0:0:0:
448,192,79324,1,0,0:0:0:0:
64,192,79408,1,0,0:0:0:0:
192,192,79491,1,0,0:0:0:0:
320,192,79574,1,0,0:0:0:0:
448,192,79658,1,0,0:0:0:0:
192,192,79824,128,0,79991:0:0:0:0:
64,192,79991,1,0,0:0:0:0:
320,192,79991,1,0,0:0:0:0:
448,192,79991,1,0,0:0:0:0:
64,192,80324,1,0,0:0:0:0:
192,192,80324,1,0,0:0:0:0:
320,192,80324,1,0,0:0:0:0:
448,192,80324,1,0,0:0:0:0:
448,192,80658,1,0,0:0:0:0:
192,192,80658,1,0,0:0:0:0:
64,192,80824,1,0,0:0:0:0:
320,192,80824,1,0,0:0:0:0:
192,192,80991,1,0,0:0:0:0:
448,192,80991,1,0,0:0:0:0:
320,192,81158,1,0,0:0:0:0:
64,192,81158,1,0,0:0:0:0:
192,192,81324,128,0,82658:0:0:0:0:
320,192,81491,1,0,0:0:0:0:
320,192,81824,1,0,0:0:0:0:
320,192,82158,1,0,0:0:0:0:
320,192,82324,1,0,0:0:0:0:
320,192,82491,1,0,0:0:0:0:
64,192,82658,1,0,0:0:0:0:
320,192,82824,1,0,0:0:0:0:
448,192,82824,1,0,0:0:0:0:
192,192,82991,1,0,0:0:0:0:
64,192,82991,1,0,0:0:0:0:
320,192,83158,1,0,0:0:0:0:
448,192,83158,1,0,0:0:0:0:
64,192,83324,128,0,83658:0:0:0:0:
192,192,83324,1,0,0:0:0:0:
320,192,83491,1,0,0:0:0:0:
448,192,83491,1,0,0:0:0:0:
192,192,83658,1,0,0:0:0:0:
448,192,83658,128,0,83991:0:0:0:0:
64,192,83991,1,0,0:0:0:0:
320,192,83991,1,0,0:0:0:0:
320,192,84241,1,0,0:0:0:0:
192,192,84324,1,0,0:0:0:0:
64,192,84491,128,0,84991:0:0:0:0:
448,192,84491,1,0,0:0:0:0:
448,192,84824,1,0,0:0:0:0:
448,192,85158,1,0,0:0:0:0:
320,192,85324,128,0,85991:0:0:0:0:
64,192,85658,1,0,0:0:0:0:
192,192,85991,128,0,86658:0:0:0:0:
448,192,86324,1,0,0:0:0:0:
448,192,86491,1,0,0:0:0:0:
320,192,86658,1,0,0:0:0:0:
64,192,86991,1,0,0:0:0:0:
192,192,87658,1,0,0:0:0:0:
64,192,87824,128,0,87991:0:0:0:0:
448,192,87991,1,0,0:0:0:0:
192,192,87991,1,0,0:0:0:0:
448,192,88324,1,0,0:0:0:0:
320,192,88991,1,0,0:0:0:0:
448,192,89158,128,0,89324:0:0:0:0:
64,192,89324,1,0,0:0:0:0:
320,192,89324,1,0,0:0:0:0:
64,192,89658,1,0,0:0:0:0:
192,192,90324,1,0,0:0:0:0:
64,192,90491,128,0,90658:0:0:0:0:
448,192,90658,1,0,0:0:0:0:
192,192,90658,1,0,0:0:0:0:
448,192,90991,1,0,0:0:0:0:
320,192,91658,1,0,0:0:0:0:
448,192,91824,128,0,91991:0:0:0:0:
320,192,91991,1,0,0:0:0:0:
64,192,91991,1,0,0:0:0:0:
320,192,92324,1,0,0:0:0:0:
192,192,92491,128,0,92658:0:0:0:0:
64,192,92658,1,0,0:0:0:0:
448,192,92658,1,0,0:0:0:0:
192,192,92991,1,0,0:0:0:0:
320,192,93158,128,0,93324:0:0:0:0:
64,192,93324,1,0,0:0:0:0:
448,192,93324,1,0,0:0:0:0:
192,192,93658,1,0,0:0:0:0:
64,192,93824,128,0,93991:0:0:0:0:
448,192,93991,1,0,0:0:0:0:
320,192,93991,1,0,0:0:0:0:
320,192,94324,1,0,0:0:0:0:
448,192,94491,128,0,94658:0:0:0:0:
64,192,94658,1,0,0:0:0:0:
192,192,94658,1,0,0:0:0:0:
64,192,94991,1,0,0:0:0:0:
320,192,94991,1,0,0:0:0:0:
192,192,95324,1,0,0:0:0:0:
448,192,95324,1,0,0:0:0:0:
192,192,95658,1,0,0:0:0:0:
320,192,95658,1,0,0:0:0:0:
64,192,95658,1,0,0:0:0:0:
192,192,95991,1,0,0:0:0:0:
320,192,95991,1,0,0:0:0:0:
448,192,95991,1,0,0:0:0:0:
64,192,95991,128,0,96241:0:0:0:0:
448,192,96241,128,0,96491:0:0:0:0:
192,192,96491,128,0,96658:0:0:0:0:
320,192,96658,128,0,96991:0:0:0:0:
64,192,96658,128,0,96991:0:0:0:0:
192,192,96991,128,0,97324:0:0:0:0:
448,192,96991,128,0,97324:0:0:0:0:
64,192,97324,1,0,0:0:0:0:
320,192,97324,1,0,0:0:0:0:
320,192,97491,1,0,0:0:0:0:
192,192,97658,1,0,0:0:0:0:
448,192,97658,1,0,0:0:0:0:
320,192,97824,1,0,0:0:0:0:
192,192,97991,1,0,0:0:0:0:
64,192,97991,1,0,0:0:0:0:
320,192,98158,1,0,0:0:0:0:
448,192,98158,1,0,0:0:0:0:
64,192,98324,1,0,0:0:0:0:
192,192,98491,1,0,0:0:0:0:
320,192,98491,1,0,0:0:0:0:
64,192,98658,1,0,0:0:0:0:
192,192,98824,1,0,0:0:0:0:
320,192,98824,1,0,0:0:0:0:
64,192,98991,1,0,0:0:0:0:
320,192,99158,1,0,0:0:0:0:
448,192,99158,1,0,0:0:0:0:
192,192,99324,1,0,0:0:0:0:
448,192,99491,1,0,0:0:0:0:
320,192,99658,1,0,0:0:0:0:
192,192,99824,1,0,0:0:0:0:
64,192,99991,1,0,0:0:0:0:
320,192,99991,1,0,0:0:0:0:
192,192,100158,1,0,0:0:0:0:
64,192,100324,1,0,0:0:0:0:
448,192,100324,1,0,0:0:0:0:
320,192,100491,1,0,0:0:0:0:
192,192,100658,1,0,0:0:0:0:
64,192,100658,1,0,0:0:0:0:
320,192,100824,1,0,0:0:0:0:
448,192,100824,1,0,0:0:0:0:
64,192,100991,1,0,0:0:0:0:
192,192,101158,1,0,0:0:0:0:
320,192,101158,1,0,0:0:0:0:
64,192,101324,1,0,0:0:0:0:
192,192,101491,128,0,101991:0:0:0:0:
448,192,101491,1,0,0:0:0:0:
320,192,101658,1,0,0:0:0:0:
448,192,101824,1,0,0:0:0:0:
64,192,101991,1,0,0:0:0:0:
448,192,102158,1,0,0:0:0:0:
64,192,102241,1,0,0:0:0:0:
448,192,102324,1,0,0:0:0:0:
64,192,102408,1,0,0:0:0:0:
320,192,102491,1,0,0:0:0:0:
64,192,102574,1,0,0:0:0:0:
192,192,102658,1,0,0:0:0:0:
448,192,102658,1,0,0:0:0:0:
320,192,102824,1,0,0:0:0:0:
192,192,102991,1,0,0:0:0:0:
448,192,102991,1,0,0:0:0:0:
320,192,103158,1,0,0:0:0:0:
192,192,103324,1,0,0:0:0:0:
64,192,103324,1,0,0:0:0:0:
320,192,103491,1,0,0:0:0:0:
448,192,103491,1,0,0:0:0:0:
64,192,103658,1,0,0:0:0:0:
192,192,103824,1,0,0:0:0:0:
320,192,103824,1,0,0:0:0:0:
64,192,103991,1,0,0:0:0:0:
192,192,104158,1,0,0:0:0:0:
320,192,104158,1,0,0:0:0:0:
64,192,104324,1,0,0:0:0:0:
320,192,104491,1,0,0:0:0:0:
448,192,104491,1,0,0:0:0:0:
192,192,104658,1,0,0:0:0:0:
64,192,104658,1,0,0:0:0:0:
448,192,104824,1,0,0:0:0:0:
320,192,104991,1,0,0:0:0:0:
192,192,104991,1,0,0:0:0:0:
64,192,105158,1,0,0:0:0:0:
448,192,105324,1,0,0:0:0:0:
320,192,105324,1,0,0:0:0:0:
320,192,105491,128,0,105991:0:0:0:0:
192,192,105491,1,0,0:0:0:0:
64,192,105658,1,0,0:0:0:0:
192,192,105824,1,0,0:0:0:0:
448,192,105991,1,0,0:0:0:0:
192,192,106158,1,0,0:0:0:0:
64,192,106158,1,0,0:0:0:0:
320,192,106324,1,0,0:0:0:0:
448,192,106408,1,0,0:0:0:0:
320,192,106491,1,0,0:0:0:0:
192,192,106574,1,0,0:0:0:0:
64,192,106658,1,0,0:0:0:0:
448,192,106824,1,0,0:0:0:0:
192,192,106824,1,0,0:0:0:0:
64,192,106991,1,0,0:0:0:0:
320,192,107158,1,0,0:0:0:0:
192,192,107158,1,0,0:0:0:0:
64,192,107324,1,0,0:0:0:0:
192,192,107491,1,0,0:0:0:0:
320,192,107658,1,0,0:0:0:0:
64,192,107658,1,0,0:0:0:0:
448,192,107824,1,0,0:0:0:0:
192,192,107824,1,0,0:0:0:0:
320,192,107991,1,0,0:0:0:0:
64,192,107991,128,0,109324:0:0:0:0:
448,192,108158,1,0,0:0:0:0:
320,192,108241,1,0,0:0:0:0:
448,192,108408,1,0,0:0:0:0:
320,192,108491,1,0,0:0:0:0:
448,192,108658,1,0,0:0:0:0:
320,192,108824,1,0,0:0:0:0:
448,192,108991,1,0,0:0:0:0:
192,192,109158,1,0,0:0:0:0:
448,192,109324,128,0,110658:0:0:0:0:
320,192,109491,1,0,0:0:0:0:
192,192,109574,1,0,0:0:0:0:
320,192,109741,1,0,0:0:0:0:
192,192,109824,1,0,0:0:0:0:
320,192,109991,1,0,0:0:0:0:
64,192,110158,1,0,0:0:0:0:
192,192,110324,1,0,0:0:0:0:
320,192,110491,1,0,0:0:0:0:
64,192,110658,128,0,111991:0:0:0:0:
192,192,110824,1,0,0:0:0:0:
448,192,110908,1,0,0:0:0:0:
192,192,111074,1,0,0:0:0:0:
448,192,111158,1,0,0:0:0:0:
320,192,111324,1,0,0:0:0:0:
448,192,111491,1,0,0:0:0:0:
192,192,111658,1,0,0:0:0:0:
448,192,111824,1,0,0:0:0:0:
192,192,111991,128,0,113324:0:0:0:0:
320,192,111991,1,0,0:0:0:0:
448,192,112158,1,0,0:0:0:0:
320,192,112241,1,0,0:0:0:0:
448,192,112408,1,0,0:0:0:0:
320,192,112491,1,0,0:0:0:0:
448,192,112658,1,0,0:0:0:0:
320,192,112824,1,0,0:0:0:0:
64,192,112991,1,0,0:0:0:0:
320,192,113158,1,0,0:0:0:0:
448,192,113324,1,0,0:0:0:0:
64,192,113324,128,0,114658:0:0:0:0:
320,192,113491,1,0,0:0:0:0:
448,192,113658,1,0,0:0:0:0:
320,192,113824,1,0,0:0:0:0:
448,192,113991,1,0,0:0:0:0:
320,192,114158,1,0,0:0:0:0:
448,192,114324,1,0,0:0:0:0:
320,192,114491,1,0,0:0:0:0:
448,192,114658,128,0,115991:0:0:0:0:
192,192,114824,1,0,0:0:0:0:
64,192,114991,1,0,0:0:0:0:
192,192,115158,1,0,0:0:0:0:
64,192,115324,1,0,0:0:0:0:
192,192,115491,1,0,0:0:0:0:
64,192,115658,1,0,0:0:0:0:
192,192,115824,1,0,0:0:0:0:
320,192,115991,1,0,0:0:0:0:
192,192,116074,1,0,0:0:0:0:
320,192,116158,1,0,0:0:0:0:
192,192,116241,1,0,0:0:0:0:
320,192,116324,1,0,0:0:0:0:
192,192,116408,1,0,0:0:0:0:
320,192,116491,1,0,0:0:0:0:
192,192,116574,1,0,0:0:0:0:
448,192,116658,1,0,0:0:0:0:
64,192,116741,1,0,0:0:0:0:
448,192,116824,1,0,0:0:0:0:
64,192,116908,1,0,0:0:0:0:
448,192,116991,1,0,0:0:0:0:
64,192,117074,1,0,0:0:0:0:
448,192,117158,1,0,0:0:0:0:
64,192,117241,1,0,0:0:0:0:
192,192,117324,1,0,0:0:0:0:
320,192,117324,1,0,0:0:0:0:
448,192,117324,1,0,0:0:0:0:
192,192,117574,1,0,0:0:0:0:
320,192,117574,1,0,0:0:0:0:
64,192,117574,1,0,0:0:0:0:
192,192,117824,1,0,0:0:0:0:
320,192,117824,1,0,0:0:0:0:
448,192,117824,1,0,0:0:0:0:
64,192,117991,1,0,0:0:0:0:
192,192,118158,1,0,0:0:0:0:
320,192,118324,1,0,0:0:0:0:
448,192,118491,1,0,0:0:0:0:
64,192,118658,1,0,0:0:0:0:
