osu file format v14

[General]
AudioFilename: audio.mp3
AudioLeadIn: 0
PreviewTime: 54631
Countdown: 1
SampleSet: Normal
StackLeniency: 0.7
Mode: 0
LetterboxInBreaks: 0
WidescreenStoryboard: 1

[Editor]
DistanceSpacing: 1
BeatDivisor: 4
GridSize: 8
TimelineZoom: 2

[Metadata]
Title:Fools Paradise (feat. Rochelle)
TitleUnicode:Fools Paradise (feat. Rochelle)
Artist:DIrtcaps
ArtistUnicode:DIrtcaps
Creator:elena2705
Version:Easy
Source:
Tags:
BeatmapID:1286154
BeatmapSetID:608986

[Difficulty]
HPDrainRate:4
CircleSize:3
OverallDifficulty:2
ApproachRate:3
SliderMultiplier:1
SliderTickRate:1

[Events]
//Background and Video events
0,0,"3w61.png",0,0
//Break Periods
2,81313,92915
//Storyboard Layer 0 (Background)
//Storyboard Layer 1 (Fail)
//Storyboard Layer 2 (Pass)
//Storyboard Layer 3 (Foreground)
//Storyboard Sound Samples

[TimingPoints]
1665.56819348288,413.793103448276,4,1,2,100,1,0
1769,-100,4,1,1,60,0,0
3217,-100,4,1,2,100,0,0
3424,-100,4,1,1,60,0,0
4872,-100,4,1,2,100,0,0
5079,-100,4,1,1,60,0,0
6527,-100,4,1,2,100,0,0
6734,-100,4,1,1,60,0,0
8182,-100,4,1,2,100,0,0
8389,-100,4,1,1,60,0,0
9837,-100,4,1,2,100,0,0
10044,-100,4,1,1,60,0,0
11493,-100,4,1,2,100,0,0
11700,-100,4,1,1,60,0,0
13148,-100,4,1,2,100,0,0
13355,-100,4,1,1,60,0,0
14906,-100,4,1,1,80,0,0
25251,-71.4285714285714,4,1,1,80,0,0
28148,-100,4,1,1,80,0,0
51320,-100,4,2,1,100,0,0
53079,-100,4,1,1,100,0,0
53803,-100,4,3,0,100,0,0
54631,-66.6666666666667,4,1,3,100,0,1
79251,-100,4,1,1,100,0,0
80286,-100,4,3,0,100,0,0
80803,-100,4,1,1,100,0,0
81113,-100,4,2,1,100,0,0
94355,-100,4,1,1,100,0,0
107596,-100,4,1,1,100,0,0
130769,-100,4,2,1,100,0,0
132527,-100,4,1,1,100,0,0
133251,-100,4,3,0,100,0,0
134079,-66.6666666666667,4,1,1,100,0,1
146493,-66.6666666666667,4,3,0,100,0,1
147320,-66.6666666666667,4,1,1,100,0,1
158700,-100,4,1,1,100,0,0
159734,-100,4,3,0,100,0,0
160251,-100,4,1,1,100,0,0
160562,-100,4,1,1,100,0,0
160665,-100,4,1,1,100,0,0

[Colours]
Combo1 : 0,111,0
Combo2 : 128,0,0
Combo3 : 255,0,0
Combo4 : 255,128,0
Combo5 : 255,255,128
Combo6 : 175,214,41
Combo7 : 47,189,54

[HitObjects]
104,80,1665,5,0,0:0:0:0:
256,80,2286,1,0,0:0:0:0:
256,80,2493,2,0,P|308:104|344:148,1,100
396,216,3320,1,0,0:0:0:0:
268,292,3941,5,0,0:0:0:0:
268,292,4148,2,0,P|224:288|168:312,2,100
88,208,5803,6,0,L|120:160,1,50
164,168,6217,2,0,L|188:228,1,50
232,204,6631,2,0,P|272:220|348:204,2,100
208,160,7665,2,0,L|192:104,2,50
256,136,8286,1,0,0:0:0:0:
156,44,8906,5,0,0:0:0:0:
156,44,9113,2,0,P|104:36|44:52,2,100,8|2|0,0:0|0:0|0:0,0:0:0:0:
152,196,10562,53,0,0:0:0:0:
152,196,10769,2,0,P|100:204|40:188,2,100,8|2|0,0:0|0:0|0:0,0:0:0:0:
280,120,12217,5,0,0:0:0:0:
280,120,12424,2,0,L|388:120,1,100,8|2,0:0|0:0,0:0:0:0:
480,120,13251,1,0,0:0:0:0:
260,240,14286,6,0,L|292:288,2,50
236,196,14906,1,6,0:0:0:0:
184,112,15320,6,0,P|152:60|112:40,1,100,0|8,0:0|0:0,0:0:0:0:
88,136,16148,2,0,L|88:240,1,100,2|2,0:0|0:0,0:0:0:0:
168,288,16975,1,2,0:0:0:0:
264,304,17389,2,0,P|320:320|368:304,2,100,8|2|0,0:0|0:0|0:0,0:0:0:0:
320,216,18631,53,0,0:0:0:0:
280,128,19044,1,8,0:0:0:0:
200,72,19458,2,0,P|188:140|200:184,1,100,2|2,0:0|0:0,0:0:0:0:
152,264,20286,2,0,P|112:232|88:176,2,100,0|8|2,0:0|0:0|0:0,0:0:0:0:
248,288,21527,1,2,0:0:0:0:
344,264,21941,6,0,P|400:248|432:204,1,100,0|8,0:0|0:0,0:0:0:0:
424,120,22769,2,0,P|348:88|312:92,1,100,2|2,0:0|0:0,0:0:0:0:
248,144,23596,2,0,B|220:196|220:196|168:224,2,100,0|8|2,0:0|0:0|0:0,0:0:0:0:
300,72,24837,1,2,0:0:0:0:
160,72,25251,6,0,L|8:48,2,139.999995727539
288,128,26493,2,0,P|400:208|224:304,1,419.999987182618
224,208,28148,1,0,0:0:0:0:
64,72,28769,5,2,0:0:0:0:
80,120,28975,2,0,P|96:192|80:272,1,150,8|0,0:0|0:0,0:0:0:0:
112,304,29803,2,0,P|184:288|264:304,1,150,2|0,0:0|0:0,0:0:0:0:
304,320,30631,2,0,P|376:336|456:320,1,150,8|0,0:0|0:0,0:0:0:0:
488,288,31458,53,2,0:0:0:0:
456,192,31872,1,0,0:0:0:0:
408,104,32286,2,0,P|368:144|360:192,2,100,8|2|2,0:0|0:0|0:0,0:0:0:0:
352,16,33527,1,2,0:0:0:0:
248,16,33941,1,8,0:0:0:0:
152,24,34355,2,0,P|88:40|56:64,1,100,2|2,0:0|0:0,0:0:0:0:
136,192,35389,5,2,0:0:0:0:
184,200,35596,2,0,P|256:216|336:200,1,150,8|0,0:0|0:0,0:0:0:0:
376,184,36424,2,0,P|400:104|352:48,1,150,2|0,0:0|0:0,0:0:0:0:
320,40,37251,2,0,P|256:24|160:40,1,150,8|0,0:0|0:0,0:0:0:0:
136,72,38079,1,2,0:0:0:0:
248,240,38906,1,8,0:0:0:0:
152,264,39320,1,2,0:0:0:0:
72,208,39734,2,0,P|48:144|56:104,1,100
152,144,40562,2,0,P|216:120|256:88,2,100,8|2|4,0:0|0:0|0:0,0:0:0:0:
304,272,42217,5,10,0:0:0:0:
368,80,43044,2,0,P|376:120|368:160,2,75,2|0|2,0:0|0:0|0:0,0:0:0:0:
344,32,43872,2,0,B|264:32|264:32|224:48|224:48|136:48,1,200,8|4,0:0|0:0,0:0:0:0:
64,232,45527,5,8,0:0:0:0:
208,272,46148,1,0,0:0:0:0:
208,272,46355,2,0,P|216:232|200:184,2,75,8|0|2,0:0|0:0|0:0,0:0:0:0:
224,320,47182,2,0,P|320:336|424:312,1,200,8|6,0:0|0:0,0:0:0:0:
432,112,48837,54,0,P|416:84|360:48,1,100,8|2,0:0|0:0,0:0:0:0:
344,144,49665,2,0,P|296:144|264:120,2,75,2|0|2,0:0|0:0|0:0,0:0:0:0:
368,192,50493,2,0,L|408:304,1,100,8|2,0:0|0:0,0:0:0:0:
256,192,51320,12,0,52975,0:0:0:0:
256,192,53803,5,4,0:0:0:0:
256,192,54217,1,4,0:0:0:0:
192,56,54631,38,0,P|128:40|32:56,1,150.000005722046,4|0,0:0|0:0,0:0:0:0:
56,200,55458,2,0,P|120:216|216:200,1,150.000005722046,8|4,0:0|0:0,0:0:0:0:
336,136,56286,1,0,0:0:0:0:
336,136,56700,2,0,L|416:136,2,75.0000028610231,4|0|8,0:0|0:0|0:0,0:0:0:0:
256,264,57527,2,4,B|200:312|200:312|120:328,1,150.000005722046
136,176,58355,6,0,L|176:24,1,150.000005722046,0|8,0:0|0:0,0:0:0:0:
328,32,59182,2,0,L|368:192,1,150.000005722046,4|4,0:0|0:0,0:0:0:0:
472,280,60010,2,0,L|424:344,1,75.0000028610231,4|0,0:0|0:0,0:0:0:0:
352,344,60424,2,0,L|288:280,1,75.0000028610231,8|0,0:0|0:0,0:0:0:0:
248,240,60837,2,0,P|176:216|112:152,1,150.000005722046,0|4,0:0|0:0,0:0:0:0:
256,96,61665,5,0,0:0:0:0:
256,96,62079,2,0,P|208:56|120:24,1,150.000005722046,8|4,0:0|0:0,0:0:0:0:
48,152,62906,1,0,0:0:0:0:
64,304,63320,2,0,P|78:281|176:208,2,150.000005722046,8|4|0,0:0|0:0|0:0,0:0:0:0:
216,328,64561,1,4,0:0:0:0:
192,160,64975,70,0,L|64:76,1,150.000005722046,0|8,0:0|0:0,0:0:0:0:
40,224,65803,2,0,L|168:312,1,150.000005722046,4|0,0:0|0:0,0:0:0:0:
248,184,66630,2,0,L|288:112,1,75.0000028610231
360,120,67044,2,0,L|424:160,1,75.0000028610231,4|4,0:0|0:0,0:0:0:0:
432,232,67458,2,0,B|392:280|384:320|384:320|328:336,1,150.000005722046,4|4,0:0|0:0,0:0:0:0:
184,344,68286,5,0,0:0:0:0:
88,216,68700,1,8,0:0:0:0:
88,216,69113,2,0,P|88:128|56:56,1,150.000005722046,4|4,0:0|0:0,0:0:0:0:
240,216,69941,2,0,P|240:280|248:304,2,75.0000028610231,4|0|8,0:0|0:0|0:0,0:0:0:0:
336,96,70769,1,4,0:0:0:0:
336,96,71182,1,4,0:0:0:0:
184,104,71596,6,0,L|32:104,1,150.000005722046,0|4,0:0|0:0,0:0:0:0:
120,240,72424,2,0,L|-32:240,1,150.000005722046,4|0,0:0|0:0,0:0:0:0:
272,240,73251,2,0,L|360:240,2,75.0000028610231,4|0|8,0:0|0:0|0:0,0:0:0:0:
344,104,74079,2,0,L|432:104,2,75.0000028610231,0|0|4,0:0|0:0|0:0,0:0:0:0:
240,208,74906,70,0,L|208:288,1,75.0000028610231,0|4,0:0|0:0,0:0:0:0:
144,272,75320,2,0,L|128:184,1,75.0000028610231,8|0,0:0|0:0,0:0:0:0:
120,128,75734,2,0,P|104:88|72:64,2,75.0000028610231,4|0|0,0:0|0:0|0:0,0:0:0:0:
264,168,76562,2,0,L|312:96,1,75.0000028610231
384,104,76975,2,0,L|432:192,2,75.0000028610231,8|0|4,0:0|0:0|0:0,0:0:0:0:
376,32,77596,2,0,P|336:24|304:32,1,75.0000028610231,0|4,0:0|0:0,0:0:0:0:
152,40,78217,6,0,B|120:80|120:80|112:120|112:120|64:168,2,150.000005722046,0|8|4,0:0|0:0|0:0,0:0:0:0:
200,128,79458,6,0,L|200:184,2,50,2|2|2,0:0|0:0|0:0,0:0:0:0:
240,160,80079,2,0,L|240:224,2,50,2|4|4,0:0|0:0|0:0,0:0:0:0:
288,184,80700,2,4,L|288:240,2,50,4|4|8,0:0|0:0|0:0,0:0:0:0:
328,256,94355,5,4,0:0:0:0:
328,256,94769,6,0,P|360:308|400:328,1,100,0|8,0:0|0:0,0:0:0:0:
424,232,95597,2,0,L|424:128,1,100,2|2,0:0|0:0,0:0:0:0:
344,80,96424,1,2,0:0:0:0:
248,64,96838,2,0,P|192:48|144:64,2,100,8|2|0,0:0|0:0|0:0,0:0:0:0:
192,152,98080,5,0,0:0:0:0:
232,240,98493,1,8,0:0:0:0:
312,296,98907,2,0,P|324:228|312:184,1,100,2|2,0:0|0:0,0:0:0:0:
360,104,99735,2,0,P|400:136|424:192,2,100,0|8|2,0:0|0:0|0:0,0:0:0:0:
264,80,100976,1,2,0:0:0:0:
168,104,101390,6,0,P|112:120|80:164,1,100,0|8,0:0|0:0,0:0:0:0:
88,248,102218,2,0,P|164:280|200:276,1,100,2|2,0:0|0:0,0:0:0:0:
264,224,103045,2,0,B|292:172|292:172|344:144,2,100,0|8|2,0:0|0:0|0:0,0:0:0:0:
212,296,104286,1,2,0:0:0:0:
212,296,104700,54,0,P|148:344|228:168,1,700,0|6,0:0|0:0,0:0:0:0:
448,296,108218,5,2,0:0:0:0:
432,248,108424,2,0,P|416:176|432:96,1,150,8|0,0:0|0:0,0:0:0:0:
400,64,109252,2,0,P|328:80|248:64,1,150,2|0,0:0|0:0,0:0:0:0:
208,48,110080,2,0,P|136:32|56:48,1,150,8|0,0:0|0:0,0:0:0:0:
24,80,110907,5,2,0:0:0:0:
56,176,111321,1,0,0:0:0:0:
104,264,111735,2,0,P|144:224|152:176,2,100,8|2|2,0:0|0:0|0:0,0:0:0:0:
160,352,112976,1,2,0:0:0:0:
264,352,113390,1,8,0:0:0:0:
360,344,113804,2,0,P|424:328|456:304,1,100,2|2,0:0|0:0,0:0:0:0:
376,176,114838,5,2,0:0:0:0:
328,168,115045,2,0,P|256:184|176:168,1,150,8|0,0:0|0:0,0:0:0:0:
136,184,115873,2,0,P|168:256|136:336,1,150,2|0,0:0|0:0,0:0:0:0:
88,328,116700,2,0,P|56:256|88:176,1,150,8|0,0:0|0:0,0:0:0:0:
96,144,117528,1,2,0:0:0:0:
272,56,118355,5,8,0:0:0:0:
360,104,118769,1,2,0:0:0:0:
440,160,119183,2,0,P|464:224|456:264,1,100
360,224,120011,2,0,P|296:248|256:280,2,100,8|2|4,0:0|0:0|0:0,0:0:0:0:
208,96,121666,53,10,0:0:0:0:
144,288,122493,2,0,P|136:248|144:208,2,75,2|0|2,0:0|0:0|0:0,0:0:0:0:
168,336,123321,2,0,B|248:336|248:336|288:320|288:320|376:320,1,200,8|4,0:0|0:0,0:0:0:0:
448,136,124976,5,8,0:0:0:0:
304,96,125597,1,0,0:0:0:0:
304,96,125804,2,0,P|296:136|312:184,2,75,8|0|2,0:0|0:0|0:0,0:0:0:0:
288,48,126631,2,0,P|192:32|88:56,1,200,8|6,0:0|0:0,0:0:0:0:
80,256,128286,6,0,P|96:284|152:320,1,100,8|2,0:0|0:0,0:0:0:0:
168,224,129114,2,0,P|184:192|232:168,2,75,2|0|2,0:0|0:0|0:0,0:0:0:0:
192,272,129942,2,0,L|304:304,1,100,8|2,0:0|0:0,0:0:0:0:
256,192,130769,12,0,132424,0:0:0:0:
256,176,133252,85,4,0:0:0:0:
256,176,133666,1,4,0:0:0:0:
320,312,134080,38,0,P|384:328|480:312,1,150.000005722046,4|0,0:0|0:0,0:0:0:0:
456,168,134907,2,0,P|392:152|296:168,1,150.000005722046,8|4,0:0|0:0,0:0:0:0:
176,232,135735,1,0,0:0:0:0:
176,232,136149,2,0,L|96:232,2,75.0000028610231,4|0|8,0:0|0:0|0:0,0:0:0:0:
256,104,136976,2,4,B|312:56|312:56|392:40,1,150.000005722046
376,192,137804,6,0,L|336:344,1,150.000005722046,0|8,0:0|0:0,0:0:0:0:
184,336,138631,2,0,L|144:176,1,150.000005722046,4|4,0:0|0:0,0:0:0:0:
40,88,139459,2,0,L|88:24,1,75.0000028610231,4|0,0:0|0:0,0:0:0:0:
160,24,139873,2,0,L|224:88,1,75.0000028610231,8|0,0:0|0:0,0:0:0:0:
264,128,140286,2,0,P|336:152|400:216,1,150.000005722046,0|4,0:0|0:0,0:0:0:0:
256,272,141114,5,0,0:0:0:0:
256,272,141528,2,0,P|304:312|392:344,1,150.000005722046,8|4,0:0|0:0,0:0:0:0:
464,216,142355,1,0,0:0:0:0:
368,96,142769,1,4,0:0:0:0:
216,88,143183,2,0,P|240:88|160:152,1,300.000011444092,8|4,0:0|0:0,0:0:0:0:
320,208,144424,70,0,L|448:292,1,150.000005722046,0|8,0:0|0:0,0:0:0:0:
472,144,145252,2,0,L|344:56,1,150.000005722046,4|0,0:0|0:0,0:0:0:0:
264,184,146079,2,0,L|224:256,1,75.0000028610231
152,248,146493,2,0,L|120:176,1,75.0000028610231,4|4,0:0|0:0,0:0:0:0:
192,152,146907,2,0,B|232:104|176:56|176:56|208:24,1,150.000005722046,4|4,0:0|0:0,0:0:0:0:
352,24,147735,5,0,0:0:0:0:
424,152,148149,1,8,0:0:0:0:
424,152,148562,2,0,P|424:216|432:240,2,75.0000028610231,4|0|0,0:0|0:0|0:0,0:0:0:0:
272,152,149390,2,0,P|272:88|264:64,2,75.0000028610231,4|0|8,0:0|0:0|0:0,0:0:0:0:
176,272,150218,1,4,0:0:0:0:
176,272,150631,1,4,0:0:0:0:
328,264,151045,6,0,L|416:264,2,75.0000028610231,0|4|8,0:0|0:0|0:0,0:0:0:0:
392,128,151873,2,0,L|472:128,2,75.0000028610231,4|0|0,0:0|0:0|0:0,0:0:0:0:
240,128,152700,2,0,L|152:128,2,75.0000028610231,4|0|8,0:0|0:0|0:0,0:0:0:0:
168,264,153528,2,0,L|80:264,2,75.0000028610231,0|0|4,0:0|0:0|0:0,0:0:0:0:
272,160,154355,70,0,L|304:80,1,75.0000028610231,0|4,0:0|0:0,0:0:0:0:
368,96,154769,2,0,L|384:184,1,75.0000028610231,8|0,0:0|0:0,0:0:0:0:
392,240,155183,2,0,P|408:280|440:304,2,75.0000028610231,4|0|0,0:0|0:0|0:0,0:0:0:0:
248,200,156011,2,0,L|200:272,1,75.0000028610231
128,264,156424,2,0,L|64:112,1,150.000005722046,8|0,0:0|0:0,0:0:0:0:
56,272,157251,1,4,0:0:0:0:
360,328,157666,6,0,B|392:288|392:288|400:248|400:248|448:200,2,150.000005722046,0|8|4,0:0|0:0|0:0,0:0:0:0:
312,240,158907,6,0,L|312:184,2,50,2|2|2,0:0|0:0|0:0,0:0:0:0:
272,208,159528,2,0,L|272:144,2,50,2|4|4,0:0|0:0|0:0,0:0:0:0:
224,184,160149,2,4,L|224:128,2,50
224,304,161182,5,0,0:0:0:0:
224,304,161389,2,0,P|172:280|136:236,1,100
84,168,162216,1,0,0:0:0:0:
212,92,162837,5,0,0:0:0:0:
212,92,163044,2,0,P|264:116|300:160,2,100
392,176,164699,6,0,L|360:224,1,50
316,216,165113,2,0,L|292:156,1,50
248,180,165527,2,0,P|208:164|132:180,2,100
192,264,166769,2,0,P|176:320|200:376,1,100,0|4,0:0|0:0,0:0:0:0:
324,340,167802,5,0,0:0:0:0:
324,340,168009,2,0,P|376:348|436:332,2,100,8|2|0,0:0|0:0|0:0,0:0:0:0:
328,188,169458,53,0,0:0:0:0:
328,188,169665,2,0,P|380:180|440:196,2,100,8|2|0,0:0|0:0|0:0,0:0:0:0:
200,264,171113,5,0,0:0:0:0:
200,264,171320,2,0,L|92:264,1,100,8|2,0:0|0:0,0:0:0:0:
0,264,172147,1,0,0:0:0:0:
220,144,173182,6,0,L|188:96,2,50
244,188,173802,1,6,0:0:0:0:
