osu file format v14

[General]
AudioFilename: audio.mp3
AudioLeadIn: 0
PreviewTime: 54631
Countdown: 1
SampleSet: Normal
StackLeniency: 0.7
Mode: 0
LetterboxInBreaks: 0
WidescreenStoryboard: 1

[Editor]
DistanceSpacing: 1
BeatDivisor: 4
GridSize: 8
TimelineZoom: 2.7

[Metadata]
Title:Fools Paradise (feat. Rochelle)
TitleUnicode:Fools Paradise (feat. Rochelle)
Artist:DIrtcaps (feat. Rochelle)
ArtistUnicode:DIrtcaps (feat. Rochelle)
Creator:elena2705
Version:Insane
Source:
Tags:
BeatmapID:1286111
BeatmapSetID:608986

[Difficulty]
HPDrainRate:10
CircleSize:4
OverallDifficulty:8
ApproachRate:7
SliderMultiplier:1.6
SliderTickRate:1

[Events]
//Background and Video events
0,0,"3w61.png",0,0
//Break Periods
2,81312,93455
//Storyboard Layer 0 (Background)
//Storyboard Layer 1 (Fail)
//Storyboard Layer 2 (Pass)
//Storyboard Layer 3 (Foreground)
//Storyboard Sound Samples

[TimingPoints]
1665.56819348288,413.793103448276,4,1,2,100,1,0
1769,-100,4,1,1,60,0,0
3217,-100,4,1,2,100,0,0
3424,-100,4,1,1,60,0,0
4872,-100,4,1,2,100,0,0
5079,-100,4,1,1,60,0,0
6527,-100,4,1,2,100,0,0
6734,-100,4,1,1,60,0,0
8182,-100,4,1,2,100,0,0
8389,-100,4,1,1,60,0,0
9837,-100,4,1,2,100,0,0
10044,-100,4,1,1,60,0,0
11493,-100,4,1,2,100,0,0
11700,-100,4,1,1,60,0,0
13148,-100,4,1,2,100,0,0
13355,-100,4,1,1,60,0,0
14906,-71.4285714285714,4,1,1,80,0,0
15320,-71.4285714285714,4,1,1,80,0,0
51320,-100,4,2,1,100,0,0
53079,-100,4,1,1,100,0,0
53803,-100,4,3,0,100,0,0
54631,-71.4285714285714,4,1,3,100,0,1
61251,-71.4285714285714,4,1,3,100,0,1
67044,-71.4285714285714,4,3,0,100,0,1
67975,-71.4285714285714,4,1,3,100,0,1
79251,-100,4,1,1,100,0,0
80286,-100,4,3,0,100,0,0
80803,-100,4,1,1,100,0,0
81113,-100,4,2,1,100,0,0
94355,-71.4285714285714,4,1,1,100,0,0
130769,-100,4,2,1,100,0,0
133251,-100,4,3,0,100,0,0
134079,-71.4285714285714,4,1,3,100,0,1
146493,-71.4285714285714,4,3,0,100,0,1
147320,-71.4285714285714,4,1,3,100,0,1
158700,-100,4,1,1,100,0,0
159734,-100,4,3,0,100,0,0
160251,-100,4,1,1,100,0,0
160562,-100,4,1,1,100,0,0

[Colours]
Combo1 : 0,111,0
Combo2 : 128,0,0
Combo3 : 255,0,0
Combo4 : 255,128,0
Combo5 : 255,255,128
Combo6 : 175,214,41
Combo7 : 47,189,54

[HitObjects]
144,88,1665,85,4,0:0:0:0:
384,88,2286,21,0,0:0:0:0:
420,160,2493,2,0,P|460:196|468:228,1,80
388,232,2906,1,0,0:0:0:0:
336,292,3113,1,0,0:0:0:0:
260,312,3320,1,0,0:0:0:0:
52,96,3941,6,0,L|84:132,1,40
100,160,4148,2,0,P|60:196|52:228,1,80
132,232,4561,1,0,0:0:0:0:
184,292,4768,1,0,0:0:0:0:
260,312,4975,1,0,0:0:0:0:
256,32,5803,6,0,P|312:48|336:48,1,80
392,104,6217,1,0,0:0:0:0:
336,160,6424,2,0,P|312:160|256:176,1,80
192,216,6837,1,0,0:0:0:0:
160,240,6941,1,0,0:0:0:0:
136,272,7044,1,0,0:0:0:0:
376,256,7665,5,0,0:0:0:0:
328,320,7872,1,0,0:0:0:0:
248,344,8079,1,0,0:0:0:0:
168,328,8286,1,0,0:0:0:0:
56,208,8700,53,2,0:0:0:0:
96,136,8906,1,0,0:0:0:0:
152,80,9113,2,0,P|192:56|232:48,1,80,8|0,0:0|0:0,0:0:0:0:
304,48,9527,2,0,P|344:56|376:80,1,80,2|0,0:0|0:0,0:0:0:0:
424,144,9941,1,0,0:0:0:0:
400,304,10355,5,2,0:0:0:0:
320,328,10562,1,0,0:0:0:0:
240,336,10769,2,0,B|176:336|176:336|144:320,1,80,8|0,0:0|0:0,0:0:0:0:
168,248,11182,2,0,B|104:248|104:248|72:264,2,80,2|0|0,0:0|0:0|0:0,0:0:0:0:
160,88,12010,5,2,0:0:0:0:
216,144,12217,1,0,0:0:0:0:
272,200,12424,2,0,L|336:256,2,80,8|0|2,0:0|0:0|0:0,0:0:0:0:
296,128,13044,1,0,0:0:0:0:
328,56,13251,2,0,L|392:112,2,80,0|0|2,0:0|0:0|0:0,0:0:0:0:
264,0,13872,1,0,0:0:0:0:
200,48,14079,5,8,0:0:0:0:
176,80,14182,1,2,0:0:0:0:
152,112,14285,1,0,0:0:0:0:
131,145,14389,1,2,0:0:0:0:
115,181,14492,1,2,0:0:0:0:
96,256,14700,1,0,0:0:0:0:
376,320,14906,21,6,0:0:0:0:
408,216,15113,21,0,0:0:0:0:
384,104,15320,2,0,B|352:48|352:48|304:32,1,111.999996582031,0|2,0:0|0:0,0:0:0:0:
192,48,15734,2,0,B|224:104|224:104|272:120,1,111.999996582031,8|0,0:0|0:0,0:0:0:0:
272,232,16148,2,0,B|216:264|216:264|200:312,1,111.999996582031,2|0,0:0|0:0,0:0:0:0:
312,328,16562,1,2,0:0:0:0:
96,328,16769,5,0,0:0:0:0:
56,224,16975,1,2,0:0:0:0:
88,112,17182,1,2,0:0:0:0:
168,32,17389,2,0,P|224:16|288:40,1,111.999996582031,8|0,0:0|0:0,0:0:0:0:
368,96,17803,1,2,0:0:0:0:
432,184,18010,1,0,0:0:0:0:
320,184,18217,1,2,0:0:0:0:
208,192,18424,5,0,0:0:0:0:
176,88,18631,1,0,0:0:0:0:
72,120,18837,1,2,0:0:0:0:
112,224,19044,1,8,0:0:0:0:
290,346,19251,2,0,P|236:337|192:304,1,111.999996582031,0|2,0:0|0:0,0:0:0:0:
392,288,19665,2,0,L|424:344,2,55.9999982910157,0|0|2,0:0|0:0|0:0,0:0:0:0:
384,176,20079,6,0,P|360:96|336:64,1,111.999996582031,0|2,0:0|0:0,0:0:0:0:
232,48,20493,2,0,L|120:72,1,111.999996582031,2|8,0:0|0:0,0:0:0:0:
88,176,20906,2,0,B|104:240|88:272|88:272|120:288,1,111.999996582031,0|2,0:0|0:0,0:0:0:0:
208,304,21320,1,0,0:0:0:0:
320,320,21527,1,2,0:0:0:0:
344,208,21734,53,0,0:0:0:0:
448,176,21941,1,2,0:0:0:0:
448,64,22148,1,2,0:0:0:0:
336,64,22355,2,0,P|288:120|240:136,1,111.999996582031,8|0,0:0|0:0,0:0:0:0:
136,128,22769,2,0,P|184:72|232:56,2,111.999996582031,2|0|2,0:0|0:0|0:0,0:0:0:0:
104,232,23389,5,0,0:0:0:0:
216,232,23596,2,0,P|256:272|320:288,1,111.999996582031,0|2,0:0|0:0,0:0:0:0:
400,216,24010,2,0,L|512:216,2,111.999996582031,8|0|2,0:0|0:0|0:0,0:0:0:0:
288,160,24631,1,0,0:0:0:0:
264,48,24837,1,2,0:0:0:0:
40,40,25251,6,0,P|64:120|56:168,1,111.999996582031,0|2,0:0|0:0,0:0:0:0:
56,256,25665,2,0,L|168:272,1,111.999996582031,8|0,0:0|0:0,0:0:0:0:
184,160,26079,2,0,P|192:120|240:56,1,111.999996582031,2|0,0:0|0:0,0:0:0:0:
336,32,26493,5,2,0:0:0:0:
390,41,26596,1,0,0:0:0:0:
434,75,26699,1,0,0:0:0:0:
458,125,26803,1,0,0:0:0:0:
456,184,26906,1,2,0:0:0:0:
352,144,27113,53,2,0:0:0:0:
352,144,27217,1,0,0:0:0:0:
352,144,27320,1,8,0:0:0:0:
352,144,27424,1,0,0:0:0:0:
352,144,27527,1,0,0:0:0:0:
352,256,27734,5,2,0:0:0:0:
296,256,27837,1,0,0:0:0:0:
240,256,27940,1,0,0:0:0:0:
184,256,28044,1,0,0:0:0:0:
128,256,28148,54,0,P|160:176|120:104,1,167.999994873047,6|2,0:0|0:0,0:0:0:0:
80,80,28562,53,8,0:0:0:0:
8,232,28769,1,2,0:0:0:0:
96,304,28975,2,0,P|168:336|224:336,1,111.999996582031,8|0,0:0|0:0,0:0:0:0:
312,328,29389,1,2,0:0:0:0:
400,256,29596,1,2,0:0:0:0:
344,256,29700,1,2,0:0:0:0:
288,240,29803,6,0,P|240:208|208:144,1,111.999996582031,2|0,0:0|0:0,0:0:0:0:
200,104,30113,1,0,0:0:0:0:
200,48,30217,1,2,0:0:0:0:
304,8,30424,1,2,0:0:0:0:
416,40,30631,2,0,B|456:72|440:128|440:128|456:152,1,111.999996582031,8|0,0:0|0:0,0:0:0:0:
344,104,31044,1,2,0:0:0:0:
344,216,31251,1,2,0:0:0:0:
296,248,31355,1,2,0:0:0:0:
248,272,31458,54,0,B|208:288|208:288|184:280|184:280|136:296,1,111.999996582031,2|0,0:0|0:0,0:0:0:0:
96,328,31769,1,0,0:0:0:0:
48,352,31872,1,8,0:0:0:0:
32,240,32079,1,2,0:0:0:0:
64,128,32286,1,0,0:0:0:0:
152,56,32493,1,0,0:0:0:0:
264,32,32700,1,2,0:0:0:0:
264,144,32906,1,0,0:0:0:0:
264,200,33010,1,2,0:0:0:0:
264,256,33113,5,2,0:0:0:0:
368,216,33320,2,0,P|440:176|464:128,2,111.999996582031,0|2|2,0:0|0:0|0:0,0:0:0:0:
352,104,33941,2,0,P|320:40|272:16,1,111.999996582031,8|0,0:0|0:0,0:0:0:0:
240,120,34355,2,0,P|192:168|136:192,1,111.999996582031,2|0,0:0|0:0,0:0:0:0:
104,208,34665,1,2,0:0:0:0:
56,232,34769,54,0,P|88:296|136:320,1,111.999996582031,6|0,0:0|0:0,0:0:0:0:
176,312,35079,53,0,0:0:0:0:
232,304,35182,1,2,0:0:0:0:
336,264,35389,2,0,P|392:248|440:200,1,111.999996582031,2|8,0:0|0:0,0:0:0:0:
336,152,35803,1,0,0:0:0:0:
264,64,36010,1,2,0:0:0:0:
160,24,36217,1,2,0:0:0:0:
112,56,36320,1,2,0:0:0:0:
72,96,36424,6,0,P|48:144|40:208,1,111.999996582031,2|0,0:0|0:0,0:0:0:0:
48,256,36734,1,0,0:0:0:0:
72,304,36837,1,2,0:0:0:0:
184,304,37044,1,2,0:0:0:0:
296,304,37251,2,0,B|336:248|312:216|312:216|344:192,1,111.999996582031,8|0,0:0|0:0,0:0:0:0:
376,104,37665,2,0,B|320:144|288:120|288:120|264:152,1,111.999996582031,2|2,0:0|0:0,0:0:0:0:
256,184,37975,53,0,0:0:0:0:
216,224,38079,2,0,P|160:232|104:208,1,111.999996582031,2|0,0:0|0:0,0:0:0:0:
88,160,38389,1,0,0:0:0:0:
120,112,38493,1,2,0:0:0:0:
208,48,38700,1,2,0:0:0:0:
320,48,38906,2,0,P|384:80|408:120,1,111.999996582031,8|0,0:0|0:0,0:0:0:0:
408,224,39320,2,0,B|408:288|408:288|360:312,1,111.999996582031,2|2,0:0|0:0,0:0:0:0:
312,328,39631,1,0,0:0:0:0:
264,352,39734,5,2,0:0:0:0:
152,344,39941,1,0,0:0:0:0:
136,288,40044,1,0,0:0:0:0:
128,232,40148,1,2,0:0:0:0:
200,144,40355,2,0,L|304:88,1,111.999996582031,2|8,0:0|0:0,0:0:0:0:
192,64,40769,2,0,L|312:0,1,111.999996582031,0|2,0:0|0:0,0:0:0:0:
400,8,41182,1,2,0:0:0:0:
408,64,41286,1,2,0:0:0:0:
432,112,41389,54,0,P|408:184|448:272,1,167.999994873047,6|0,0:0|0:0,0:0:0:0:
400,304,41803,54,0,P|344:352|304:360,1,111.999996582031
296,232,42217,1,8,0:0:0:0:
184,248,42424,1,2,0:0:0:0:
72,272,42631,2,0,P|72:208|104:160,1,111.999996582031,2|2,0:0|0:0,0:0:0:0:
144,136,42941,1,2,0:0:0:0:
192,104,43044,6,0,P|256:88|312:64,1,111.999996582031,2|0,0:0|0:0,0:0:0:0:
344,40,43355,1,2,0:0:0:0:
392,8,43458,1,2,0:0:0:0:
464,88,43665,2,0,P|448:152|456:216,1,111.999996582031,2|8,0:0|0:0,0:0:0:0:
416,304,44079,1,2,0:0:0:0:
312,336,44286,1,2,0:0:0:0:
312,224,44493,1,2,0:0:0:0:
264,200,44596,1,0,0:0:0:0:
208,200,44700,22,0,P|136:192|48:224,1,167.999994873047,6|0,0:0|0:0,0:0:0:0:
40,168,45113,22,0,P|64:96|120:64,1,111.999996582031,2|2,0:0|0:0,0:0:0:0:
200,40,45527,1,8,0:0:0:0:
312,40,45734,1,0,0:0:0:0:
416,80,45941,2,0,B|400:136|400:136|368:136|352:176,1,111.999996582031,2|0,0:0|0:0,0:0:0:0:
344,216,46251,1,2,0:0:0:0:
320,272,46355,6,0,P|272:328|168:336,1,167.999994873047,0|2,0:0|0:0,0:0:0:0:
128,320,46769,1,2,0:0:0:0:
64,232,46975,1,2,0:0:0:0:
72,120,47182,1,8,0:0:0:0:
152,40,47389,1,2,0:0:0:0:
264,64,47596,2,0,P|320:88|376:88,1,111.999996582031,2|2,0:0|0:0,0:0:0:0:
472,120,48010,54,0,P|424:168|448:272,1,167.999994873047,6|0,0:0|0:0,0:0:0:0:
400,304,48424,53,2,0:0:0:0:
296,304,48631,1,2,0:0:0:0:
184,296,48837,2,0,P|112:272|88:176,1,167.999994873047,8|0,0:0|0:0,0:0:0:0:
96,136,49252,1,2,0:0:0:0:
200,88,49459,1,2,0:0:0:0:
304,40,49665,5,2,0:0:0:0:
408,88,49872,2,0,L|480:88,2,55.9999982910157,0|0|2,0:0|0:0|0:0,0:0:0:0:
336,176,50286,2,0,L|272:176,2,55.9999982910157,2|0|8,0:0|0:0|0:0,0:0:0:0:
408,264,50700,1,0,0:0:0:0:
408,264,50906,1,2,0:0:0:0:
312,320,51113,1,0,0:0:0:0:
232,320,51320,21,8,0:0:0:0:
197,300,51423,21,8,0:0:0:0:
166,275,51526,69,8,0:0:0:0:
139,245,51630,37,8,0:0:0:0:
117,211,51733,53,8,0:0:0:0:
101,175,51837,53,8,0:0:0:0:
91,136,51940,37,8,0:0:0:0:
87,96,52044,69,8,0:0:0:0:
200,32,52148,21,8,0:0:0:0:
234,51,52251,21,8,0:0:0:0:
265,76,52354,69,8,0:0:0:0:
292,106,52458,37,8,0:0:0:0:
314,140,52561,53,8,0:0:0:0:
330,176,52665,53,8,0:0:0:0:
340,215,52768,37,8,0:0:0:0:
344,255,52872,69,8,0:0:0:0:
456,288,52975,21,10,0:0:0:0:
64,48,53803,21,4,0:0:0:0:
64,48,53906,1,4,0:0:0:0:
96,120,54113,1,4,0:0:0:0:
96,120,54217,1,4,0:0:0:0:
176,128,54424,1,4,0:0:0:0:
216,128,54527,1,4,0:0:0:0:
272,128,54631,54,0,P|400:152|432:232,1,223.999993164063,4|0,0:0|0:0,0:0:0:0:
320,224,55251,1,0,0:0:0:0:
360,328,55458,2,0,P|232:304|200:224,1,223.999993164063,8|0,0:0|0:0,0:0:0:0:
152,128,56079,1,0,0:0:0:0:
200,48,56286,2,0,P|248:104|288:104,1,111.999996582031,4|0,0:0|0:0,0:0:0:0:
352,16,56700,2,0,P|392:16|432:72,1,111.999996582031,4|0,0:0|0:0,0:0:0:0:
368,160,57113,1,8,0:0:0:0:
368,160,57217,1,0,0:0:0:0:
272,216,57424,1,0,0:0:0:0:
272,216,57527,1,0,0:0:0:0:
160,216,57734,2,0,L|88:216,2,55.9999982910157,0|0|4,0:0|0:0|0:0,0:0:0:0:
272,48,58355,5,0,0:0:0:0:
376,88,58562,1,0,0:0:0:0:
432,184,58769,1,8,0:0:0:0:
432,184,59182,1,0,0:0:0:0:
376,280,59389,1,0,0:0:0:0:
272,320,59596,1,4,0:0:0:0:
48,320,60010,5,0,0:0:0:0:
104,224,60217,1,0,0:0:0:0:
208,184,60424,1,8,0:0:0:0:
184,232,60527,1,0,0:0:0:0:
160,280,60631,1,0,0:0:0:0:
264,248,60837,1,0,0:0:0:0:
290,198,60940,1,0,0:0:0:0:
317,149,61043,1,0,0:0:0:0:
343,100,61147,1,0,0:0:0:0:
370,50,61250,1,4,0:0:0:0:
200,64,61562,69,0,0:0:0:0:
200,64,61665,2,0,P|152:88|136:152,1,111.999996582031
136,256,62079,1,8,0:0:0:0:
280,336,62389,1,0,0:0:0:0:
280,336,62492,2,0,P|328:312|344:248,1,111.999996582031
344,144,62906,1,4,0:0:0:0:
472,40,63217,5,0,0:0:0:0:
472,40,63320,2,0,B|400:40|392:72|392:72|336:56,1,111.999996582031
264,80,63734,2,0,L|224:32,2,55.9999982910157,8|0|0,0:0|0:0|0:0,0:0:0:0:
296,128,64044,1,0,0:0:0:0:
328,176,64148,2,0,L|392:176,2,55.9999982910157
272,184,64458,1,0,0:0:0:0:
224,208,64562,1,4,0:0:0:0:
32,320,64975,6,0,P|16:248|24:192,1,111.999996582031
72,112,65389,2,0,B|104:96|128:104|128:104|152:120|184:104,1,111.999996582031,8|0,0:0|0:0,0:0:0:0:
176,216,65803,2,0,P|248:232|304:224,1,111.999996582031
384,176,66217,70,0,B|400:144|392:120|392:120|376:96|392:64,1,111.999996582031,4|0,0:0|0:0,0:0:0:0:
280,32,66631,2,0,L|280:144,1,111.999996582031
200,216,67044,1,4,0:0:0:0:
200,216,67148,1,4,0:0:0:0:
136,296,67355,1,4,0:0:0:0:
136,296,67458,1,4,0:0:0:0:
248,296,67665,1,4,0:0:0:0:
304,296,67769,1,4,0:0:0:0:
360,296,67872,1,4,0:0:0:0:
424,80,68286,5,0,0:0:0:0:
368,72,68389,1,0,0:0:0:0:
312,88,68493,1,0,0:0:0:0:
272,120,68596,1,0,0:0:0:0:
248,168,68700,1,8,0:0:0:0:
136,168,68906,2,0,L|136:48,1,111.999996582031
32,8,69320,2,0,L|32:136,1,111.999996582031,0|4,0:0|0:0,0:0:0:0:
168,296,69941,85,0,0:0:0:0:
280,288,70148,1,0,0:0:0:0:
360,208,70355,1,8,0:0:0:0:
384,96,70562,2,0,P|440:72|472:72,2,55.9999982910157
280,128,70975,2,0,P|224:144|160:144,1,111.999996582031,0|4,0:0|0:0,0:0:0:0:
32,320,71596,6,0,L|112:320,1,55.9999982910157
144,320,71803,2,0,L|208:320,1,55.9999982910157
256,320,72010,1,8,0:0:0:0:
328,232,72217,2,0,L|464:232,1,111.999996582031
256,144,72631,2,0,L|200:144,2,55.9999982910157,0|0|4,0:0|0:0|0:0,0:0:0:0:
56,40,73251,6,0,L|144:128,1,111.999996582031
208,200,73665,2,0,B|200:240|240:264|240:264|240:304,1,111.999996582031,8|0,0:0|0:0,0:0:0:0:
272,344,73975,1,0,0:0:0:0:
312,304,74079,2,0,B|312:264|312:264|344:240|336:192,1,111.999996582031
344,88,74493,1,4,0:0:0:0:
128,32,74906,70,0,L|248:32,1,111.999996582031
296,32,75217,1,0,0:0:0:0:
352,32,75320,1,8,0:0:0:0:
440,104,75527,1,0,0:0:0:0:
392,208,75734,1,0,0:0:0:0:
272,208,75941,1,0,0:0:0:0:
200,296,76148,6,0,P|152:304|88:280,1,111.999996582031,4|0,0:0|0:0,0:0:0:0:
160,192,76562,1,0,0:0:0:0:
112,88,76769,2,0,P|168:72|224:96,1,111.999996582031,0|8,0:0|0:0,0:0:0:0:
328,88,77182,1,0,0:0:0:0:
328,88,77286,1,0,0:0:0:0:
328,88,77389,1,0,0:0:0:0:
424,40,77596,2,0,P|440:96|416:152,1,111.999996582031,0|4,0:0|0:0,0:0:0:0:
256,296,78217,5,0,0:0:0:0:
256,184,78424,1,0,0:0:0:0:
256,184,78527,1,0,0:0:0:0:
256,184,78631,1,8,0:0:0:0:
184,104,78837,1,0,0:0:0:0:
80,72,79044,1,0,0:0:0:0:
72,184,79251,2,0,P|72:232|96:264,1,80,0|2,0:0|0:0,0:0:0:0:
160,296,79665,69,0,0:0:0:0:
240,304,79872,1,2,0:0:0:0:
312,272,80079,1,2,0:0:0:0:
352,200,80286,1,4,0:0:0:0:
344,120,80493,1,4,0:0:0:0:
344,120,80596,1,4,0:0:0:0:
344,120,80700,1,4,0:0:0:0:
296,56,80906,2,0,P|264:40|200:24,1,80,2|8,0:0|0:0,0:0:0:0:
136,48,94355,5,6,0:0:0:0:
104,152,94562,21,0,0:0:0:0:
128,256,94769,2,0,B|160:320|160:320|208:336,1,111.999996582031,0|2,0:0|0:0,0:0:0:0:
320,320,95183,2,0,B|288:264|288:264|240:248,1,111.999996582031,8|0,0:0|0:0,0:0:0:0:
240,136,95597,2,0,B|296:104|296:104|312:56,1,111.999996582031,2|0,0:0|0:0,0:0:0:0:
200,40,96011,1,2,0:0:0:0:
416,40,96218,5,0,0:0:0:0:
456,144,96424,1,2,0:0:0:0:
424,256,96631,1,2,0:0:0:0:
344,336,96838,2,0,P|288:352|224:328,1,111.999996582031,8|0,0:0|0:0,0:0:0:0:
144,272,97252,1,2,0:0:0:0:
80,184,97459,1,0,0:0:0:0:
192,184,97666,1,2,0:0:0:0:
304,176,97873,5,0,0:0:0:0:
336,280,98080,1,0,0:0:0:0:
440,248,98286,1,2,0:0:0:0:
400,144,98493,1,8,0:0:0:0:
221,21,98700,2,0,P|275:29|319:63,1,111.999996582031,0|2,0:0|0:0,0:0:0:0:
120,80,99114,2,0,L|88:24,2,55.9999982910157,0|0|2,0:0|0:0|0:0,0:0:0:0:
128,192,99528,6,0,P|152:272|176:304,1,111.999996582031,0|2,0:0|0:0,0:0:0:0:
280,320,99942,2,0,L|392:296,1,111.999996582031,2|8,0:0|0:0,0:0:0:0:
424,192,100355,2,0,B|408:128|424:96|424:96|392:80,1,111.999996582031,0|2,0:0|0:0,0:0:0:0:
304,64,100769,1,0,0:0:0:0:
192,48,100976,1,2,0:0:0:0:
168,160,101183,53,0,0:0:0:0:
64,192,101390,1,2,0:0:0:0:
64,304,101597,1,2,0:0:0:0:
176,304,101804,2,0,P|224:248|272:232,1,111.999996582031,8|0,0:0|0:0,0:0:0:0:
376,240,102218,2,0,P|328:296|280:312,2,111.999996582031,2|0|2,0:0|0:0|0:0,0:0:0:0:
408,136,102838,5,0,0:0:0:0:
296,136,103045,2,0,P|256:96|192:80,1,111.999996582031,0|2,0:0|0:0,0:0:0:0:
112,152,103459,2,0,L|0:152,2,111.999996582031,8|0|2,0:0|0:0|0:0,0:0:0:0:
224,208,104080,1,0,0:0:0:0:
248,320,104286,1,2,0:0:0:0:
472,328,104700,6,0,P|448:248|456:200,1,111.999996582031,0|2,0:0|0:0,0:0:0:0:
456,112,105114,2,0,L|344:96,1,111.999996582031,8|0,0:0|0:0,0:0:0:0:
328,208,105528,2,0,P|320:248|272:312,1,111.999996582031,2|0,0:0|0:0,0:0:0:0:
176,336,105942,5,2,0:0:0:0:
122,327,106045,1,0,0:0:0:0:
78,293,106148,1,0,0:0:0:0:
54,243,106252,1,0,0:0:0:0:
56,184,106355,1,2,0:0:0:0:
160,224,106562,53,2,0:0:0:0:
160,224,106666,1,0,0:0:0:0:
160,224,106769,1,8,0:0:0:0:
160,224,106873,1,0,0:0:0:0:
160,224,106976,1,0,0:0:0:0:
160,112,107183,5,2,0:0:0:0:
216,112,107286,1,0,0:0:0:0:
272,112,107389,1,0,0:0:0:0:
328,112,107493,1,0,0:0:0:0:
384,112,107597,54,0,P|352:192|392:264,1,167.999994873047,6|2,0:0|0:0,0:0:0:0:
432,288,108011,53,8,0:0:0:0:
504,136,108218,1,2,0:0:0:0:
416,64,108424,2,0,P|344:32|288:32,1,111.999996582031,8|0,0:0|0:0,0:0:0:0:
200,40,108838,1,2,0:0:0:0:
112,112,109045,1,2,0:0:0:0:
168,112,109149,1,2,0:0:0:0:
224,128,109252,6,0,P|272:160|304:224,1,111.999996582031,2|0,0:0|0:0,0:0:0:0:
312,264,109562,1,0,0:0:0:0:
312,320,109666,1,2,0:0:0:0:
208,360,109873,1,2,0:0:0:0:
96,328,110080,2,0,B|56:296|72:240|72:240|56:216,1,111.999996582031,8|0,0:0|0:0,0:0:0:0:
168,264,110493,1,2,0:0:0:0:
168,152,110700,1,2,0:0:0:0:
216,120,110804,1,2,0:0:0:0:
264,96,110907,54,0,B|304:80|304:80|328:88|328:88|376:72,1,111.999996582031,2|0,0:0|0:0,0:0:0:0:
416,40,111218,1,0,0:0:0:0:
464,16,111321,1,8,0:0:0:0:
480,128,111528,1,2,0:0:0:0:
448,240,111735,1,0,0:0:0:0:
360,312,111942,1,0,0:0:0:0:
248,336,112149,1,2,0:0:0:0:
248,224,112355,1,0,0:0:0:0:
248,168,112459,1,2,0:0:0:0:
248,112,112562,5,2,0:0:0:0:
144,152,112769,2,0,P|72:192|48:240,2,111.999996582031,0|2|2,0:0|0:0|0:0,0:0:0:0:
160,264,113390,2,0,P|192:328|240:352,1,111.999996582031,8|0,0:0|0:0,0:0:0:0:
272,248,113804,2,0,P|320:200|376:176,1,111.999996582031,2|0,0:0|0:0,0:0:0:0:
408,160,114114,1,2,0:0:0:0:
456,136,114218,54,0,P|424:72|376:48,1,111.999996582031,6|0,0:0|0:0,0:0:0:0:
336,56,114528,53,0,0:0:0:0:
280,64,114631,1,2,0:0:0:0:
176,104,114838,2,0,P|120:120|72:168,1,111.999996582031,2|8,0:0|0:0,0:0:0:0:
176,216,115252,1,0,0:0:0:0:
248,304,115459,1,2,0:0:0:0:
352,344,115666,1,2,0:0:0:0:
400,312,115769,1,2,0:0:0:0:
440,272,115873,6,0,P|464:224|472:160,1,111.999996582031,2|0,0:0|0:0,0:0:0:0:
464,112,116183,1,0,0:0:0:0:
440,64,116286,1,2,0:0:0:0:
328,64,116493,1,2,0:0:0:0:
216,64,116700,2,0,B|176:120|200:152|200:152|168:176,1,111.999996582031,8|0,0:0|0:0,0:0:0:0:
136,264,117114,2,0,B|192:224|224:248|224:248|248:216,1,111.999996582031,2|2,0:0|0:0,0:0:0:0:
256,184,117424,53,0,0:0:0:0:
296,144,117528,2,0,P|352:136|408:160,1,111.999996582031,2|0,0:0|0:0,0:0:0:0:
424,208,117838,1,0,0:0:0:0:
392,256,117942,1,2,0:0:0:0:
304,320,118149,1,2,0:0:0:0:
192,320,118355,2,0,P|128:288|104:248,1,111.999996582031,8|0,0:0|0:0,0:0:0:0:
104,144,118769,2,0,B|104:80|104:80|152:56,1,111.999996582031,2|2,0:0|0:0,0:0:0:0:
200,40,119080,1,0,0:0:0:0:
248,16,119183,5,2,0:0:0:0:
360,24,119390,1,0,0:0:0:0:
376,80,119493,1,0,0:0:0:0:
384,136,119597,1,2,0:0:0:0:
312,224,119804,2,0,L|208:280,1,111.999996582031,2|8,0:0|0:0,0:0:0:0:
320,304,120218,2,0,L|200:368,1,111.999996582031,0|2,0:0|0:0,0:0:0:0:
112,360,120631,1,2,0:0:0:0:
104,304,120735,1,2,0:0:0:0:
72,256,120837,54,0,P|96:176|64:96,1,167.999994873047,6|0,0:0|0:0,0:0:0:0:
112,64,121252,54,0,P|176:24|216:16,1,111.999996582031
216,136,121666,1,8,0:0:0:0:
328,120,121873,1,2,0:0:0:0:
440,96,122080,2,0,P|440:160|408:208,1,111.999996582031,2|2,0:0|0:0,0:0:0:0:
368,232,122390,1,2,0:0:0:0:
320,264,122493,6,0,P|256:280|200:304,1,111.999996582031,2|0,0:0|0:0,0:0:0:0:
168,328,122804,1,2,0:0:0:0:
120,360,122907,1,2,0:0:0:0:
48,280,123114,2,0,P|64:216|56:152,1,111.999996582031,2|8,0:0|0:0,0:0:0:0:
96,64,123528,1,2,0:0:0:0:
200,32,123735,1,2,0:0:0:0:
200,144,123942,1,2,0:0:0:0:
248,168,124045,1,0,0:0:0:0:
304,168,124148,22,0,P|368:176|464:144,1,167.999994873047,6|0,0:0|0:0,0:0:0:0:
472,200,124562,22,0,P|448:272|392:304,1,111.999996582031,2|2,0:0|0:0,0:0:0:0:
312,328,124976,1,8,0:0:0:0:
200,328,125183,1,0,0:0:0:0:
96,288,125390,2,0,B|112:232|112:232|144:232|160:192,1,111.999996582031,2|0,0:0|0:0,0:0:0:0:
168,152,125700,1,2,0:0:0:0:
192,96,125804,6,0,P|240:40|344:32,1,167.999994873047,0|2,0:0|0:0,0:0:0:0:
384,48,126218,1,2,0:0:0:0:
448,136,126424,1,2,0:0:0:0:
440,248,126631,1,8,0:0:0:0:
360,328,126838,1,2,0:0:0:0:
248,304,127045,2,0,P|192:280|136:280,1,111.999996582031,2|2,0:0|0:0,0:0:0:0:
40,240,127458,54,0,P|80:208|64:104,1,167.999994873047,6|0,0:0|0:0,0:0:0:0:
112,72,127873,53,2,0:0:0:0:
224,64,128080,1,2,0:0:0:0:
336,72,128286,2,0,P|408:96|432:192,1,167.999994873047,8|0,0:0|0:0,0:0:0:0:
416,232,128701,1,2,0:0:0:0:
312,280,128908,1,2,0:0:0:0:
208,328,129114,5,2,0:0:0:0:
104,280,129321,2,0,L|32:280,2,55.9999982910157,0|0|2,0:0|0:0|0:0,0:0:0:0:
176,192,129735,2,0,L|240:192,2,55.9999982910157,2|0|8,0:0|0:0|0:0,0:0:0:0:
104,104,130149,1,0,0:0:0:0:
104,104,130355,1,2,0:0:0:0:
200,48,130562,1,0,0:0:0:0:
280,48,130769,21,8,0:0:0:0:
315,68,130872,21,8,0:0:0:0:
346,93,130975,69,8,0:0:0:0:
373,123,131079,37,8,0:0:0:0:
395,157,131182,53,8,0:0:0:0:
411,193,131286,53,8,0:0:0:0:
421,232,131389,37,8,0:0:0:0:
425,272,131493,69,8,0:0:0:0:
312,336,131597,21,8,0:0:0:0:
278,317,131700,21,8,0:0:0:0:
247,292,131803,69,8,0:0:0:0:
220,262,131907,37,8,0:0:0:0:
198,228,132010,53,8,0:0:0:0:
182,192,132114,53,8,0:0:0:0:
172,153,132217,37,8,0:0:0:0:
168,113,132321,69,8,0:0:0:0:
56,80,132424,21,10,0:0:0:0:
448,320,133252,21,4,0:0:0:0:
448,320,133355,1,4,0:0:0:0:
416,248,133562,1,4,0:0:0:0:
416,248,133666,1,4,0:0:0:0:
336,240,133873,1,4,0:0:0:0:
296,240,133976,1,4,0:0:0:0:
240,240,134080,54,0,P|112:216|80:136,1,223.999993164063,4|0,0:0|0:0,0:0:0:0:
192,144,134700,1,0,0:0:0:0:
152,40,134907,2,0,P|280:64|312:144,1,223.999993164063,8|0,0:0|0:0,0:0:0:0:
368,240,135527,1,0,0:0:0:0:
312,320,135735,2,0,P|264:264|224:264,1,111.999996582031,4|0,0:0|0:0,0:0:0:0:
160,352,136149,2,0,P|120:352|80:296,1,111.999996582031,4|0,0:0|0:0,0:0:0:0:
136,200,136562,1,8,0:0:0:0:
136,200,136665,1,0,0:0:0:0:
240,152,136872,1,0,0:0:0:0:
240,152,136975,1,0,0:0:0:0:
352,152,137183,2,0,L|424:152,2,55.9999982910157,0|0|4,0:0|0:0|0:0,0:0:0:0:
240,320,137804,5,0,0:0:0:0:
136,280,138011,1,0,0:0:0:0:
80,184,138218,1,8,0:0:0:0:
80,184,138631,1,0,0:0:0:0:
136,88,138838,1,0,0:0:0:0:
240,48,139045,1,4,0:0:0:0:
464,48,139459,5,0,0:0:0:0:
408,144,139666,1,0,0:0:0:0:
304,184,139873,1,8,0:0:0:0:
328,136,139976,1,0,0:0:0:0:
352,88,140080,1,0,0:0:0:0:
248,120,140286,1,0,0:0:0:0:
222,170,140389,1,0,0:0:0:0:
195,219,140492,1,0,0:0:0:0:
169,268,140596,1,0,0:0:0:0:
142,318,140699,1,4,0:0:0:0:
312,304,141011,69,0,0:0:0:0:
312,304,141114,2,0,P|360:280|376:216,1,111.999996582031
376,112,141528,1,8,0:0:0:0:
232,32,141838,1,0,0:0:0:0:
232,32,141941,2,0,P|184:56|168:120,1,111.999996582031
168,224,142355,1,4,0:0:0:0:
40,328,142666,5,0,0:0:0:0:
40,328,142769,2,0,B|112:328|120:296|120:296|176:312,1,111.999996582031
248,288,143183,2,0,L|288:336,2,55.9999982910157,8|0|0,0:0|0:0|0:0,0:0:0:0:
216,240,143493,1,0,0:0:0:0:
184,192,143597,2,0,L|120:192,2,55.9999982910157
240,184,143907,1,0,0:0:0:0:
288,160,144011,1,4,0:0:0:0:
480,48,144424,6,0,P|496:120|488:176,1,111.999996582031
440,256,144838,2,0,B|408:272|384:264|384:264|360:248|328:264,1,111.999996582031,8|0,0:0|0:0,0:0:0:0:
336,152,145252,2,0,P|264:136|208:144,1,111.999996582031
128,192,145666,70,0,B|112:224|120:248|120:248|136:272|120:304,1,111.999996582031,4|0,0:0|0:0,0:0:0:0:
232,336,146080,2,0,L|232:224,1,111.999996582031
312,152,146493,1,4,0:0:0:0:
312,152,146597,1,4,0:0:0:0:
376,72,146804,1,4,0:0:0:0:
376,72,146907,1,4,0:0:0:0:
264,72,147114,1,4,0:0:0:0:
208,72,147218,1,4,0:0:0:0:
152,72,147321,1,4,0:0:0:0:
88,288,147735,5,0,0:0:0:0:
144,296,147838,1,0,0:0:0:0:
200,280,147942,1,0,0:0:0:0:
240,248,148045,1,0,0:0:0:0:
264,200,148149,1,8,0:0:0:0:
376,200,148355,2,0,L|376:320,1,111.999996582031
480,360,148769,2,0,L|480:232,1,111.999996582031,0|4,0:0|0:0,0:0:0:0:
344,72,149390,85,0,0:0:0:0:
232,80,149597,1,0,0:0:0:0:
152,160,149804,1,8,0:0:0:0:
128,272,150011,2,0,P|72:296|40:296,2,55.9999982910157
232,240,150424,2,0,P|288:224|352:224,1,111.999996582031,0|4,0:0|0:0,0:0:0:0:
480,48,151045,6,0,L|400:48,1,55.9999982910157
368,48,151252,2,0,L|304:48,1,55.9999982910157
256,48,151459,1,8,0:0:0:0:
184,136,151665,2,0,L|72:136,1,111.999996582031
256,224,152080,2,0,L|312:224,2,55.9999982910157,0|0|4,0:0|0:0|0:0,0:0:0:0:
456,328,152700,6,0,L|368:240,1,111.999996582031
304,168,153114,2,0,B|312:128|272:104|272:104|272:64,1,111.999996582031,8|0,0:0|0:0,0:0:0:0:
240,24,153424,1,0,0:0:0:0:
200,64,153528,2,0,B|200:104|200:104|168:128|176:176,1,111.999996582031
168,280,153942,1,4,0:0:0:0:
384,336,154355,70,0,L|264:336,1,111.999996582031
216,336,154666,1,0,0:0:0:0:
160,336,154769,1,8,0:0:0:0:
72,264,154976,1,0,0:0:0:0:
120,160,155183,1,0,0:0:0:0:
240,160,155390,1,0,0:0:0:0:
312,72,155597,6,0,P|360:64|424:88,1,111.999996582031,4|0,0:0|0:0,0:0:0:0:
352,176,156011,1,0,0:0:0:0:
400,280,156218,2,0,P|344:296|288:272,1,111.999996582031,0|8,0:0|0:0,0:0:0:0:
184,280,156631,1,0,0:0:0:0:
184,280,156735,1,0,0:0:0:0:
184,280,156838,1,0,0:0:0:0:
88,328,157045,2,0,P|72:272|96:216,1,111.999996582031,0|4,0:0|0:0,0:0:0:0:
256,72,157666,5,0,0:0:0:0:
256,184,157873,1,0,0:0:0:0:
256,184,157976,1,0,0:0:0:0:
256,184,158080,1,8,0:0:0:0:
328,264,158286,1,0,0:0:0:0:
432,296,158493,1,0,0:0:0:0:
440,184,158700,2,0,P|440:136|416:104,1,80,0|2,0:0|0:0,0:0:0:0:
352,72,159114,69,0,0:0:0:0:
272,64,159321,1,2,0:0:0:0:
200,96,159528,1,2,0:0:0:0:
160,168,159735,1,4,0:0:0:0:
168,248,159942,1,4,0:0:0:0:
168,248,160045,1,4,0:0:0:0:
168,248,160149,1,4,0:0:0:0:
216,312,160355,2,0,P|248:328|312:344,1,80,2|8,0:0|0:0,0:0:0:0:
384,88,161182,37,0,0:0:0:0:
420,160,161389,2,0,P|460:196|468:228,1,80
388,232,161802,1,0,0:0:0:0:
336,292,162009,1,0,0:0:0:0:
260,312,162216,1,0,0:0:0:0:
52,96,162837,6,0,L|84:132,1,40
100,160,163044,2,0,P|60:196|52:228,1,80
132,232,163457,1,0,0:0:0:0:
184,292,163664,1,0,0:0:0:0:
260,312,163871,1,0,0:0:0:0:
256,32,164699,6,0,P|312:48|336:48,1,80
392,104,165113,1,0,0:0:0:0:
336,160,165320,2,0,P|312:160|256:176,1,80
192,216,165733,1,0,0:0:0:0:
160,240,165837,1,0,0:0:0:0:
136,272,165940,1,0,0:0:0:0:
376,256,166561,5,0,0:0:0:0:
328,320,166768,1,0,0:0:0:0:
248,344,166975,1,0,0:0:0:0:
168,328,167182,1,0,0:0:0:0:
56,208,167596,53,2,0:0:0:0:
96,136,167802,1,0,0:0:0:0:
152,80,168009,2,0,P|192:56|232:48,1,80,8|0,0:0|0:0,0:0:0:0:
304,48,168423,2,0,P|344:56|376:80,1,80,2|0,0:0|0:0,0:0:0:0:
424,144,168837,1,0,0:0:0:0:
400,304,169251,5,2,0:0:0:0:
320,328,169458,1,0,0:0:0:0:
240,336,169665,2,0,B|176:336|176:336|144:320,1,80,8|0,0:0|0:0,0:0:0:0:
168,248,170078,2,0,B|104:248|104:248|72:264,2,80,2|0|0,0:0|0:0|0:0,0:0:0:0:
160,88,170906,5,2,0:0:0:0:
216,144,171113,1,0,0:0:0:0:
272,200,171320,2,0,L|336:256,2,80,8|0|2,0:0|0:0|0:0,0:0:0:0:
296,128,171940,1,0,0:0:0:0:
328,56,172147,2,0,L|392:112,2,80,0|0|2,0:0|0:0|0:0,0:0:0:0:
264,0,172768,1,0,0:0:0:0:
200,48,172975,5,8,0:0:0:0:
176,80,173078,1,2,0:0:0:0:
152,112,173181,1,0,0:0:0:0:
131,145,173285,1,2,0:0:0:0:
115,181,173388,1,2,0:0:0:0:
96,256,173596,1,0,0:0:0:0:
152,312,173803,1,4,0:0:0:0:
