osu file format v14

[General]
AudioFilename: audio.mp3
AudioLeadIn: 0
PreviewTime: 54631
Countdown: 1
SampleSet: Soft
StackLeniency: 0.7
Mode: 0
LetterboxInBreaks: 0
WidescreenStoryboard: 1

[Editor]
DistanceSpacing: 1
BeatDivisor: 4
GridSize: 4
TimelineZoom: 1.4

[Metadata]
Title:Fools Paradise (feat. Rochelle)
TitleUnicode:Fools Paradise (feat. Rochelle)
Artist:DIrtcaps (feat. Rochelle)
ArtistUnicode:DIrtcaps (feat. Rochelle)
Creator:elena2705
Version:Hard
Source:
Tags:
BeatmapID:1286110
BeatmapSetID:608986

[Difficulty]
HPDrainRate:5
CircleSize:4
OverallDifficulty:5
ApproachRate:5
SliderMultiplier:1.6
SliderTickRate:1

[Events]
//Background and Video events
0,0,"3w61.png",0,0
//Break Periods
2,81313,93155
//Storyboard Layer 0 (Background)
//Storyboard Layer 1 (Fail)
//Storyboard Layer 2 (Pass)
//Storyboard Layer 3 (Foreground)
//Storyboard Sound Samples

[TimingPoints]
1665.56819348288,413.793103448276,4,1,2,100,1,0
1769,-100,4,1,1,60,0,0
3217,-100,4,1,2,100,0,0
3424,-100,4,1,1,60,0,0
4872,-100,4,1,2,100,0,0
5079,-100,4,1,1,60,0,0
6527,-100,4,1,2,100,0,0
6734,-100,4,1,1,60,0,0
8182,-100,4,1,2,100,0,0
8389,-100,4,1,1,60,0,0
9837,-100,4,1,2,100,0,0
10044,-100,4,1,1,60,0,0
11493,-100,4,1,2,100,0,0
11700,-100,4,1,1,60,0,0
13148,-100,4,1,2,100,0,0
13355,-100,4,1,1,60,0,0
14906,-100,4,1,1,80,0,0
51320,-100,4,2,1,100,0,0
53079,-100,4,1,1,100,0,0
53803,-100,4,3,0,100,0,0
54631,-66.6666666666667,4,1,3,100,0,1
60941,-66.6666666666667,4,2,0,5,0,1
61251,-66.6666666666667,4,1,1,100,0,1
67044,-66.6666666666667,4,3,0,100,0,1
67975,-66.6666666666667,4,1,1,100,0,1
79251,-100,4,1,1,100,0,0
80286,-100,4,3,0,100,0,0
80803,-100,4,1,1,100,0,0
81113,-100,4,2,1,100,0,0
94355,-100,4,1,1,100,0,0
130769,-100,4,2,1,100,0,0
132527,-100,4,1,1,100,0,0
133251,-100,4,3,0,100,0,0
134079,-66.6666666666667,4,1,1,100,0,1
146493,-66.6666666666667,4,3,0,100,0,1
147320,-66.6666666666667,4,1,1,100,0,1
158700,-100,4,1,1,100,0,0
159734,-100,4,3,0,100,0,0
160251,-100,4,1,1,100,0,0
160562,-100,4,2,1,100,0,0
160665,-100,4,1,1,100,0,0

[Colours]
Combo1 : 0,111,0
Combo2 : 128,0,0
Combo3 : 255,0,0
Combo4 : 255,128,0
Combo5 : 255,255,128
Combo6 : 175,214,41
Combo7 : 47,189,54

[HitObjects]
192,64,1665,85,4,0:0:0:0:
80,272,2286,37,0,0:0:0:0:
160,288,2493,2,0,P|188:320|224:328,1,80
232,248,2906,2,0,P|312:216|384:232,1,160
264,88,3941,1,0,0:0:0:0:
264,88,4148,2,0,P|236:56|200:48,1,80
192,128,4561,2,0,P|112:160|40:144,1,160
328,292,5803,6,0,P|372:272|404:272,1,80
452,208,6217,1,0,0:0:0:0:
452,128,6424,1,0,0:0:0:0:
412,56,6631,2,0,P|376:56|336:32,1,80
264,4,7044,2,0,P|192:-20|112:4,1,160
132,80,7665,2,2,P|84:84|56:64,2,80,0|0|0,0:0|0:0|0:0,0:0:0:0:
212,84,8286,1,0,0:0:0:0:
332,188,8700,5,2,0:0:0:0:
256,216,8906,2,0,B|216:236|216:236|200:276,1,80,0|8,0:0|0:0,0:0:0:0:
168,340,9320,1,0,0:0:0:0:
100,296,9527,2,0,B|124:236|124:236|116:204|116:204|140:132,1,160,2|0,0:0|0:0,0:0:0:0:
268,52,10355,1,2,0:0:0:0:
348,68,10562,1,0,0:0:0:0:
404,124,10769,1,8,0:0:0:0:
424,200,10975,1,0,0:0:0:0:
436,280,11182,2,0,P|464:324|496:336,2,80
300,196,12010,53,2,0:0:0:0:
248,256,12217,1,0,0:0:0:0:
184,304,12424,2,0,P|140:324|100:312,1,80,8|0,0:0|0:0,0:0:0:0:
132,240,12837,2,0,P|108:192|112:156,1,80,2|0,0:0|0:0,0:0:0:0:
36,132,13251,2,0,B|88:56|196:112|196:112|196:112|196:112|196:112,1,160,0|2,0:0|0:0,0:0:0:0:
272,204,14079,1,8,0:0:0:0:
316,272,14286,2,2,P|344:308|384:312,2,80,0|0|0,0:0|0:0|0:0,0:0:0:0:
384,232,14906,69,6,0:0:0:0:
400,152,15113,38,0,B|408:112|408:112|452:92,1,80
396,32,15527,1,2,0:0:0:0:
316,36,15734,1,8,0:0:0:0:
256,92,15941,2,0,P|224:104|176:84,1,80,0|2,0:0|0:0,0:0:0:0:
112,52,16355,1,0,0:0:0:0:
112,52,16562,1,2,0:0:0:0:
80,128,16769,6,0,P|44:184|40:208,2,80,0|0|2,0:0|0:0|0:0,0:0:0:0:
160,128,17389,1,8,0:0:0:0:
240,136,17596,1,0,0:0:0:0:
320,136,17804,2,0,P|306:173|281:204,1,80,0|2,0:0|0:0,0:0:0:0:
284,280,18217,1,2,0:0:0:0:
360,300,18424,6,0,P|400:312|440:296,1,80
400,228,18837,2,0,L|400:148,1,80,2|8,0:0|0:0,0:0:0:0:
384,68,19251,1,0,0:0:0:0:
312,28,19458,1,2,0:0:0:0:
240,64,19665,2,0,B|224:32|224:32|176:32,2,80,8|2|0,0:0|0:0|0:0,0:0:0:0:
172,104,20286,1,0,0:0:0:0:
100,144,20493,1,2,0:0:0:0:
164,192,20700,1,8,0:0:0:0:
100,240,20906,1,0,0:0:0:0:
160,292,21113,2,0,P|248:312|320:300,1,160,2|2,0:0|0:0,0:0:0:0:
392,272,21734,53,0,0:0:0:0:
456,224,21941,2,0,B|472:176|472:176|452:136,1,80,0|2,0:0|0:0,0:0:0:0:
388,184,22355,2,0,B|372:136|372:136|392:104,1,80,8|0,0:0|0:0,0:0:0:0:
444,56,22769,1,8,0:0:0:0:
444,56,22975,1,0,0:0:0:0:
444,56,23182,1,8,0:0:0:0:
368,36,23389,6,0,L|288:36,1,80
208,40,23803,2,0,L|138:92,1,80,2|8,0:0|0:0,0:0:0:0:
84,144,24218,1,0,0:0:0:0:
64,220,24424,2,0,P|52:264|16:288,2,80,2|0|2,0:0|0:0|0:0,0:0:0:0:
185,192,25251,1,0,0:0:0:0:
240,136,25458,1,2,0:0:0:0:
300,192,25665,1,8,0:0:0:0:
244,248,25872,1,0,0:0:0:0:
256,192,26079,12,4,28148,0:0:0:0:
356,280,28562,5,8,0:0:0:0:
412,224,28769,1,2,0:0:0:0:
464,164,28975,2,0,P|444:60|380:28,1,160,8|2,0:0|0:0,0:0:0:0:
324,32,29596,1,2,0:0:0:0:
284,32,29700,1,2,0:0:0:0:
244,32,29803,2,0,B|160:32|160:32|104:88,1,160,8|8,0:0|0:0,0:0:0:0:
64,152,30424,1,2,0:0:0:0:
136,192,30631,2,0,P|216:208|280:256,1,160,8|2,0:0|0:0,0:0:0:0:
332,312,31251,2,0,L|308:344,2,40,2|2|8,0:0|0:0|0:0,0:0:0:0:
380,248,31665,5,0,0:0:0:0:
412,172,31872,1,8,0:0:0:0:
380,100,32079,1,2,0:0:0:0:
304,80,32286,2,0,P|272:40|260:0,2,80,8|0|8,0:0|0:0|0:0,0:0:0:0:
320,160,32906,1,2,0:0:0:0:
256,208,33113,1,8,0:0:0:0:
188,252,33320,2,0,B|152:252|152:252|128:260|128:260|104:260,1,80,0|8,0:0|0:0,0:0:0:0:
160,320,33734,2,0,B|200:320|200:320|216:328|216:328|244:328,1,80,2|8,0:0|0:0,0:0:0:0:
308,292,34148,2,0,P|344:312|360:352,2,80,2|8|0,0:0|0:0|0:0,0:0:0:0:
256,208,34769,21,6,0:0:0:0:
256,48,35182,22,0,P|208:44|168:56,1,80,8|2,0:0|0:0,0:0:0:0:
104,88,35596,2,0,P|124:152|96:240,1,160,8|8,0:0|0:0,0:0:0:0:
172,272,36217,1,2,0:0:0:0:
208,288,36320,1,0,0:0:0:0:
244,308,36424,2,0,B|300:296|328:340|328:340|372:292|368:252,1,160,8|8,0:0|0:0,0:0:0:0:
396,216,37044,1,2,0:0:0:0:
444,152,37251,2,8,P|476:88|412:36,1,160
340,44,37872,2,0,L|348:0,2,40,2|0|8,0:0|0:0|0:0,0:0:0:0:
312,120,38286,5,2,0:0:0:0:
284,196,38493,1,8,0:0:0:0:
216,236,38700,1,2,0:0:0:0:
136,240,38906,2,0,P|96:224|80:184,1,80,8|2,0:0|0:0,0:0:0:0:
72,112,39320,2,8,P|136:76|196:0,1,160
272,12,39941,2,0,L|320:92,1,80,2|8,0:0|0:0,0:0:0:0:
356,148,40355,1,2,0:0:0:0:
404,212,40562,2,0,L|476:248,2,80,8|2|8,0:0|0:0|0:0,0:0:0:0:
324,220,41182,1,2,0:0:0:0:
256,260,41389,53,6,0:0:0:0:
96,256,41803,53,8,0:0:0:0:
92,96,42217,1,10,0:0:0:0:
252,96,42631,1,8,0:0:0:0:
252,96,43044,2,0,P|296:56|360:64,2,120,0|0|2,0:0|0:0|0:0,0:0:0:0:
320,140,43872,2,8,P|304:188|336:300,1,160
404,324,44493,1,2,0:0:0:0:
480,296,44700,37,6,0:0:0:0:
472,176,45010,70,0,L|440:132,1,40,0|8,0:0|0:0,0:0:0:0:
400,80,45320,1,2,0:0:0:0:
320,80,45527,2,0,B|272:80|244:96|244:96|212:80|160:80,1,160,8|8,0:0|0:0,0:0:0:0:
84,72,46148,1,2,0:0:0:0:
56,148,46355,2,0,P|20:184|0:260,2,120,8|0|2,0:0|0:0|0:0,0:0:0:0:
136,152,47182,2,8,B|152:216|232:184|256:260,1,160
280,92,48010,21,6,0:0:0:0:
364,176,48320,22,0,L|404:212,1,40,0|8,0:0|0:0,0:0:0:0:
456,252,48631,1,2,0:0:0:0:
408,316,48837,2,8,B|352:316|352:316|328:288|308:316|308:316|252:316,1,160
176,312,49458,1,2,0:0:0:0:
104,280,49665,2,0,P|48:228|36:180,2,120,8|0|2,0:0|0:0|0:0,0:0:0:0:
160,224,50493,2,0,B|216:184|260:204|260:204|264:180|264:180|312:200|376:160,1,240,8|2,0:0|0:0,0:0:0:0:
425,108,51320,69,8,0:0:0:0:
381,42,51527,1,8,0:0:0:0:
304,20,51734,1,8,0:0:0:0:
231,53,51941,1,8,0:0:0:0:
196,124,52148,1,8,0:0:0:0:
215,202,52355,1,8,0:0:0:0:
280,249,52562,1,8,0:0:0:0:
360,244,52769,1,8,0:0:0:0:
417,188,52975,1,8,0:0:0:0:
128,324,53803,54,4,L|128:284,1,40
68,232,54113,2,4,L|68:192,1,40
128,136,54424,2,4,L|128:88,1,40
128,36,54631,54,2,P|192:4|356:40,1,240.000009155274,4|2,0:0|0:0,0:0:0:0:
428,128,55251,1,8,0:0:0:0:
428,128,55458,2,2,B|356:128|356:128|316:160|268:128|268:128|192:128,1,240.000009155274,0|2,0:0|0:0,0:0:0:0:
80,340,56286,2,2,P|140:340|200:304,1,120.000004577637,0|0,0:0|0:0,0:0:0:0:
112,224,56700,1,8,0:0:0:0:
112,224,56906,2,2,P|72:168|72:112,1,120.000004577637
184,84,57320,2,0,L|184:24,2,60.0000022888184,0|0|10,0:0|0:0|0:0,0:0:0:0:
184,204,57734,2,0,L|184:264,2,60.0000022888184,0|0|10,0:0|0:0|0:0,0:0:0:0:
380,64,58355,86,2,P|360:124|392:176,1,120.000004577637,10|2,0:0|0:0,0:0:0:0:
384,276,58769,1,2,0:0:0:0:
256,64,59182,2,2,P|276:124|244:176,1,120.000004577637
256,272,59596,1,8,0:0:0:0:
16,268,60010,2,2,P|64:232|88:168,1,120.000004577637,2|0,0:0|0:0,0:0:0:0:
86,178,60424,2,2,P|104:108|140:72,1,120.000004577637,8|0,0:0|0:0,0:0:0:0:
256,76,60837,2,0,L|300:36,4,60.0000022888184,2|0|0|0|14,0:0|0:0|0:0|0:0|0:0,0:0:0:0:
452,224,61665,85,8,0:0:0:0:
376,316,61872,1,0,0:0:0:0:
256,324,62079,1,12,0:0:0:0:
256,324,62493,1,10,0:0:0:0:
136,316,62700,1,0,0:0:0:0:
68,216,62906,1,12,0:0:0:0:
256,68,63320,1,2,0:0:0:0:
256,68,63527,2,2,B|224:120|224:120|260:172,1,120.000004577637,0|8,0:0|0:0,0:0:0:0:
332,264,63941,2,0,L|368:312,2,60.0000022888184,0|2|2,0:0|0:0|0:0,0:0:0:0:
212,268,64355,2,0,L|248:324,2,60.0000022888184,0|0|2,0:0|0:0|0:0,0:0:0:0:
72,72,64975,86,2,P|128:116|152:160,1,120.000004577637,0|2,0:0|0:0,0:0:0:0:
151,157,65389,2,2,L|276:160,1,120.000004577637,8|0,0:0|0:0,0:0:0:0:
388,188,65803,1,2,0:0:0:0:
388,188,66010,1,2,0:0:0:0:
388,188,66217,2,2,B|336:224|320:276|320:276|264:248|196:252,1,240.000009155274,8|0,0:0|0:0,0:0:0:0:
76,252,66837,1,0,0:0:0:0:
68,132,67044,2,4,L|128:112,1,60.0000022888184
240,156,67355,2,4,L|296:136,1,60.0000022888184
364,36,67665,2,4,L|424:16,2,60.0000022888184
256,252,68286,37,0,0:0:0:0:
356,196,68493,1,0,0:0:0:0:
376,140,68596,1,0,0:0:0:0:
392,80,68700,2,0,P|416:168|408:208,1,120.000004577637,8|0,0:0|0:0,0:0:0:0:
352,300,69113,1,2,0:0:0:0:
232,320,69320,1,0,0:0:0:0:
112,300,69527,1,0,0:0:0:0:
52,68,69941,85,2,0:0:0:0:
172,88,70148,1,0,0:0:0:0:
172,88,70355,2,0,P|228:148|280:160,1,120.000004577637,8|0,0:0|0:0,0:0:0:0:
320,176,70665,1,0,0:0:0:0:
320,176,70769,2,0,P|384:204|408:252,1,120.000004577637,2|0,0:0|0:0,0:0:0:0:
296,292,71182,1,2,0:0:0:0:
76,192,71596,85,0,0:0:0:0:
160,108,71803,1,2,0:0:0:0:
212,80,71906,1,0,0:0:0:0:
272,68,72010,2,0,B|268:112|268:112|280:144|280:144|276:192,1,120.000004577637,8|0,0:0|0:0,0:0:0:0:
168,240,72424,2,0,P|208:292|264:300,2,120.000004577637,2|0|2,0:0|0:0|0:0,0:0:0:0:
376,120,73251,85,2,0:0:0:0:
376,120,73458,1,0,0:0:0:0:
424,228,73665,2,0,P|364:276|300:272,1,120.000004577637,8|0,0:0|0:0,0:0:0:0:
272,248,73975,1,0,0:0:0:0:
224,208,74079,2,0,P|172:204|112:244,2,120.000004577637,2|0|2,0:0|0:0|0:0,0:0:0:0:
48,44,74906,38,0,P|116:60|164:40,1,120.000004577637,0|2,0:0|0:0,0:0:0:0:
220,28,75217,1,0,0:0:0:0:
276,12,75320,2,0,P|348:16|388:44,1,120.000004577637,8|0,0:0|0:0,0:0:0:0:
288,116,75734,2,0,P|260:168|256:232,2,120.000004577637,2|0|0,0:0|0:0|0:0,0:0:0:0:
404,328,76562,86,0,B|360:280|360:280|304:280,1,120.000004577637,2|0,0:0|0:0,0:0:0:0:
196,320,76975,2,0,B|136:320|136:320|104:268,1,120.000004577637,8|0,0:0|0:0,0:0:0:0:
84,212,77286,1,0,0:0:0:0:
64,156,77389,1,2,0:0:0:0:
152,76,77596,1,0,0:0:0:0:
268,48,77803,1,2,0:0:0:0:
464,188,78217,86,0,P|412:208|348:192,1,120.000004577637,0|2,0:0|0:0,0:0:0:0:
351,193,78527,2,0,L|295:157,1,60.0000022888184,0|8,0:0|0:0,0:0:0:0:
200,96,78837,2,0,P|144:128|128:184,1,120.000004577637,0|2,0:0|0:0,0:0:0:0:
172,244,79251,1,0,0:0:0:0:
244,280,79458,85,2,0:0:0:0:
324,268,79665,1,2,0:0:0:0:
384,216,79872,1,2,0:0:0:0:
392,136,80079,1,2,0:0:0:0:
340,72,80286,1,4,0:0:0:0:
260,56,80493,2,4,L|260:12,2,40
260,136,80906,1,2,0:0:0:0:
260,136,81113,1,8,0:0:0:0:
120,120,94355,21,6,0:0:0:0:
104,200,94562,38,0,B|96:240|96:240|52:260,1,80
108,320,94976,1,2,0:0:0:0:
188,316,95183,1,8,0:0:0:0:
248,260,95390,2,0,P|280:248|328:268,1,80,0|2,0:0|0:0,0:0:0:0:
392,300,95804,1,0,0:0:0:0:
392,300,96011,1,2,0:0:0:0:
424,224,96218,6,0,P|460:168|464:144,2,80,0|0|2,0:0|0:0|0:0,0:0:0:0:
344,224,96838,1,8,0:0:0:0:
264,220,97045,2,0,P|228:164|224:140,1,80,0|2,0:0|0:0,0:0:0:0:
220,72,97459,1,0,0:0:0:0:
220,72,97666,1,2,0:0:0:0:
144,52,97873,6,0,P|104:40|64:56,1,80
104,124,98286,2,0,L|104:204,1,80,2|8,0:0|0:0,0:0:0:0:
120,284,98700,1,0,0:0:0:0:
192,324,98907,1,2,0:0:0:0:
264,288,99114,2,0,B|280:320|280:320|328:320,2,80,8|2|0,0:0|0:0|0:0,0:0:0:0:
332,248,99735,1,0,0:0:0:0:
404,208,99942,1,2,0:0:0:0:
340,160,100149,1,8,0:0:0:0:
404,112,100355,1,0,0:0:0:0:
344,60,100562,2,0,P|256:40|184:52,1,160,2|2,0:0|0:0,0:0:0:0:
112,80,101183,53,0,0:0:0:0:
48,128,101390,2,0,B|32:176|32:176|52:216,1,80,0|2,0:0|0:0,0:0:0:0:
116,168,101804,2,0,B|132:216|132:216|112:248,1,80,8|0,0:0|0:0,0:0:0:0:
60,296,102218,1,8,0:0:0:0:
60,296,102424,1,0,0:0:0:0:
60,296,102631,1,8,0:0:0:0:
136,316,102838,6,0,L|216:316,1,80
296,312,103252,2,0,L|366:260,1,80,2|8,0:0|0:0,0:0:0:0:
420,208,103665,1,0,0:0:0:0:
440,132,103873,2,0,P|452:88|488:64,2,80,2|0|2,0:0|0:0|0:0,0:0:0:0:
319,160,104700,1,0,0:0:0:0:
178,160,104907,1,2,0:0:0:0:
248,232,105114,1,8,0:0:0:0:
249,90,105321,1,0,0:0:0:0:
256,192,105528,12,4,107597,0:0:0:0:
148,72,108011,5,8,0:0:0:0:
92,128,108218,1,2,0:0:0:0:
40,188,108424,2,0,P|60:292|124:324,1,160,8|2,0:0|0:0,0:0:0:0:
180,320,109045,1,2,0:0:0:0:
220,320,109149,1,2,0:0:0:0:
260,320,109252,2,0,B|344:320|344:320|400:264,1,160,8|8,0:0|0:0,0:0:0:0:
440,200,109873,1,2,0:0:0:0:
368,160,110080,2,0,P|288:144|224:96,1,160,8|2,0:0|0:0,0:0:0:0:
172,40,110700,2,0,L|196:8,2,40,2|2|8,0:0|0:0|0:0,0:0:0:0:
124,104,111114,5,0,0:0:0:0:
92,180,111321,1,8,0:0:0:0:
124,252,111528,1,2,0:0:0:0:
200,272,111735,2,0,P|232:312|244:352,2,80,8|0|8,0:0|0:0|0:0,0:0:0:0:
184,192,112355,1,2,0:0:0:0:
248,144,112562,1,8,0:0:0:0:
316,100,112769,2,0,B|352:100|352:100|376:92|376:92|400:92,1,80,0|8,0:0|0:0,0:0:0:0:
344,32,113183,2,0,B|304:32|304:32|288:24|288:24|260:24,1,80,2|8,0:0|0:0,0:0:0:0:
196,60,113597,2,0,P|160:40|144:0,2,80,2|8|0,0:0|0:0|0:0,0:0:0:0:
248,144,114218,21,6,0:0:0:0:
248,304,114631,22,0,P|296:308|336:296,1,80,8|2,0:0|0:0,0:0:0:0:
400,264,115045,2,0,P|380:200|408:112,1,160,8|8,0:0|0:0,0:0:0:0:
332,80,115666,1,2,0:0:0:0:
296,64,115769,1,0,0:0:0:0:
260,44,115873,2,0,B|204:56|176:12|176:12|132:60|136:100,1,160,8|8,0:0|0:0,0:0:0:0:
108,136,116493,1,2,0:0:0:0:
60,200,116700,2,8,P|28:264|92:316,1,160
164,308,117321,2,0,L|156:352,2,40,2|0|8,0:0|0:0|0:0,0:0:0:0:
192,232,117735,5,2,0:0:0:0:
220,156,117942,1,8,0:0:0:0:
288,116,118149,1,2,0:0:0:0:
368,112,118355,2,0,P|408:128|424:168,1,80,8|2,0:0|0:0,0:0:0:0:
432,240,118769,2,8,P|368:276|308:352,1,160
232,340,119390,2,0,L|184:260,1,80,2|8,0:0|0:0,0:0:0:0:
148,204,119804,1,2,0:0:0:0:
100,140,120011,2,0,L|28:104,2,80,8|2|8,0:0|0:0|0:0,0:0:0:0:
180,132,120631,1,2,0:0:0:0:
248,92,120838,53,6,0:0:0:0:
408,96,121252,53,8,0:0:0:0:
412,256,121666,1,10,0:0:0:0:
252,256,122080,1,8,0:0:0:0:
252,256,122493,2,0,P|208:296|148:284,2,120,0|0|2,0:0|0:0|0:0,0:0:0:0:
184,212,123321,2,8,P|200:164|168:52,1,160
100,28,123942,1,2,0:0:0:0:
24,56,124149,37,6,0:0:0:0:
32,176,124459,70,0,L|64:220,1,40,0|8,0:0|0:0,0:0:0:0:
104,272,124769,1,2,0:0:0:0:
184,272,124976,2,0,B|232:272|260:256|260:256|292:272|344:272,1,160,8|8,0:0|0:0,0:0:0:0:
420,280,125597,1,2,0:0:0:0:
448,204,125804,2,0,P|484:168|504:92,2,120,8|0|2,0:0|0:0|0:0,0:0:0:0:
368,200,126631,2,8,B|352:136|272:168|248:92,1,160
224,260,127459,21,6,0:0:0:0:
140,176,127769,22,0,L|100:140,1,40,0|8,0:0|0:0,0:0:0:0:
48,100,128080,1,2,0:0:0:0:
96,36,128286,2,8,B|152:36|152:36|176:64|196:36|196:36|252:36,1,160
328,40,128907,1,2,0:0:0:0:
400,72,129114,2,0,P|456:124|468:172,2,120,8|0|2,0:0|0:0|0:0,0:0:0:0:
344,128,129942,2,0,B|288:168|244:148|244:148|240:172|240:172|192:152|128:192,1,240,8|2,0:0|0:0,0:0:0:0:
79,244,130769,69,8,0:0:0:0:
123,310,130976,1,8,0:0:0:0:
200,332,131183,1,8,0:0:0:0:
273,299,131390,1,8,0:0:0:0:
308,228,131597,1,8,0:0:0:0:
289,150,131804,1,8,0:0:0:0:
224,103,132011,1,8,0:0:0:0:
144,108,132218,1,8,0:0:0:0:
87,164,132424,1,8,0:0:0:0:
376,28,133252,54,4,L|376:68,1,40
436,120,133562,2,4,L|436:160,1,40
376,216,133873,2,4,L|376:264,1,40
376,316,134080,54,0,P|312:348|148:312,1,240.000009155274,4|2,0:0|0:0,0:0:0:0:
76,224,134700,1,8,0:0:0:0:
76,224,134907,2,0,B|148:224|148:224|188:192|236:224|236:224|312:224,1,240.000009155274,0|2,0:0|0:0,0:0:0:0:
424,12,135735,2,0,P|364:12|304:48,1,120.000004577637
392,128,136149,1,8,0:0:0:0:
392,128,136355,2,0,P|432:184|432:240,1,120.000004577637,2|2,0:0|0:0,0:0:0:0:
388,272,136665,2,0,L|336:304,1,60.0000022888184
304,240,136975,2,0,L|304:180,2,60.0000022888184,0|0|10,0:0|0:0|0:0,0:0:0:0:
264,300,137389,1,2,0:0:0:0:
124,288,137804,86,0,P|144:228|112:176,1,120.000004577637,10|2,0:0|0:0,0:0:0:0:
120,76,138218,1,2,0:0:0:0:
248,288,138631,2,0,P|228:228|260:176,1,120.000004577637,2|2,0:0|0:0,0:0:0:0:
248,80,139045,1,8,0:0:0:0:
488,84,139459,2,0,P|440:120|416:184,1,120.000004577637,2|0,0:0|0:0,0:0:0:0:
418,174,139873,2,0,P|400:244|364:280,1,120.000004577637,8|0,0:0|0:0,0:0:0:0:
248,276,140286,2,0,L|204:316,4,60.0000022888184,2|0|0|0|14,0:0|0:0|0:0|0:0|0:0,0:0:0:0:
52,128,141114,85,0,0:0:0:0:
128,36,141321,1,8,0:0:0:0:
248,28,141528,1,4,0:0:0:0:
248,28,141942,1,2,0:0:0:0:
368,36,142149,1,0,0:0:0:0:
436,136,142355,1,4,0:0:0:0:
248,284,142769,1,2,0:0:0:0:
248,284,142976,2,0,B|280:232|280:232|244:180,1,120.000004577637,0|8,0:0|0:0,0:0:0:0:
204,140,143286,2,0,L|168:92,1,60.0000022888184,0|2,0:0|0:0,0:0:0:0:
292,84,143596,2,0,L|256:28,2,60.0000022888184,0|0|2,0:0|0:0|0:0,0:0:0:0:
328,136,144010,1,2,0:0:0:0:
432,280,144424,86,0,P|376:236|352:192,1,120.000004577637,0|2,0:0|0:0,0:0:0:0:
353,195,144838,2,0,L|228:192,1,120.000004577637,8|0,0:0|0:0,0:0:0:0:
116,164,145252,1,2,0:0:0:0:
116,164,145459,1,2,0:0:0:0:
116,164,145666,2,0,B|168:128|184:76|184:76|240:104|308:100,1,240.000009155274,8|0,0:0|0:0,0:0:0:0:
428,100,146286,1,0,0:0:0:0:
436,220,146493,2,4,L|376:240,1,60.0000022888184
264,196,146804,2,4,L|208:216,1,60.0000022888184
140,316,147114,2,4,L|80:336,2,60.0000022888184
248,100,147735,37,0,0:0:0:0:
148,156,147942,1,0,0:0:0:0:
128,212,148045,1,0,0:0:0:0:
112,272,148149,2,0,P|88:184|96:144,1,120.000004577637,8|0,0:0|0:0,0:0:0:0:
152,52,148562,1,2,0:0:0:0:
272,32,148769,1,0,0:0:0:0:
392,52,148976,1,0,0:0:0:0:
452,284,149390,85,2,0:0:0:0:
332,264,149597,1,0,0:0:0:0:
332,264,149804,2,0,P|276:204|224:192,1,120.000004577637,8|0,0:0|0:0,0:0:0:0:
184,176,150114,1,0,0:0:0:0:
184,176,150218,2,0,P|120:148|96:100,1,120.000004577637,2|0,0:0|0:0,0:0:0:0:
208,60,150631,1,2,0:0:0:0:
428,160,151045,85,0,0:0:0:0:
344,244,151252,1,2,0:0:0:0:
232,284,151459,2,0,B|236:240|236:240|224:208|224:208|228:160,1,120.000004577637,8|0,0:0|0:0,0:0:0:0:
336,112,151873,2,0,P|296:60|240:52,2,120.000004577637,2|0|2,0:0|0:0|0:0,0:0:0:0:
128,232,152700,85,2,0:0:0:0:
128,232,152907,1,0,0:0:0:0:
80,124,153114,2,0,P|140:76|204:80,1,120.000004577637,8|0,0:0|0:0,0:0:0:0:
232,104,153424,1,0,0:0:0:0:
280,144,153528,2,0,P|332:148|392:108,2,120.000004577637,2|0|2,0:0|0:0|0:0,0:0:0:0:
456,308,154355,38,0,P|388:292|340:312,1,120.000004577637,0|2,0:0|0:0,0:0:0:0:
284,324,154666,1,0,0:0:0:0:
228,340,154769,2,0,P|156:336|116:308,1,120.000004577637,8|0,0:0|0:0,0:0:0:0:
216,236,155183,2,0,P|244:184|248:120,2,120.000004577637,2|0|0,0:0|0:0|0:0,0:0:0:0:
100,24,156011,86,0,B|144:72|144:72|200:72,1,120.000004577637,2|0,0:0|0:0,0:0:0:0:
308,32,156424,2,0,B|368:32|368:32|400:84,1,120.000004577637,8|0,0:0|0:0,0:0:0:0:
420,140,156735,1,0,0:0:0:0:
440,196,156838,1,2,0:0:0:0:
352,276,157045,1,0,0:0:0:0:
236,304,157252,1,2,0:0:0:0:
40,164,157666,86,0,P|92:144|156:160,1,120.000004577637,0|2,0:0|0:0,0:0:0:0:
153,159,157976,2,0,L|209:195,1,60.0000022888184,0|8,0:0|0:0,0:0:0:0:
304,256,158286,2,0,P|360:224|376:168,1,120.000004577637,0|2,0:0|0:0,0:0:0:0:
332,108,158700,1,0,0:0:0:0:
260,72,158907,85,2,0:0:0:0:
180,84,159114,1,2,0:0:0:0:
120,136,159321,1,2,0:0:0:0:
112,216,159528,1,2,0:0:0:0:
164,280,159735,1,4,0:0:0:0:
244,296,159942,2,4,L|244:340,2,40
244,216,160355,1,2,0:0:0:0:
244,216,160562,1,8,0:0:0:0:
436,72,161182,53,0,0:0:0:0:
356,56,161389,2,0,P|328:24|292:16,1,80
284,96,161803,2,0,P|204:128|132:112,1,160
252,256,162837,1,0,0:0:0:0:
252,256,163044,2,0,P|280:288|316:296,1,80
324,216,163458,2,0,P|404:184|476:200,1,160,0|4,0:0|0:0,0:0:0:0:
188,52,164699,6,0,P|144:72|112:72,1,80
64,136,165113,1,0,0:0:0:0:
64,216,165320,1,0,0:0:0:0:
104,288,165527,2,0,P|140:288|180:312,1,80
252,340,165941,2,0,P|324:364|404:340,1,160
384,264,166561,2,2,P|432:260|460:280,2,80,0|0|0,0:0|0:0|0:0,0:0:0:0:
304,260,167182,1,4,0:0:0:0:
184,156,167596,5,2,0:0:0:0:
260,128,167803,2,0,B|300:108|300:108|316:68,1,80,0|8,0:0|0:0,0:0:0:0:
348,4,168216,1,0,0:0:0:0:
416,48,168423,2,0,B|392:108|392:108|400:140|400:140|376:212,1,160,2|0,0:0|0:0,0:0:0:0:
248,292,169251,1,2,0:0:0:0:
168,276,169458,1,0,0:0:0:0:
112,220,169665,1,8,0:0:0:0:
92,144,169871,1,0,0:0:0:0:
80,64,170079,2,0,P|52:20|20:8,2,80,0|0|4,0:0|0:0|0:0,0:0:0:0:
216,148,170906,5,2,0:0:0:0:
268,88,171113,1,0,0:0:0:0:
332,40,171320,2,0,P|376:20|416:32,1,80,8|0,0:0|0:0,0:0:0:0:
384,104,171734,2,0,P|408:152|404:188,1,80,2|0,0:0|0:0,0:0:0:0:
480,212,172148,2,0,B|484:260|420:304|372:264|364:248|364:248|364:248,1,160,0|2,0:0|0:0,0:0:0:0:
244,140,172975,1,8,0:0:0:0:
200,72,173182,2,2,P|172:36|132:32,2,80,0|0|0,0:0|0:0|0:0,0:0:0:0:
132,112,173802,21,6,0:0:0:0:
