osu file format v14

[General]
AudioFilename: DIVERSA.mp3
AudioLeadIn: 0
PreviewTime: 67858
Countdown: 0
SampleSet: Normal
StackLeniency: 0.7
Mode: 1
LetterboxInBreaks: 0
WidescreenStoryboard: 1

[Editor]
Bookmarks: 94,22682,45270,67858,90446,124328,146916
DistanceSpacing: 2.3
BeatDivisor: 12
GridSize: 32
TimelineZoom: 2.599999

[Metadata]
Title:atlas
TitleUnicode:atlas
Artist:DIVERSA
ArtistUnicode:DIVERSA
Creator:Ulqui
Version:Kantan
Source:
Tags:future bass idm skull kid skid
BeatmapID:1829788
BeatmapSetID:875591

[Difficulty]
HPDrainRate:7
CircleSize:5
OverallDifficulty:3
ApproachRate:6
SliderMultiplier:1.4
SliderTickRate:1

[Events]
//Background and Video events
0,0,"devushka-fotoapparat-vecher-gorod-yuumei.jpg",0,0
//Break Periods
//Storyboard Layer 0 (Background)
//Storyboard Layer 1 (Fail)
//Storyboard Layer 2 (Pass)
//Storyboard Layer 3 (Foreground)
//Storyboard Layer 4 (Overlay)
//Storyboard Sound Samples

[TimingPoints]
104,352.941176470588,4,1,0,70,1,0
22692,-100,4,1,0,70,0,0
45280,-100,4,1,0,70,0,1
67868,-100,4,1,0,70,0,0
90456,-100,4,1,0,70,0,1
124339,-100,4,1,0,70,0,0

[HitObjects]
146,169,22692,5,0,0:0:0:0:
144,117,24103,1,0,0:0:0:0:
151,174,24809,1,8,0:0:0:0:
161,145,25515,1,0,0:0:0:0:
169,113,26927,1,0,0:0:0:0:
224,139,27633,1,8,0:0:0:0:
201,121,28339,1,0,0:0:0:0:
188,90,29751,1,0,0:0:0:0:
188,90,30456,1,8,0:0:0:0:
185,75,31162,1,0,0:0:0:0:
198,119,32574,1,0,0:0:0:0:
198,119,33280,1,8,0:0:0:0:
205,113,33986,1,0,0:0:0:0:
181,167,35398,1,0,0:0:0:0:
181,167,36103,1,8,0:0:0:0:
186,160,36809,1,0,0:0:0:0:
163,155,38221,1,0,0:0:0:0:
175,139,38927,1,8,0:0:0:0:
185,99,39633,1,0,0:0:0:0:
196,117,41045,1,0,0:0:0:0:
196,117,41751,1,8,0:0:0:0:
196,117,42456,1,0,0:0:0:0:
190,141,43868,1,0,0:0:0:0:
175,131,44574,1,8,0:0:0:0:
121,210,45280,5,0,0:0:0:0:
149,117,46339,1,8,0:0:0:0:
185,97,46692,1,0,0:0:0:0:
162,57,47398,1,8,0:0:0:0:
173,39,48103,1,0,0:0:0:0:
172,109,49162,1,8,0:0:0:0:
161,122,49515,1,0,0:0:0:0:
161,122,49868,1,0,0:0:0:0:
176,89,50221,1,8,0:0:0:0:
171,93,50927,1,0,0:0:0:0:
182,99,51986,1,8,0:0:0:0:
181,114,52339,1,0,0:0:0:0:
139,77,53045,1,8,0:0:0:0:
156,64,53751,1,0,0:0:0:0:
176,107,54809,1,8,0:0:0:0:
171,116,55162,1,0,0:0:0:0:
171,117,55515,1,0,0:0:0:0:
178,67,55868,1,8,0:0:0:0:
195,82,56574,1,0,0:0:0:0:
162,123,57633,1,8,0:0:0:0:
171,90,57986,1,0,0:0:0:0:
171,90,58692,1,8,0:0:0:0:
177,102,59398,1,0,0:0:0:0:
188,122,60456,1,8,0:0:0:0:
204,117,60809,1,0,0:0:0:0:
204,117,61162,1,0,0:0:0:0:
204,117,61515,1,8,0:0:0:0:
174,87,62221,1,0,0:0:0:0:
170,102,63280,1,8,0:0:0:0:
170,102,63633,1,0,0:0:0:0:
175,115,64339,1,8,0:0:0:0:
176,119,65045,1,0,0:0:0:0:
189,129,66103,1,8,0:0:0:0:
189,129,66456,1,0,0:0:0:0:
182,158,66809,1,0,0:0:0:0:
182,158,67162,1,8,0:0:0:0:
160,237,67868,5,0,0:0:0:0:
137,231,68574,1,8,0:0:0:0:
196,164,69986,1,8,0:0:0:0:
196,164,71398,1,8,0:0:0:0:
196,164,72809,1,8,0:0:0:0:
161,103,74221,1,8,0:0:0:0:
171,87,75633,1,8,0:0:0:0:
169,78,77045,1,8,0:0:0:0:
180,83,77751,1,8,0:0:0:0:
218,94,78456,1,8,0:0:0:0:
256,86,79162,1,0,0:0:0:0:
190,161,79868,1,8,0:0:0:0:
179,152,80574,1,0,0:0:0:0:
214,106,81280,1,8,0:0:0:0:
187,59,81986,1,0,0:0:0:0:
182,116,82692,1,8,0:0:0:0:
163,95,83398,1,0,0:0:0:0:
188,124,84103,1,8,0:0:0:0:
186,118,84809,1,0,0:0:0:0:
181,112,85515,1,8,0:0:0:0:
148,138,86221,1,0,0:0:0:0:
161,125,86927,1,8,0:0:0:0:
148,138,87633,1,0,0:0:0:0:
163,128,88339,1,8,0:0:0:0:
153,79,89045,1,8,0:0:0:0:
177,97,90456,1,0,0:0:0:0:
196,161,90809,1,0,0:0:0:0:
196,161,91162,1,8,0:0:0:0:
215,124,91868,1,0,0:0:0:0:
202,102,92574,1,8,0:0:0:0:
176,72,93280,1,0,0:0:0:0:
190,95,93633,1,0,0:0:0:0:
162,54,93986,1,8,0:0:0:0:
192,146,94692,1,0,0:0:0:0:
172,64,95398,1,8,0:0:0:0:
201,102,95751,1,8,0:0:0:0:
161,76,96103,1,0,0:0:0:0:
191,106,96456,1,0,0:0:0:0:
133,68,96809,1,8,0:0:0:0:
191,78,97515,1,0,0:0:0:0:
157,68,98221,1,8,0:0:0:0:
162,82,98927,1,0,0:0:0:0:
162,95,99280,1,0,0:0:0:0:
162,88,99633,1,8,0:0:0:0:
163,106,100339,1,8,0:0:0:0:
151,59,101751,1,0,0:0:0:0:
209,296,102103,1,0,0:0:0:0:
164,92,102456,1,8,0:0:0:0:
166,212,103162,1,0,0:0:0:0:
152,221,103868,1,8,0:0:0:0:
147,222,104574,1,0,0:0:0:0:
152,221,104927,1,0,0:0:0:0:
153,73,105280,1,8,0:0:0:0:
142,97,105986,1,0,0:0:0:0:
177,61,106692,1,8,0:0:0:0:
200,42,107045,1,8,0:0:0:0:
176,141,107398,1,0,0:0:0:0:
176,141,107751,1,0,0:0:0:0:
176,141,108103,1,8,0:0:0:0:
189,76,108809,1,0,0:0:0:0:
189,76,109515,1,8,0:0:0:0:
182,84,110221,1,0,0:0:0:0:
182,84,110574,1,0,0:0:0:0:
182,84,110927,1,8,0:0:0:0:
169,51,111633,1,8,0:0:0:0:
198,226,113045,5,4,0:0:0:0:
227,201,113751,1,8,0:0:0:0:
126,124,114103,1,8,0:0:0:0:
155,180,114456,1,4,0:0:0:0:
223,206,115162,1,8,0:0:0:0:
155,180,115868,1,4,0:0:0:0:
204,151,116574,1,8,0:0:0:0:
128,67,116927,1,0,0:0:0:0:
132,138,117280,1,12,0:0:0:0:
205,153,117986,1,8,0:0:0:0:
132,138,118692,1,4,0:0:0:0:
176,147,119398,1,8,0:0:0:0:
133,66,119751,1,8,0:0:0:0:
132,138,120103,1,4,0:0:0:0:
190,172,120809,1,8,0:0:0:0:
132,138,121515,1,4,0:0:0:0:
189,171,122221,1,8,0:0:0:0:
127,67,122574,1,0,0:0:0:0:
131,145,122927,1,12,0:0:0:0:
186,168,123633,1,8,0:0:0:0:
175,148,124339,1,0,0:0:0:0:
191,134,124692,1,8,0:0:0:0:
210,102,125751,1,0,0:0:0:0:
191,134,126103,1,8,0:0:0:0:
185,98,127162,1,0,0:0:0:0:
177,138,127515,1,8,0:0:0:0:
181,106,128574,1,0,0:0:0:0:
201,141,128927,1,8,0:0:0:0:
177,91,129986,1,0,0:0:0:0:
214,155,131398,1,0,0:0:0:0:
211,151,132809,1,0,0:0:0:0:
196,135,134221,1,0,0:0:0:0:
188,133,135633,1,0,0:0:0:0:
210,216,137045,1,0,0:0:0:0:
211,216,138456,1,0,0:0:0:0:
204,133,139868,1,0,0:0:0:0:
211,185,141280,1,0,0:0:0:0:
216,184,142692,1,0,0:0:0:0:
216,183,144103,1,0,0:0:0:0:
216,183,145515,1,0,0:0:0:0:
217,180,146927,1,8,0:0:0:0:
