osu file format v14

[General]
AudioFilename: DIVERSA.mp3
AudioLeadIn: 0
PreviewTime: 67858
Countdown: 0
SampleSet: Normal
StackLeniency: 0.7
Mode: 1
LetterboxInBreaks: 0
WidescreenStoryboard: 0

[Editor]
Bookmarks: 94,22682,45270,67858,90446,124328,146916
DistanceSpacing: 2.4
BeatDivisor: 12
GridSize: 32
TimelineZoom: 2.599999

[Metadata]
Title:atlas
TitleUnicode:atlas
Artist:DIVERSA
ArtistUnicode:DIVERSA
Creator:Ulqui
Version:Inner Oni
Source:
Tags:future bass idm skull kid skid
BeatmapID:1829790
BeatmapSetID:875591

[Difficulty]
HPDrainRate:6
CircleSize:5
OverallDifficulty:6
ApproachRate:6
SliderMultiplier:1.4
SliderTickRate:1

[Events]
//Background and Video events
0,0,"devushka-fotoapparat-vecher-gorod-yuumei.jpg",0,0
//Break Periods
//Storyboard Layer 0 (Background)
//Storyboard Layer 1 (Fail)
//Storyboard Layer 2 (Pass)
//Storyboard Layer 3 (Foreground)
//Storyboard Layer 4 (Overlay)
//Storyboard Sound Samples

[TimingPoints]
104,352.941176470588,4,1,0,70,1,0
22692,-111.111111111111,4,1,0,70,0,0
45280,-90.9090909090909,4,1,0,70,0,1
67868,-125,4,1,0,70,0,0
68574,-71.4285714285714,4,1,0,70,0,0
69258,-125,4,1,0,70,0,0
69964,-71.4285714285714,4,1,0,70,0,0
70669,-125,4,1,0,70,0,0
71375,-71.4285714285714,4,1,0,70,0,0
72081,-125,4,1,0,70,0,0
72787,-71.4285714285714,4,1,0,70,0,0
73493,-125,4,1,0,70,0,0
74199,-71.4285714285714,4,1,0,70,0,0
74905,-125,4,1,0,70,0,0
75611,-71.4285714285714,4,1,0,70,0,0
76316,-125,4,1,0,70,0,0
77022,-71.4285714285714,4,1,0,70,0,0
79162,-125,4,1,0,70,0,0
79868,-71.4285714285714,4,1,0,70,0,0
79985,-76.9230769230769,4,1,0,70,0,0
80103,-83.3333333333333,4,1,0,70,0,0
80221,-90.9090909090909,4,1,0,70,0,0
80338,-100,4,1,0,70,0,0
80456,-111.111111111111,4,1,0,70,0,0
80552,-125,4,1,0,70,0,0
81258,-71.4285714285714,4,1,0,70,0,0
81375,-76.9230769230769,4,1,0,70,0,0
81493,-83.3333333333333,4,1,0,70,0,0
81611,-90.9090909090909,4,1,0,70,0,0
81728,-100,4,1,0,70,0,0
81846,-111.111111111111,4,1,0,70,0,0
81963,-125,4,1,0,70,0,0
82669,-71.4285714285714,4,1,0,70,0,0
82786,-76.9230769230769,4,1,0,70,0,0
82904,-83.3333333333333,4,1,0,70,0,0
83022,-90.9090909090909,4,1,0,70,0,0
83139,-100,4,1,0,70,0,0
83257,-111.111111111111,4,1,0,70,0,0
83375,-125,4,1,0,70,0,0
84081,-71.4285714285714,4,1,0,70,0,0
84198,-76.9230769230769,4,1,0,70,0,0
84316,-83.3333333333333,4,1,0,70,0,0
84434,-90.9090909090909,4,1,0,70,0,0
84551,-100,4,1,0,70,0,0
84669,-111.111111111111,4,1,0,70,0,0
84787,-125,4,1,0,70,0,0
85493,-71.4285714285714,4,1,0,70,0,0
85610,-76.9230769230769,4,1,0,70,0,0
85728,-83.3333333333333,4,1,0,70,0,0
85846,-90.9090909090909,4,1,0,70,0,0
85963,-100,4,1,0,70,0,0
86081,-111.111111111111,4,1,0,70,0,0
86199,-125,4,1,0,70,0,0
86905,-71.4285714285714,4,1,0,70,0,0
87022,-76.9230769230769,4,1,0,70,0,0
87140,-83.3333333333333,4,1,0,70,0,0
87258,-90.9090909090909,4,1,0,70,0,0
87375,-100,4,1,0,70,0,0
87493,-111.111111111111,4,1,0,70,0,0
87610,-125,4,1,0,70,0,0
88316,-71.4285714285714,4,1,0,70,0,0
88433,-76.9230769230769,4,1,0,70,0,0
88551,-83.3333333333333,4,1,0,70,0,0
88669,-90.9090909090909,4,1,0,70,0,0
88786,-100,4,1,0,70,0,0
88904,-111.111111111111,4,1,0,70,0,0
89022,-125,4,1,0,70,0,0
89279,-90.9090909090909,4,1,0,70,0,0
89515,-71.4285714285714,4,1,0,70,0,0
90456,-83.3333333333333,4,1,0,70,0,1
113044,-62.5,4,1,0,70,0,1
113750,-83.3333333333333,4,1,0,70,0,1
114426,-62.5,4,1,0,70,0,1
115132,-83.3333333333333,4,1,0,70,0,1
115838,-62.5,4,1,0,70,0,1
116544,-83.3333333333333,4,1,0,70,0,1
117250,-62.5,4,1,0,70,0,1
117956,-83.3333333333333,4,1,0,70,0,1
118662,-62.5,4,1,0,70,0,1
119368,-83.3333333333333,4,1,0,70,0,1
120073,-62.5,4,1,0,70,0,1
120779,-83.3333333333333,4,1,0,70,0,1
121485,-62.5,4,1,0,70,0,1
122191,-83.3333333333333,4,1,0,70,0,1
122897,-62.5,4,1,0,70,0,1
123603,-83.3333333333333,4,1,0,70,0,1
124339,-100,4,1,0,70,0,0

[HitObjects]
146,169,22692,5,0,0:0:0:0:
151,174,23045,1,8,0:0:0:0:
151,174,23398,1,8,0:0:0:0:
151,174,23751,1,8,0:0:0:0:
151,174,24103,1,0,0:0:0:0:
151,174,24456,1,8,0:0:0:0:
154,102,24633,1,0,0:0:0:0:
154,102,24721,1,0,0:0:0:0:
151,174,24809,1,8,0:0:0:0:
151,174,24986,1,8,0:0:0:0:
151,174,25074,1,8,0:0:0:0:
151,174,25162,1,0,0:0:0:0:
161,145,25339,1,8,0:0:0:0:
161,145,25515,1,0,0:0:0:0:
169,113,25868,1,8,0:0:0:0:
169,113,26221,1,8,0:0:0:0:
169,113,26574,1,8,0:0:0:0:
220,131,26809,1,8,0:0:0:0:
169,113,26927,1,0,0:0:0:0:
169,113,27280,1,8,0:0:0:0:
216,107,27515,1,0,0:0:0:0:
224,139,27633,1,8,0:0:0:0:
201,121,27868,1,8,0:0:0:0:
201,121,27986,1,8,0:0:0:0:
201,121,28221,1,8,0:0:0:0:
201,121,28339,1,0,0:0:0:0:
158,107,28692,1,8,0:0:0:0:
158,107,29045,1,8,0:0:0:0:
188,90,29398,1,8,0:0:0:0:
188,90,29751,1,0,0:0:0:0:
188,90,30103,1,8,0:0:0:0:
208,74,30280,1,0,0:0:0:0:
208,74,30368,1,0,0:0:0:0:
188,90,30456,1,8,0:0:0:0:
233,113,30633,1,0,0:0:0:0:
223,100,30721,1,8,0:0:0:0:
188,90,30809,1,0,0:0:0:0:
185,72,30986,1,8,0:0:0:0:
185,75,31162,1,0,0:0:0:0:
198,119,31515,1,8,0:0:0:0:
198,119,31868,1,8,0:0:0:0:
198,119,32221,1,8,0:0:0:0:
198,119,32456,1,8,0:0:0:0:
198,119,32574,1,0,0:0:0:0:
198,119,32927,1,8,0:0:0:0:
198,119,33162,1,0,0:0:0:0:
198,119,33280,1,8,0:0:0:0:
205,113,33986,1,0,0:0:0:0:
186,169,34339,1,8,0:0:0:0:
186,169,34692,1,8,0:0:0:0:
181,167,35045,1,8,0:0:0:0:
181,167,35398,1,0,0:0:0:0:
181,167,35751,1,8,0:0:0:0:
186,158,35927,1,0,0:0:0:0:
186,158,36015,1,0,0:0:0:0:
181,167,36103,1,8,0:0:0:0:
186,158,36280,1,0,0:0:0:0:
186,158,36368,1,0,0:0:0:0:
181,167,36456,1,0,0:0:0:0:
186,159,36633,1,8,0:0:0:0:
186,160,36809,1,0,0:0:0:0:
156,155,37162,1,8,0:0:0:0:
163,155,37515,1,8,0:0:0:0:
166,154,37868,1,8,0:0:0:0:
198,104,38103,1,8,0:0:0:0:
163,155,38221,1,0,0:0:0:0:
198,104,38574,1,8,0:0:0:0:
175,139,38809,1,0,0:0:0:0:
175,139,38927,1,8,0:0:0:0:
185,99,39162,1,8,0:0:0:0:
185,99,39280,1,8,0:0:0:0:
185,100,39515,1,8,0:0:0:0:
185,99,39633,1,0,0:0:0:0:
196,117,39986,1,8,0:0:0:0:
196,117,40339,1,8,0:0:0:0:
196,117,40692,1,8,0:0:0:0:
196,117,41045,1,0,0:0:0:0:
196,117,41398,1,8,0:0:0:0:
176,169,41574,1,0,0:0:0:0:
176,169,41662,1,0,0:0:0:0:
196,117,41751,1,8,0:0:0:0:
175,164,41927,1,8,0:0:0:0:
176,169,42015,1,0,0:0:0:0:
196,117,42103,1,8,0:0:0:0:
176,169,42280,1,8,0:0:0:0:
196,117,42456,1,0,0:0:0:0:
163,122,42809,1,8,0:0:0:0:
204,143,43162,1,8,0:0:0:0:
190,135,43515,1,8,0:0:0:0:
190,138,43751,1,8,0:0:0:0:
190,141,43868,1,0,0:0:0:0:
176,130,44221,1,8,0:0:0:0:
175,131,44456,1,0,0:0:0:0:
175,131,44574,1,8,0:0:0:0:
121,210,45280,5,0,0:0:0:0:
167,124,45368,1,0,0:0:0:0:
58,118,45456,1,8,0:0:0:0:
196,99,45633,1,0,0:0:0:0:
162,63,45721,1,0,0:0:0:0:
196,99,45809,1,8,0:0:0:0:
196,99,45986,1,0,0:0:0:0:
149,117,46162,1,0,0:0:0:0:
149,117,46339,1,8,0:0:0:0:
185,97,46692,1,0,0:0:0:0:
179,79,46868,1,0,0:0:0:0:
196,91,46956,1,0,0:0:0:0:
196,91,47045,1,8,0:0:0:0:
196,91,47133,1,8,0:0:0:0:
196,91,47221,1,0,0:0:0:0:
162,57,47398,1,8,0:0:0:0:
162,57,47574,1,0,0:0:0:0:
162,57,47751,1,0,0:0:0:0:
161,94,47927,1,8,0:0:0:0:
173,39,48103,1,0,0:0:0:0:
182,101,48192,1,0,0:0:0:0:
181,99,48280,1,8,0:0:0:0:
153,93,48456,1,0,0:0:0:0:
153,94,48545,1,0,0:0:0:0:
153,93,48633,1,8,0:0:0:0:
172,109,48809,1,0,0:0:0:0:
172,109,48986,1,0,0:0:0:0:
172,109,49162,1,8,0:0:0:0:
161,122,49515,1,0,0:0:0:0:
181,44,49603,1,0,0:0:0:0:
161,77,49692,1,8,0:0:0:0:
161,122,49868,1,0,0:0:0:0:
166,87,49956,1,0,0:0:0:0:
165,82,50045,1,0,0:0:0:0:
176,89,50221,1,8,0:0:0:0:
176,79,50398,1,0,0:0:0:0:
175,79,50574,1,0,0:0:0:0:
171,92,50751,1,8,0:0:0:0:
171,93,50927,1,0,0:0:0:0:
163,124,51015,1,0,0:0:0:0:
163,124,51103,1,8,0:0:0:0:
163,124,51280,1,0,0:0:0:0:
161,32,51368,1,0,0:0:0:0:
171,47,51456,1,0,0:0:0:0:
175,79,51545,1,0,0:0:0:0:
178,76,51633,1,0,0:0:0:0:
182,99,51809,1,0,0:0:0:0:
182,99,51986,1,8,0:0:0:0:
181,114,52339,1,0,0:0:0:0:
159,88,52515,1,8,0:0:0:0:
161,87,52603,1,8,0:0:0:0:
139,77,52692,1,0,0:0:0:0:
143,57,52780,1,0,0:0:0:0:
139,77,52868,1,0,0:0:0:0:
139,77,53045,1,8,0:0:0:0:
159,88,53221,1,0,0:0:0:0:
159,88,53309,1,0,0:0:0:0:
159,88,53398,1,0,0:0:0:0:
161,87,53574,1,8,0:0:0:0:
156,64,53751,1,0,0:0:0:0:
170,94,53839,1,0,0:0:0:0:
170,92,53927,1,8,0:0:0:0:
170,92,54103,1,0,0:0:0:0:
170,94,54192,1,0,0:0:0:0:
170,94,54280,1,8,0:0:0:0:
143,98,54456,1,0,0:0:0:0:
143,98,54633,1,0,0:0:0:0:
176,107,54809,1,8,0:0:0:0:
171,116,55162,1,0,0:0:0:0:
171,117,55339,1,8,0:0:0:0:
171,121,55427,1,8,0:0:0:0:
171,117,55515,1,0,0:0:0:0:
178,67,55692,1,0,0:0:0:0:
178,67,55868,1,8,0:0:0:0:
195,79,56045,1,0,0:0:0:0:
195,81,56221,1,0,0:0:0:0:
195,81,56398,1,8,0:0:0:0:
195,82,56574,1,0,0:0:0:0:
178,107,56662,1,0,0:0:0:0:
178,107,56751,1,8,0:0:0:0:
178,107,56839,1,8,0:0:0:0:
178,107,56927,1,0,0:0:0:0:
147,87,57103,1,0,0:0:0:0:
191,97,57192,1,0,0:0:0:0:
147,87,57280,1,0,0:0:0:0:
191,97,57456,1,0,0:0:0:0:
191,97,57633,1,8,0:0:0:0:
159,127,57986,1,0,0:0:0:0:
159,127,58162,1,0,0:0:0:0:
159,127,58251,1,0,0:0:0:0:
159,127,58339,1,8,0:0:0:0:
152,109,58427,1,8,0:0:0:0:
182,96,58515,1,0,0:0:0:0:
182,96,58692,1,8,0:0:0:0:
162,133,58868,1,0,0:0:0:0:
162,134,59045,1,0,0:0:0:0:
171,121,59133,1,0,0:0:0:0:
162,134,59221,1,8,0:0:0:0:
157,77,59398,1,0,0:0:0:0:
160,82,59486,1,0,0:0:0:0:
157,77,59574,1,8,0:0:0:0:
160,82,59662,1,8,0:0:0:0:
157,77,59751,1,0,0:0:0:0:
168,58,59927,1,0,0:0:0:0:
167,62,60015,1,0,0:0:0:0:
168,59,60103,1,0,0:0:0:0:
166,104,60280,1,0,0:0:0:0:
166,104,60456,1,8,0:0:0:0:
147,102,60809,1,0,0:0:0:0:
177,79,60986,1,8,0:0:0:0:
179,83,61074,1,8,0:0:0:0:
177,79,61162,1,0,0:0:0:0:
175,63,61339,1,0,0:0:0:0:
175,63,61515,1,8,0:0:0:0:
169,96,61603,1,0,0:0:0:0:
169,94,61692,1,0,0:0:0:0:
170,107,61780,1,8,0:0:0:0:
170,107,61956,1,0,0:0:0:0:
170,107,62045,1,8,0:0:0:0:
177,72,62221,1,0,0:0:0:0:
152,106,62398,1,8,0:0:0:0:
154,102,62486,1,8,0:0:0:0:
152,106,62574,1,0,0:0:0:0:
177,72,62751,1,0,0:0:0:0:
181,96,62839,1,0,0:0:0:0:
177,72,62927,1,0,0:0:0:0:
181,96,63103,1,0,0:0:0:0:
181,96,63280,1,8,0:0:0:0:
152,96,63633,1,0,0:0:0:0:
152,96,63721,1,0,0:0:0:0:
152,96,63809,1,8,0:0:0:0:
152,96,63898,1,8,0:0:0:0:
152,96,63986,1,0,0:0:0:0:
176,65,64162,1,0,0:0:0:0:
181,34,64251,1,0,0:0:0:0:
176,65,64339,1,8,0:0:0:0:
146,114,64515,1,0,0:0:0:0:
147,114,64603,1,0,0:0:0:0:
146,114,64692,1,0,0:0:0:0:
147,114,64780,1,0,0:0:0:0:
146,114,64868,1,8,0:0:0:0:
169,77,65045,1,0,0:0:0:0:
169,77,65133,1,0,0:0:0:0:
169,77,65221,1,0,0:0:0:0:
169,77,65398,1,8,0:0:0:0:
169,77,65486,1,8,0:0:0:0:
169,52,65574,1,0,0:0:0:0:
169,77,65751,1,0,0:0:0:0:
176,97,65927,1,0,0:0:0:0:
176,98,66103,1,8,0:0:0:0:
161,97,66456,1,0,0:0:0:0:
151,158,66633,5,0,0:0:0:0:
151,158,66721,1,0,0:0:0:0:
161,113,66809,1,8,0:0:0:0:
161,113,66986,1,0,0:0:0:0:
161,113,67162,1,8,0:0:0:0:
161,72,67339,1,0,0:0:0:0:
160,237,67868,5,0,0:0:0:0:
137,231,68574,1,8,0:0:0:0:
276,138,68692,1,0,0:0:0:0:
276,138,68809,1,8,0:0:0:0:
276,138,68927,1,0,0:0:0:0:
276,138,69045,1,8,0:0:0:0:
276,138,69162,1,8,0:0:0:0:
196,164,69986,1,8,0:0:0:0:
196,164,70103,1,0,0:0:0:0:
196,164,70221,1,0,0:0:0:0:
196,164,70339,1,8,0:0:0:0:
196,164,70456,1,0,0:0:0:0:
196,164,70574,1,0,0:0:0:0:
196,164,71398,1,8,0:0:0:0:
196,164,71515,1,0,0:0:0:0:
196,164,71633,1,8,0:0:0:0:
196,164,71751,1,0,0:0:0:0:
196,164,71868,1,8,0:0:0:0:
196,164,71986,1,8,0:0:0:0:
196,164,72809,1,8,0:0:0:0:
196,164,72927,1,0,0:0:0:0:
196,164,73045,1,0,0:0:0:0:
196,164,73162,1,8,0:0:0:0:
161,103,74221,1,8,0:0:0:0:
161,103,74339,1,0,0:0:0:0:
161,103,74456,1,8,0:0:0:0:
161,103,74574,1,0,0:0:0:0:
193,98,74692,1,8,0:0:0:0:
161,103,74809,1,8,0:0:0:0:
171,87,75633,1,8,0:0:0:0:
176,39,75751,1,0,0:0:0:0:
171,42,75868,1,0,0:0:0:0:
171,87,75986,1,8,0:0:0:0:
177,52,76103,1,0,0:0:0:0:
177,52,76221,1,0,0:0:0:0:
169,78,77045,1,8,0:0:0:0:
169,78,77162,1,0,0:0:0:0:
169,78,77280,1,8,0:0:0:0:
169,78,77398,1,0,0:0:0:0:
169,78,77515,1,8,0:0:0:0:
169,78,77633,1,8,0:0:0:0:
161,61,77751,1,8,0:0:0:0:
169,69,78015,1,0,0:0:0:0:
169,69,78280,1,0,0:0:0:0:
211,123,78368,1,0,0:0:0:0:
169,69,78456,1,8,0:0:0:0:
182,68,78574,1,0,0:0:0:0:
182,68,78692,1,0,0:0:0:0:
182,68,78809,1,8,0:0:0:0:
256,86,79162,1,0,0:0:0:0:
180,137,79868,1,8,0:0:0:0:
180,137,79986,1,0,0:0:0:0:
180,137,80103,1,8,0:0:0:0:
180,137,80221,1,0,0:0:0:0:
180,137,80339,1,8,0:0:0:0:
180,137,80456,1,8,0:0:0:0:
179,152,80574,1,0,0:0:0:0:
179,101,81280,1,8,0:0:0:0:
179,101,81398,1,0,0:0:0:0:
179,101,81515,1,0,0:0:0:0:
179,101,81633,1,8,0:0:0:0:
161,39,81751,1,0,0:0:0:0:
161,39,81868,1,0,0:0:0:0:
187,59,81986,1,0,0:0:0:0:
187,124,82692,1,8,0:0:0:0:
187,124,82809,1,0,0:0:0:0:
187,124,82927,1,8,0:0:0:0:
187,124,83045,1,0,0:0:0:0:
187,124,83162,1,8,0:0:0:0:
187,124,83280,1,8,0:0:0:0:
163,95,83398,1,0,0:0:0:0:
162,100,84103,1,8,0:0:0:0:
162,100,84221,1,0,0:0:0:0:
162,100,84339,1,0,0:0:0:0:
162,100,84456,1,8,0:0:0:0:
186,118,84809,1,0,0:0:0:0:
156,139,85515,1,8,0:0:0:0:
156,139,85633,1,0,0:0:0:0:
156,139,85751,1,8,0:0:0:0:
156,139,85868,1,0,0:0:0:0:
156,139,85986,1,8,0:0:0:0:
156,139,86103,1,8,0:0:0:0:
148,138,86221,1,0,0:0:0:0:
148,138,86927,1,8,0:0:0:0:
148,138,87045,1,0,0:0:0:0:
148,138,87162,1,0,0:0:0:0:
148,138,87280,1,8,0:0:0:0:
148,138,87398,1,0,0:0:0:0:
148,138,87515,1,0,0:0:0:0:
148,138,87633,1,0,0:0:0:0:
148,138,88339,1,8,0:0:0:0:
148,138,88456,1,0,0:0:0:0:
148,138,88574,1,8,0:0:0:0:
148,138,88692,1,0,0:0:0:0:
148,138,88809,1,8,0:0:0:0:
148,138,88927,1,8,0:0:0:0:
153,79,89045,1,8,0:0:0:0:
156,103,89280,1,0,0:0:0:0:
170,117,89574,1,0,0:0:0:0:
175,114,89662,1,0,0:0:0:0:
156,103,89751,1,8,0:0:0:0:
192,106,89868,1,0,0:0:0:0:
191,106,89986,1,0,0:0:0:0:
176,89,90103,1,8,0:0:0:0:
177,97,90456,1,0,0:0:0:0:
196,161,90545,1,8,0:0:0:0:
196,161,90633,1,8,0:0:0:0:
196,161,90721,1,8,0:0:0:0:
196,161,90809,1,0,0:0:0:0:
196,161,90898,1,8,0:0:0:0:
196,161,90986,1,0,0:0:0:0:
196,161,91074,1,0,0:0:0:0:
196,161,91162,1,8,0:0:0:0:
215,124,91280,1,0,0:0:0:0:
215,124,91398,1,8,0:0:0:0:
215,124,91515,1,0,0:0:0:0:
215,124,91633,1,8,0:0:0:0:
215,124,91751,1,8,0:0:0:0:
215,124,91868,1,0,0:0:0:0:
202,102,91956,1,0,0:0:0:0:
202,102,92045,1,8,0:0:0:0:
201,103,92221,1,0,0:0:0:0:
201,103,92309,1,8,0:0:0:0:
202,102,92398,1,0,0:0:0:0:
202,102,92486,1,0,0:0:0:0:
202,102,92574,1,8,0:0:0:0:
181,112,92692,1,0,0:0:0:0:
181,112,92809,1,0,0:0:0:0:
181,112,92927,1,8,0:0:0:0:
176,72,93045,1,0,0:0:0:0:
176,72,93162,1,8,0:0:0:0:
176,72,93280,1,0,0:0:0:0:
190,98,93368,1,0,0:0:0:0:
190,95,93456,1,8,0:0:0:0:
190,95,93633,1,0,0:0:0:0:
186,52,93721,1,8,0:0:0:0:
186,52,93809,1,8,0:0:0:0:
162,53,93898,1,0,0:0:0:0:
162,54,93986,1,8,0:0:0:0:
192,146,94103,1,0,0:0:0:0:
192,146,94221,1,8,0:0:0:0:
192,146,94339,1,0,0:0:0:0:
192,146,94456,1,8,0:0:0:0:
192,146,94574,1,8,0:0:0:0:
192,146,94692,1,0,0:0:0:0:
201,102,94780,1,0,0:0:0:0:
201,102,94868,1,8,0:0:0:0:
172,64,95045,1,0,0:0:0:0:
172,64,95133,1,0,0:0:0:0:
172,64,95221,1,0,0:0:0:0:
172,64,95309,1,0,0:0:0:0:
172,64,95398,1,8,0:0:0:0:
201,102,95515,1,0,0:0:0:0:
201,102,95633,1,0,0:0:0:0:
201,102,95751,1,8,0:0:0:0:
161,76,96103,1,0,0:0:0:0:
191,106,96192,1,8,0:0:0:0:
191,106,96280,1,8,0:0:0:0:
191,106,96368,1,8,0:0:0:0:
191,106,96456,1,0,0:0:0:0:
133,62,96545,1,8,0:0:0:0:
137,74,96633,1,0,0:0:0:0:
133,68,96721,1,0,0:0:0:0:
133,68,96809,1,8,0:0:0:0:
195,138,96927,1,0,0:0:0:0:
195,138,97045,1,8,0:0:0:0:
195,138,97162,1,0,0:0:0:0:
195,138,97280,1,8,0:0:0:0:
195,138,97398,1,8,0:0:0:0:
191,78,97515,1,0,0:0:0:0:
191,78,97603,1,0,0:0:0:0:
187,86,97692,1,8,0:0:0:0:
188,83,97868,1,0,0:0:0:0:
157,68,97956,1,8,0:0:0:0:
157,68,98045,1,0,0:0:0:0:
157,68,98133,1,0,0:0:0:0:
157,68,98221,1,8,0:0:0:0:
195,65,98339,1,0,0:0:0:0:
195,65,98456,1,0,0:0:0:0:
195,65,98574,1,8,0:0:0:0:
194,66,98692,1,0,0:0:0:0:
191,67,98809,1,8,0:0:0:0:
162,82,98927,1,0,0:0:0:0:
162,82,99015,1,0,0:0:0:0:
164,76,99103,1,8,0:0:0:0:
162,95,99280,1,0,0:0:0:0:
163,93,99368,1,8,0:0:0:0:
163,93,99456,1,8,0:0:0:0:
163,93,99545,1,0,0:0:0:0:
162,88,99633,1,8,0:0:0:0:
206,55,99751,1,8,0:0:0:0:
206,55,99868,1,0,0:0:0:0:
206,55,99986,1,0,0:0:0:0:
202,59,100103,1,8,0:0:0:0:
202,60,100221,1,0,0:0:0:0:
163,106,100339,1,8,0:0:0:0:
163,107,100427,1,8,0:0:0:0:
163,107,100515,1,8,0:0:0:0:
163,108,100603,1,8,0:0:0:0:
163,108,100692,1,0,0:0:0:0:
163,106,100780,1,0,0:0:0:0:
163,106,100868,1,0,0:0:0:0:
163,106,100956,1,0,0:0:0:0:
163,106,101045,1,8,0:0:0:0:
206,83,101162,1,0,0:0:0:0:
206,83,101280,1,0,0:0:0:0:
151,59,101398,1,8,0:0:0:0:
151,59,101751,1,0,0:0:0:0:
209,296,101839,1,8,0:0:0:0:
209,296,101927,1,8,0:0:0:0:
209,296,102015,1,8,0:0:0:0:
209,296,102103,1,0,0:0:0:0:
164,92,102192,1,8,0:0:0:0:
164,92,102280,1,0,0:0:0:0:
164,92,102368,1,0,0:0:0:0:
164,92,102456,1,8,0:0:0:0:
168,178,102574,1,0,0:0:0:0:
168,178,102692,1,8,0:0:0:0:
168,178,102809,1,0,0:0:0:0:
168,178,102927,1,8,0:0:0:0:
168,178,103045,1,8,0:0:0:0:
166,212,103162,1,0,0:0:0:0:
166,212,103251,1,0,0:0:0:0:
152,221,103339,1,8,0:0:0:0:
152,221,103427,1,8,0:0:0:0:
156,214,103515,1,0,0:0:0:0:
156,214,103603,1,8,0:0:0:0:
152,221,103692,1,0,0:0:0:0:
156,213,103780,1,0,0:0:0:0:
152,221,103868,1,8,0:0:0:0:
179,59,103986,1,0,0:0:0:0:
179,59,104103,1,0,0:0:0:0:
179,59,104221,1,8,0:0:0:0:
176,63,104339,1,0,0:0:0:0:
179,59,104456,1,8,0:0:0:0:
147,222,104574,1,0,0:0:0:0:
146,222,104662,1,8,0:0:0:0:
147,222,104751,1,8,0:0:0:0:
146,222,104839,1,8,0:0:0:0:
152,221,104927,1,0,0:0:0:0:
147,222,105015,1,8,0:0:0:0:
147,222,105103,1,8,0:0:0:0:
147,222,105192,1,0,0:0:0:0:
153,73,105280,1,8,0:0:0:0:
213,87,105398,1,0,0:0:0:0:
213,92,105515,1,8,0:0:0:0:
213,92,105633,1,0,0:0:0:0:
213,92,105751,1,8,0:0:0:0:
213,92,105868,1,8,0:0:0:0:
142,97,105986,1,0,0:0:0:0:
142,97,106074,1,8,0:0:0:0:
142,97,106162,1,8,0:0:0:0:
142,97,106251,1,0,0:0:0:0:
142,97,106339,1,0,0:0:0:0:
177,61,106427,1,8,0:0:0:0:
177,61,106515,1,0,0:0:0:0:
177,61,106603,1,0,0:0:0:0:
177,61,106692,1,8,0:0:0:0:
200,42,106809,1,0,0:0:0:0:
200,42,106927,1,0,0:0:0:0:
200,42,107045,1,8,0:0:0:0:
176,141,107398,1,0,0:0:0:0:
176,141,107486,1,8,0:0:0:0:
176,141,107574,1,8,0:0:0:0:
176,141,107662,1,8,0:0:0:0:
176,141,107751,1,0,0:0:0:0:
176,141,107839,1,8,0:0:0:0:
176,141,107927,1,0,0:0:0:0:
176,141,108015,1,0,0:0:0:0:
176,141,108103,1,8,0:0:0:0:
200,49,108221,1,0,0:0:0:0:
200,49,108339,1,8,0:0:0:0:
200,49,108456,1,0,0:0:0:0:
200,49,108574,1,8,0:0:0:0:
200,49,108692,1,8,0:0:0:0:
189,76,108809,1,0,0:0:0:0:
183,84,108898,1,0,0:0:0:0:
189,76,108986,1,8,0:0:0:0:
189,76,109074,1,8,0:0:0:0:
189,76,109162,1,0,0:0:0:0:
183,84,109251,1,8,0:0:0:0:
189,76,109339,1,0,0:0:0:0:
189,76,109427,1,0,0:0:0:0:
189,76,109515,1,8,0:0:0:0:
181,97,109633,1,0,0:0:0:0:
179,102,109751,1,0,0:0:0:0:
179,102,109868,1,8,0:0:0:0:
179,102,109986,1,0,0:0:0:0:
179,102,110103,1,8,0:0:0:0:
182,84,110221,1,0,0:0:0:0:
182,85,110309,1,8,0:0:0:0:
182,87,110398,1,8,0:0:0:0:
182,87,110486,1,8,0:0:0:0:
182,84,110574,1,0,0:0:0:0:
182,84,110662,1,8,0:0:0:0:
182,84,110751,1,8,0:0:0:0:
182,84,110839,1,0,0:0:0:0:
182,84,110927,1,8,0:0:0:0:
200,82,111045,1,0,0:0:0:0:
200,82,111162,1,8,0:0:0:0:
200,82,111280,1,0,0:0:0:0:
200,82,111398,1,8,0:0:0:0:
200,82,111515,1,8,0:0:0:0:
169,51,111633,1,0,0:0:0:0:
165,54,111721,1,8,0:0:0:0:
165,54,111809,1,8,0:0:0:0:
169,51,111898,1,8,0:0:0:0:
169,51,111986,1,0,0:0:0:0:
169,51,112074,1,0,0:0:0:0:
165,54,112162,1,8,0:0:0:0:
165,54,112251,1,0,0:0:0:0:
165,54,112339,1,8,0:0:0:0:
186,99,112456,1,0,0:0:0:0:
186,99,112574,1,0,0:0:0:0:
186,99,112692,1,8,0:0:0:0:
198,226,113045,5,4,0:0:0:0:
160,164,113221,1,4,0:0:0:0:
160,164,113398,1,4,0:0:0:0:
227,201,113751,1,8,0:0:0:0:
195,95,113868,1,0,0:0:0:0:
195,95,113986,1,8,0:0:0:0:
186,83,114103,1,0,0:0:0:0:
195,95,114221,1,8,0:0:0:0:
195,95,114339,1,8,0:0:0:0:
155,180,114456,1,4,0:0:0:0:
155,180,114633,1,4,0:0:0:0:
155,180,114809,1,4,0:0:0:0:
223,206,115162,1,8,0:0:0:0:
155,180,115339,1,0,0:0:0:0:
229,193,115427,1,0,0:0:0:0:
229,193,115515,1,8,0:0:0:0:
218,126,115633,1,0,0:0:0:0:
218,126,115751,1,8,0:0:0:0:
155,180,115868,1,4,0:0:0:0:
129,133,116045,1,4,0:0:0:0:
129,133,116221,1,4,0:0:0:0:
204,151,116574,1,8,0:0:0:0:
177,107,116692,1,0,0:0:0:0:
177,107,116809,1,8,0:0:0:0:
177,107,116927,1,0,0:0:0:0:
177,107,117045,1,8,0:0:0:0:
177,107,117162,1,8,0:0:0:0:
132,138,117280,1,4,0:0:0:0:
132,138,117456,1,4,0:0:0:0:
132,138,117633,1,4,0:0:0:0:
205,153,117986,1,8,0:0:0:0:
205,153,118162,1,0,0:0:0:0:
205,153,118251,1,0,0:0:0:0:
205,153,118339,1,8,0:0:0:0:
132,138,118692,1,4,0:0:0:0:
132,138,118868,1,4,0:0:0:0:
132,138,119045,1,4,0:0:0:0:
176,147,119398,1,8,0:0:0:0:
169,99,119515,1,0,0:0:0:0:
169,99,119633,1,8,0:0:0:0:
169,99,119751,1,0,0:0:0:0:
169,99,119868,1,8,0:0:0:0:
169,99,119986,1,8,0:0:0:0:
132,138,120103,1,4,0:0:0:0:
132,138,120280,1,4,0:0:0:0:
132,138,120456,1,4,0:0:0:0:
190,172,120809,1,8,0:0:0:0:
132,138,120986,1,0,0:0:0:0:
251,104,121074,1,0,0:0:0:0:
251,104,121162,1,8,0:0:0:0:
183,66,121280,1,0,0:0:0:0:
183,66,121398,1,8,0:0:0:0:
132,138,121515,1,4,0:0:0:0:
132,138,121692,1,4,0:0:0:0:
132,138,121868,1,4,0:0:0:0:
189,171,122221,1,8,0:0:0:0:
173,111,122339,1,0,0:0:0:0:
173,111,122456,1,0,0:0:0:0:
173,111,122574,1,0,0:0:0:0:
173,111,122692,1,8,0:0:0:0:
168,72,122809,1,8,0:0:0:0:
131,145,122927,1,4,0:0:0:0:
131,145,123103,1,4,0:0:0:0:
131,145,123280,1,4,0:0:0:0:
186,168,123633,1,8,0:0:0:0:
131,145,123809,1,0,0:0:0:0:
186,168,123898,1,0,0:0:0:0:
186,168,123986,1,8,0:0:0:0:
175,148,124339,1,0,0:0:0:0:
175,148,124515,1,8,0:0:0:0:
182,153,124692,1,8,0:0:0:0:
210,102,124780,1,0,0:0:0:0:
181,152,124868,1,0,0:0:0:0:
181,152,124956,1,8,0:0:0:0:
192,91,125133,1,0,0:0:0:0:
192,91,125221,1,8,0:0:0:0:
166,84,125398,1,0,0:0:0:0:
166,96,125486,1,8,0:0:0:0:
166,84,125574,1,0,0:0:0:0:
210,102,125751,1,0,0:0:0:0:
210,101,125927,1,8,0:0:0:0:
210,101,126103,1,8,0:0:0:0:
181,73,126192,1,0,0:0:0:0:
181,72,126280,1,0,0:0:0:0:
181,72,126368,1,8,0:0:0:0:
191,72,126545,1,0,0:0:0:0:
191,77,126633,1,8,0:0:0:0:
186,106,126809,1,0,0:0:0:0:
186,106,126898,1,8,0:0:0:0:
186,107,127074,1,8,0:0:0:0:
185,98,127162,1,0,0:0:0:0:
193,188,127339,1,8,0:0:0:0:
193,188,127515,1,8,0:0:0:0:
196,159,127692,1,0,0:0:0:0:
198,163,127780,1,8,0:0:0:0:
170,120,127956,1,0,0:0:0:0:
170,120,128045,1,8,0:0:0:0:
171,133,128221,1,0,0:0:0:0:
171,133,128309,1,8,0:0:0:0:
171,133,128398,1,0,0:0:0:0:
181,106,128574,1,0,0:0:0:0:
181,108,128751,1,8,0:0:0:0:
181,108,128927,1,8,0:0:0:0:
181,108,129103,1,0,0:0:0:0:
186,83,129192,1,8,0:0:0:0:
250,92,129368,1,0,0:0:0:0:
181,120,129456,1,8,0:0:0:0:
153,101,129633,1,0,0:0:0:0:
153,101,129721,1,8,0:0:0:0:
177,91,129898,1,8,0:0:0:0:
177,91,129986,1,0,0:0:0:0:
185,112,130162,1,8,0:0:0:0:
185,112,130339,1,8,0:0:0:0:
203,61,130515,1,0,0:0:0:0:
205,87,130603,1,8,0:0:0:0:
207,93,130868,1,8,0:0:0:0:
211,151,131133,1,8,0:0:0:0:
214,155,131398,1,0,0:0:0:0:
214,155,131574,1,8,0:0:0:0:
214,155,131751,1,8,0:0:0:0:
202,62,131927,1,0,0:0:0:0:
211,151,132015,1,8,0:0:0:0:
213,147,132280,1,8,0:0:0:0:
213,147,132545,1,8,0:0:0:0:
215,148,132721,1,8,0:0:0:0:
211,151,132809,1,0,0:0:0:0:
214,161,132986,1,8,0:0:0:0:
214,161,133162,1,8,0:0:0:0:
214,161,133427,1,8,0:0:0:0:
214,161,133692,1,8,0:0:0:0:
196,135,133956,1,8,0:0:0:0:
196,135,134221,1,0,0:0:0:0:
177,144,134398,1,8,0:0:0:0:
196,135,134574,1,8,0:0:0:0:
191,158,134839,1,8,0:0:0:0:
191,158,135103,1,8,0:0:0:0:
191,158,135368,1,8,0:0:0:0:
188,133,135633,1,0,0:0:0:0:
210,216,137045,1,0,0:0:0:0:
211,216,138456,1,8,0:0:0:0:
204,133,139868,1,8,0:0:0:0:
211,185,141280,1,0,0:0:0:0:
216,184,142692,1,8,0:0:0:0:
216,183,144103,1,0,0:0:0:0:
216,183,145515,1,8,0:0:0:0:
217,180,146927,1,0,0:0:0:0:
