osu file format v14

[General]
AudioFilename: audio.mp3
AudioLeadIn: 0
PreviewTime: 144037
Countdown: 0
SampleSet: Normal
StackLeniency: 0.7
Mode: 1
LetterboxInBreaks: 0
WidescreenStoryboard: 0

[Editor]
Bookmarks: 12727,12815,14139,25433,48021,81903,93197,101668,112962,122844,145433
DistanceSpacing: 1.6
BeatDivisor: 12
GridSize: 32
TimelineZoom: 3.399999

[Metadata]
Title:DAYDREAM FANTASIA
TitleUnicode:デイドリームファンタジア
Artist:DIVELA feat. Hatsune Miku
ArtistUnicode:DIVELA feat. 初音ミク
Creator:SN707
Version:Oni
Source:
Tags:vocaloid electronic japanese ft. featuring synth rock jrock j-rock ディヴェラ KARENT
BeatmapID:4339057
BeatmapSetID:2073145

[Difficulty]
HPDrainRate:5
CircleSize:5
OverallDifficulty:5.5
ApproachRate:5
SliderMultiplier:1.4
SliderTickRate:1

[Events]
//Background and Video events
0,0,"daydream.jpg",0,70
//Break Periods
2,124472,134155
//Storyboard Layer 0 (Background)
//Storyboard Layer 1 (Fail)
//Storyboard Layer 2 (Pass)
//Storyboard Layer 3 (Foreground)
//Storyboard Layer 4 (Overlay)
//Storyboard Sound Samples

[TimingPoints]
-2786,352.941176470588,4,1,0,90,1,0
2126,-100,4,1,0,90,0,0
2214,-97.0873786407767,4,1,0,90,0,0
2302,-94.3396226415094,4,1,0,90,0,0
2479,-90.9090909090909,4,1,0,90,0,0
2567,-88.4955752212389,4,1,0,90,0,0
2655,-86.2068965517241,4,1,0,90,0,0
2861,-83.3333333333333,4,1,0,90,0,0
24713,-74.0740740740741,4,1,0,85,0,0
24875,-74.0740740740741,4,1,0,80,0,0
25052,-74.0740740740741,4,1,0,75,0,0
25228,-74.0740740740741,4,1,0,70,0,0
25405,-74.0740740740741,4,1,0,65,0,0
25655,-100,4,1,0,60,0,0
36713,-100,4,1,0,70,0,0
47655,-90.9090909090909,4,1,0,80,0,0
48037,-83.3333333333333,4,1,0,80,0,1
69890,-83.3333333333333,4,1,0,90,0,1
70625,-83.3333333333333,4,1,0,90,0,0
81184,-83.3333333333333,4,1,0,90,0,0
81361,-86.027397260274,4,1,0,90,0,0
81537,-88.8846952255143,4,1,0,90,0,0
81714,-91.9562670831706,4,1,0,90,0,0
81890,-95.2284674484432,4,1,0,90,0,0
82155,-100,4,1,0,60,0,0
98831,-100,4,1,0,60,0,0
99008,-98.5535670507477,4,1,0,63,0,0
99184,-97.1562072021268,4,1,0,67,0,0
99361,-95.7903097696585,4,1,0,70,0,0
99537,-94.4696851010497,4,1,0,73,0,0
99714,-93.1777794947076,4,1,0,77,0,0
99890,-91.9277383946947,4,1,0,80,0,0
100066,-90.9090909090909,4,1,0,90,0,0
100154,-89.6867976959696,4,1,0,90,0,0
100242,-87.9574829691146,4,1,0,90,0,0
100330,-86.019192087852,4,1,0,90,0,0
100419,-83.9471181805063,4,1,0,90,0,0
100595,-79.7226144012726,4,1,0,90,0,0
100683,-77.6077554834479,4,1,0,90,0,0
100772,-75.4930606760446,4,1,0,90,0,0
100860,-73.4384263834532,4,1,0,90,0,0
100948,-71.4285714285714,4,1,0,90,0,0
101655,-83.3333333333333,4,1,0,80,0,0
112243,-83.3333333333333,4,1,0,80,0,0
112331,-85.1012536162006,4,1,0,80,0,0
112420,-86.9672333086967,4,1,0,80,0,0
112508,-88.8944850163687,4,1,0,80,0,0
112596,-90.9090909090909,4,1,0,80,0,0
121419,-90.9090909090909,4,1,0,80,0,0
121595,-89.818195816944,4,1,0,80,0,0
121772,-88.2598438293711,4,1,0,80,0,0
121948,-86.5153183087864,4,1,0,80,0,0
122125,-84.6524955311707,4,1,0,90,0,0
122213,-83.7020812727399,4,1,0,90,0,0
122301,-82.7416580551175,4,1,0,90,0,0
122478,-80.7934564129286,4,1,0,90,0,0
122566,-79.8222323908032,4,1,0,90,0,0
122654,-78.8522548819006,4,1,0,90,0,0
122742,-77.8853495363065,4,1,0,90,0,0
122830,-76.9230769230769,4,1,0,90,0,0
123360,-100,4,1,0,60,0,0
124302,-125,4,1,0,60,0,0
139758,-125,4,1,0,60,0,0
140287,-116.840901720217,4,1,0,60,0,0
140464,-113.468728671562,4,1,0,60,0,0
140816,-106.660414136008,4,1,0,60,0,0
140993,-103.28502661407,4,1,0,60,0,0
141169,-100,4,1,0,30,0,0
141890,-125,4,1,0,30,0,0
142405,-133.333333333333,4,1,0,30,0,0
142581,-138.888888888889,4,1,0,30,0,0
144008,-117.647058823529,4,1,0,80,0,0
144360,-89.2857142857143,4,1,0,100,0,0
144537,-89.2857142857143,4,1,0,100,0,0
144714,-96.1454703832753,4,1,0,80,0,0
144890,-92.5964765100671,4,1,0,80,0,0
145067,-89.2821031344793,4,1,0,80,0,0
145155,-87.7210411285516,4,1,0,80,0,0
145243,-86.2136301503613,4,1,0,80,0,0
145449,-83.3333333333333,4,1,0,80,0,1
166066,-83.3333333333333,4,1,0,82,0,1
166243,-79.9939627197947,4,1,0,84,0,1
166331,-78.4313725490196,4,1,0,86,0,1
166419,-76.9286595543944,4,1,0,87,0,1
166596,-74.0740740740741,4,1,0,90,0,1
187772,-78.7401574803149,4,1,0,90,0,1
187949,-83.3333333333333,4,1,0,90,0,1
188126,-85.3725978155675,4,1,0,87,0,1
188302,-87.5017712909168,4,1,0,84,0,1
188479,-89.7529069767442,4,1,0,82,0,1
188567,-90.9157832744405,4,1,0,80,0,1
188655,-92.1091885441527,4,1,0,79,0,1
188831,-94.5925245098039,4,1,0,76,0,1
188920,-95.8999844696381,4,1,0,75,0,1
189008,-97.2287828688396,4,1,0,73,0,1
189213,-100,4,1,0,70,0,0

[HitObjects]
257,159,2155,5,8,0:0:0:0:
262,155,2243,1,8,0:0:0:0:
262,155,2331,1,0,0:0:0:0:
262,153,2508,1,8,0:0:0:0:
262,153,2596,1,8,0:0:0:0:
262,153,2684,1,0,0:0:0:0:
64,320,2861,5,12,0:0:0:0:
256,160,3037,1,0,0:0:0:0:
64,64,3125,1,0,0:0:0:0:
64,64,3213,1,8,0:0:0:0:
64,64,3390,1,8,0:0:0:0:
64,64,3478,1,0,0:0:0:0:
256,192,3655,1,8,0:0:0:0:
64,64,3743,1,8,0:0:0:0:
64,64,3919,1,8,0:0:0:0:
256,192,4096,1,0,0:0:0:0:
64,64,4272,5,8,0:0:0:0:
64,64,4537,1,8,0:0:0:0:
64,64,4625,1,0,0:0:0:0:
64,64,4802,1,0,0:0:0:0:
64,64,4890,1,8,0:0:0:0:
288,160,5066,1,0,0:0:0:0:
288,192,5155,1,0,0:0:0:0:
288,192,5331,1,0,0:0:0:0:
64,64,5684,5,8,0:0:0:0:
256,192,5861,1,0,0:0:0:0:
64,64,5949,1,0,0:0:0:0:
64,64,6037,1,8,0:0:0:0:
64,64,6213,1,8,0:0:0:0:
64,64,6302,1,0,0:0:0:0:
288,160,6478,1,0,0:0:0:0:
64,64,6566,1,8,0:0:0:0:
64,64,6743,1,8,0:0:0:0:
256,192,6919,1,0,0:0:0:0:
64,64,7096,5,0,0:0:0:0:
256,192,7272,1,0,0:0:0:0:
64,64,7361,1,8,0:0:0:0:
64,64,7449,1,8,0:0:0:0:
64,64,7625,1,0,0:0:0:0:
64,64,7713,1,8,0:0:0:0:
224,192,7890,1,0,0:0:0:0:
224,192,7978,1,0,0:0:0:0:
64,64,8155,1,8,0:0:0:0:
64,64,8243,1,8,0:0:0:0:
64,64,8331,1,8,0:0:0:0:
448,320,8508,1,4,0:0:0:0:
288,160,8684,1,0,0:0:0:0:
64,64,8772,1,0,0:0:0:0:
64,64,8861,1,8,0:0:0:0:
64,64,9037,1,8,0:0:0:0:
64,64,9125,1,0,0:0:0:0:
224,192,9302,1,0,0:0:0:0:
64,64,9390,1,8,0:0:0:0:
64,64,9566,1,8,0:0:0:0:
256,192,9743,1,0,0:0:0:0:
64,64,9919,5,8,0:0:0:0:
64,64,10184,1,8,0:0:0:0:
256,192,10272,1,0,0:0:0:0:
64,64,10449,1,0,0:0:0:0:
64,64,10537,1,8,0:0:0:0:
256,192,10713,5,0,0:0:0:0:
64,64,10802,1,0,0:0:0:0:
64,64,10978,1,8,0:0:0:0:
64,64,11331,1,0,0:0:0:0:
224,192,11508,1,8,0:0:0:0:
256,192,11596,1,8,0:0:0:0:
64,64,11684,1,0,0:0:0:0:
448,64,11861,1,8,0:0:0:0:
224,192,11949,1,0,0:0:0:0:
256,192,12125,1,0,0:0:0:0:
448,64,12213,1,8,0:0:0:0:
64,64,12390,1,0,0:0:0:0:
64,64,12566,1,8,0:0:0:0:
64,64,13449,1,8,0:0:0:0:
64,64,13625,1,0,0:0:0:0:
64,64,13802,5,8,0:0:0:0:
64,320,14155,1,12,0:0:0:0:
256,192,14331,1,0,0:0:0:0:
256,192,14419,1,0,0:0:0:0:
256,192,14508,1,8,0:0:0:0:
256,192,14684,1,8,0:0:0:0:
256,192,14772,1,0,0:0:0:0:
448,64,14949,1,8,0:0:0:0:
256,192,15037,1,8,0:0:0:0:
224,192,15213,1,0,0:0:0:0:
256,160,15390,5,8,0:0:0:0:
224,192,15478,1,0,0:0:0:0:
256,160,15566,1,8,0:0:0:0:
448,64,15831,1,8,0:0:0:0:
224,160,15919,1,0,0:0:0:0:
256,192,16096,1,0,0:0:0:0:
256,160,16184,1,8,0:0:0:0:
256,192,16361,1,0,0:0:0:0:
448,64,16449,1,0,0:0:0:0:
256,192,16625,5,8,0:0:0:0:
448,64,16713,1,8,0:0:0:0:
448,64,16802,1,8,0:0:0:0:
448,64,16890,1,8,0:0:0:0:
256,192,16978,1,0,0:0:0:0:
256,192,17155,1,8,0:0:0:0:
64,64,17243,1,0,0:0:0:0:
224,192,17331,1,8,0:0:0:0:
64,64,17508,1,8,0:0:0:0:
64,64,17596,1,0,0:0:0:0:
64,64,17772,1,8,0:0:0:0:
224,192,17861,1,8,0:0:0:0:
224,192,18037,5,0,0:0:0:0:
256,192,18213,1,8,0:0:0:0:
256,192,18302,1,8,0:0:0:0:
256,192,18390,1,8,0:0:0:0:
64,64,18655,1,0,0:0:0:0:
256,192,18743,1,8,0:0:0:0:
256,192,18919,1,8,0:0:0:0:
448,64,19008,1,0,0:0:0:0:
256,192,19449,1,8,0:0:0:0:
256,192,19537,1,8,0:0:0:0:
256,192,19625,1,8,0:0:0:0:
64,320,19802,1,4,0:0:0:0:
256,192,19978,1,8,0:0:0:0:
64,64,20066,1,0,0:0:0:0:
448,64,20155,1,8,0:0:0:0:
256,192,20331,1,0,0:0:0:0:
448,64,20419,1,0,0:0:0:0:
224,192,20596,1,8,0:0:0:0:
224,192,20684,1,8,0:0:0:0:
224,192,20861,1,0,0:0:0:0:
224,192,21037,5,8,0:0:0:0:
224,192,21125,1,8,0:0:0:0:
224,192,21213,1,0,0:0:0:0:
448,64,21478,1,8,0:0:0:0:
192,192,21566,1,8,0:0:0:0:
192,160,21743,1,0,0:0:0:0:
448,64,21831,1,0,0:0:0:0:
448,64,22008,1,0,0:0:0:0:
256,192,22096,5,0,0:0:0:0:
256,192,22272,1,8,0:0:0:0:
256,224,22361,1,8,0:0:0:0:
256,224,22449,1,0,0:0:0:0:
256,192,22537,1,0,0:0:0:0:
64,64,22625,1,8,0:0:0:0:
448,64,22802,1,0,0:0:0:0:
224,192,22890,1,0,0:0:0:0:
224,192,22978,1,8,0:0:0:0:
224,192,23155,5,0,0:0:0:0:
224,192,23243,1,8,0:0:0:0:
224,192,23419,1,8,0:0:0:0:
224,192,23508,5,0,0:0:0:0:
224,192,23684,1,8,0:0:0:0:
256,192,23861,1,0,0:0:0:0:
224,192,23949,1,0,0:0:0:0:
224,192,24037,1,0,0:0:0:0:
256,192,24213,1,8,0:0:0:0:
448,64,24302,1,0,0:0:0:0:
64,64,24478,1,0,0:0:0:0:
448,64,24566,1,8,0:0:0:0:
256,192,24743,5,4,0:0:0:0:
256,192,24919,5,12,0:0:0:0:
256,192,25096,5,12,0:0:0:0:
256,192,25272,5,4,0:0:0:0:
64,64,25449,5,12,0:0:0:0:
64,64,25713,1,0,0:0:0:0:
227,169,25802,1,0,0:0:0:0:
64,64,25978,1,0,0:0:0:0:
448,64,26155,1,8,0:0:0:0:
64,64,26331,1,8,0:0:0:0:
64,64,26508,1,0,0:0:0:0:
64,64,26684,1,0,0:0:0:0:
64,64,27213,5,8,0:0:0:0:
64,64,27566,1,8,0:0:0:0:
64,64,27743,1,8,0:0:0:0:
64,64,28096,1,8,0:0:0:0:
64,64,28449,1,0,0:0:0:0:
64,64,28802,1,8,0:0:0:0:
448,64,29155,1,8,0:0:0:0:
448,64,29331,1,8,0:0:0:0:
64,64,29508,1,0,0:0:0:0:
64,64,30213,1,8,0:0:0:0:
448,64,30390,1,8,0:0:0:0:
64,64,30566,1,0,0:0:0:0:
64,64,30743,1,8,0:0:0:0:
64,64,30919,1,0,0:0:0:0:
448,64,31096,1,8,0:0:0:0:
64,64,31361,1,0,0:0:0:0:
64,64,31449,1,0,0:0:0:0:
64,64,31625,1,8,0:0:0:0:
64,64,31802,1,0,0:0:0:0:
64,64,31978,1,0,0:0:0:0:
448,64,32155,1,8,0:0:0:0:
64,64,32331,1,8,0:0:0:0:
64,64,32861,1,8,0:0:0:0:
64,64,33213,1,8,0:0:0:0:
64,64,33390,1,0,0:0:0:0:
64,64,33743,1,8,0:0:0:0:
64,64,34096,1,8,0:0:0:0:
64,64,34449,1,0,0:0:0:0:
64,64,34802,1,8,0:0:0:0:
64,64,34978,1,8,0:0:0:0:
64,64,35155,1,8,0:0:0:0:
64,64,35861,1,8,0:0:0:0:
64,64,36037,1,0,0:0:0:0:
64,64,36213,1,8,0:0:0:0:
64,64,36390,1,8,0:0:0:0:
64,320,36743,5,4,0:0:0:0:
256,160,36919,1,8,0:0:0:0:
64,64,37096,1,8,0:0:0:0:
256,160,37272,1,0,0:0:0:0:
64,64,37449,1,0,0:0:0:0:
64,64,37625,1,8,0:0:0:0:
256,160,37802,1,8,0:0:0:0:
64,64,37978,1,0,0:0:0:0:
64,64,38155,1,8,0:0:0:0:
256,160,38331,1,0,0:0:0:0:
64,64,38508,1,8,0:0:0:0:
64,64,38684,1,0,0:0:0:0:
64,64,39037,1,8,0:0:0:0:
256,192,39213,1,0,0:0:0:0:
64,64,39566,5,8,0:0:0:0:
64,64,39743,1,0,0:0:0:0:
64,64,39919,1,8,0:0:0:0:
256,160,40096,1,0,0:0:0:0:
64,64,40272,1,0,0:0:0:0:
64,64,40449,1,8,0:0:0:0:
256,192,40625,1,0,0:0:0:0:
64,64,40802,1,0,0:0:0:0:
64,64,40978,1,8,0:0:0:0:
256,160,41155,1,0,0:0:0:0:
64,64,41331,1,8,0:0:0:0:
64,64,41508,1,0,0:0:0:0:
64,64,41861,1,8,0:0:0:0:
64,64,42037,1,0,0:0:0:0:
256,192,42390,5,12,0:0:0:0:
64,64,42743,1,0,0:0:0:0:
256,192,42919,1,8,0:0:0:0:
256,192,43096,1,0,0:0:0:0:
448,64,43272,1,0,0:0:0:0:
256,160,43449,1,8,0:0:0:0:
256,160,43537,1,8,0:0:0:0:
64,64,43625,1,0,0:0:0:0:
448,64,43802,1,8,0:0:0:0:
256,192,43978,1,8,0:0:0:0:
256,192,44155,1,8,0:0:0:0:
256,192,44331,1,0,0:0:0:0:
224,192,44508,1,8,0:0:0:0:
256,192,44596,1,0,0:0:0:0:
256,192,44684,1,0,0:0:0:0:
64,64,44861,1,0,0:0:0:0:
256,192,45213,5,8,0:0:0:0:
64,64,45390,1,0,0:0:0:0:
256,192,45566,1,8,0:0:0:0:
256,192,45743,1,0,0:0:0:0:
256,192,45919,1,8,0:0:0:0:
448,64,46096,1,8,0:0:0:0:
256,192,46449,1,0,0:0:0:0:
256,192,46625,12,0,47508,0:0:0:0:
448,320,47684,5,12,0:0:0:0:
256,192,48037,1,8,0:0:0:0:
256,192,48125,1,8,0:0:0:0:
256,192,48213,1,0,0:0:0:0:
256,192,48390,5,0,0:0:0:0:
256,192,48566,1,8,0:0:0:0:
224,192,48743,1,8,0:0:0:0:
256,192,48919,1,0,0:0:0:0:
256,192,49096,1,8,0:0:0:0:
256,224,49184,1,0,0:0:0:0:
256,192,49272,1,8,0:0:0:0:
256,192,49361,1,8,0:0:0:0:
256,224,49449,1,0,0:0:0:0:
256,224,49625,5,8,0:0:0:0:
64,64,49802,1,0,0:0:0:0:
256,192,49890,1,8,0:0:0:0:
448,64,49978,1,0,0:0:0:0:
448,64,50066,1,0,0:0:0:0:
256,192,50155,1,8,0:0:0:0:
256,192,50508,5,8,0:0:0:0:
64,64,50596,1,0,0:0:0:0:
288,192,50684,1,0,0:0:0:0:
256,192,50861,1,0,0:0:0:0:
448,64,51037,1,8,0:0:0:0:
288,192,51213,1,8,0:0:0:0:
288,192,51390,1,8,0:0:0:0:
64,64,51478,1,0,0:0:0:0:
288,192,51566,1,0,0:0:0:0:
288,192,51743,1,8,0:0:0:0:
288,224,51831,1,8,0:0:0:0:
288,224,51919,1,8,0:0:0:0:
288,192,52096,1,0,0:0:0:0:
288,192,52272,1,0,0:0:0:0:
288,192,52449,5,0,0:0:0:0:
288,192,52537,1,0,0:0:0:0:
288,192,52625,1,8,0:0:0:0:
288,192,52713,1,0,0:0:0:0:
288,192,52802,1,8,0:0:0:0:
448,64,52978,1,8,0:0:0:0:
256,224,53331,1,8,0:0:0:0:
256,224,53419,1,8,0:0:0:0:
256,224,53508,1,0,0:0:0:0:
256,224,53684,5,12,0:0:0:0:
224,256,54037,1,8,0:0:0:0:
256,224,54213,1,0,0:0:0:0:
256,224,54390,1,8,0:0:0:0:
288,192,54478,1,8,0:0:0:0:
224,224,54566,1,0,0:0:0:0:
256,224,54743,1,8,0:0:0:0:
256,224,54831,1,0,0:0:0:0:
64,64,54919,1,8,0:0:0:0:
224,224,55096,1,0,0:0:0:0:
64,64,55449,1,0,0:0:0:0:
224,224,55625,1,8,0:0:0:0:
256,224,55802,1,0,0:0:0:0:
448,64,55890,1,0,0:0:0:0:
224,224,55978,1,8,0:0:0:0:
64,64,56155,1,0,0:0:0:0:
224,224,56243,1,0,0:0:0:0:
448,64,56331,1,8,0:0:0:0:
224,224,56419,1,0,0:0:0:0:
256,224,56508,1,8,0:0:0:0:
224,224,56684,5,0,0:0:0:0:
448,64,56861,1,8,0:0:0:0:
224,224,56949,1,8,0:0:0:0:
224,224,57037,1,0,0:0:0:0:
224,224,57125,1,0,0:0:0:0:
224,224,57213,1,8,0:0:0:0:
224,224,57390,1,0,0:0:0:0:
224,224,57478,1,0,0:0:0:0:
224,224,57566,1,8,0:0:0:0:
64,64,57743,1,8,0:0:0:0:
224,192,57919,1,0,0:0:0:0:
224,224,58272,1,8,0:0:0:0:
224,224,58449,1,0,0:0:0:0:
448,64,58537,1,8,0:0:0:0:
224,224,58625,1,0,0:0:0:0:
224,224,58802,1,0,0:0:0:0:
256,224,58978,1,8,0:0:0:0:
256,224,59066,1,8,0:0:0:0:
448,64,59155,1,8,0:0:0:0:
64,320,59331,1,4,0:0:0:0:
448,64,59508,1,8,0:0:0:0:
256,224,59596,1,0,0:0:0:0:
256,224,59684,1,8,0:0:0:0:
256,224,59861,1,0,0:0:0:0:
64,64,59949,1,0,0:0:0:0:
256,224,60037,1,8,0:0:0:0:
224,224,60125,1,8,0:0:0:0:
224,224,60213,1,0,0:0:0:0:
224,224,60390,1,8,0:0:0:0:
224,224,60566,1,0,0:0:0:0:
256,256,60919,1,8,0:0:0:0:
256,256,61096,1,0,0:0:0:0:
256,224,61272,1,8,0:0:0:0:
288,256,61449,1,8,0:0:0:0:
256,256,61802,5,8,0:0:0:0:
256,256,61978,1,8,0:0:0:0:
64,64,62155,1,0,0:0:0:0:
256,256,62243,1,8,0:0:0:0:
256,256,62331,1,0,0:0:0:0:
256,256,62508,1,8,0:0:0:0:
256,192,62596,1,8,0:0:0:0:
256,256,62684,1,0,0:0:0:0:
256,256,62861,1,0,0:0:0:0:
256,256,63037,1,8,0:0:0:0:
448,64,63125,1,8,0:0:0:0:
64,64,63213,1,0,0:0:0:0:
256,256,63390,1,8,0:0:0:0:
256,256,63566,1,8,0:0:0:0:
288,256,63743,1,0,0:0:0:0:
448,64,63831,1,8,0:0:0:0:
256,256,63919,1,0,0:0:0:0:
256,192,64096,1,0,0:0:0:0:
256,192,64272,1,8,0:0:0:0:
224,224,64361,1,0,0:0:0:0:
256,224,64449,1,8,0:0:0:0:
256,224,64625,1,0,0:0:0:0:
224,224,64713,1,8,0:0:0:0:
256,224,64802,1,0,0:0:0:0:
256,224,64978,5,12,0:0:0:0:
256,192,65331,1,0,0:0:0:0:
256,192,65508,1,8,0:0:0:0:
256,192,65684,1,0,0:0:0:0:
448,64,65772,1,0,0:0:0:0:
448,64,65861,1,0,0:0:0:0:
256,192,66037,1,8,0:0:0:0:
448,64,66125,1,8,0:0:0:0:
256,192,66213,1,0,0:0:0:0:
256,160,66302,1,0,0:0:0:0:
448,64,66390,1,8,0:0:0:0:
256,192,66743,1,0,0:0:0:0:
256,192,66919,5,8,0:0:0:0:
64,64,67008,1,0,0:0:0:0:
256,192,67096,1,8,0:0:0:0:
256,192,67272,1,0,0:0:0:0:
256,192,67361,1,8,0:0:0:0:
256,192,67625,1,0,0:0:0:0:
256,192,67713,1,0,0:0:0:0:
256,192,67802,1,0,0:0:0:0:
224,192,67978,1,8,0:0:0:0:
64,64,68155,1,0,0:0:0:0:
224,224,68243,1,8,0:0:0:0:
224,224,68419,1,8,0:0:0:0:
64,64,68508,1,0,0:0:0:0:
224,224,68684,1,8,0:0:0:0:
224,224,68772,1,8,0:0:0:0:
256,224,68861,1,0,0:0:0:0:
256,224,69037,1,0,0:0:0:0:
256,192,69213,5,8,0:0:0:0:
256,224,69566,1,0,0:0:0:0:
256,224,69743,1,0,0:0:0:0:
448,64,69919,1,0,0:0:0:0:
256,224,70008,1,8,0:0:0:0:
256,224,70096,1,0,0:0:0:0:
256,224,70272,1,8,0:0:0:0:
256,224,70361,1,0,0:0:0:0:
448,64,70449,1,8,0:0:0:0:
64,320,70625,1,4,0:0:0:0:
256,224,70802,1,8,0:0:0:0:
64,64,70890,1,0,0:0:0:0:
256,192,70978,1,8,0:0:0:0:
256,192,71155,1,8,0:0:0:0:
256,192,71243,1,0,0:0:0:0:
448,64,71419,1,0,0:0:0:0:
256,192,71508,1,0,0:0:0:0:
224,192,71684,1,8,0:0:0:0:
256,160,71861,5,8,0:0:0:0:
224,192,71949,1,0,0:0:0:0:
256,160,72037,1,8,0:0:0:0:
448,64,72302,1,0,0:0:0:0:
224,159,72390,1,8,0:0:0:0:
256,192,72566,1,8,0:0:0:0:
256,160,72655,1,0,0:0:0:0:
256,192,72831,1,8,0:0:0:0:
448,64,72919,1,8,0:0:0:0:
256,192,73096,5,0,0:0:0:0:
448,64,73184,1,8,0:0:0:0:
256,192,73272,1,8,0:0:0:0:
448,64,73361,1,8,0:0:0:0:
256,192,73449,1,0,0:0:0:0:
256,192,73625,1,8,0:0:0:0:
64,64,73713,1,0,0:0:0:0:
224,192,73802,1,8,0:0:0:0:
64,64,73978,1,8,0:0:0:0:
224,192,74066,1,0,0:0:0:0:
448,64,74243,1,8,0:0:0:0:
224,192,74331,1,8,0:0:0:0:
224,192,74508,5,0,0:0:0:0:
256,192,74684,1,8,0:0:0:0:
256,192,74772,1,8,0:0:0:0:
256,192,74861,1,8,0:0:0:0:
256,192,75125,1,0,0:0:0:0:
256,192,75213,1,8,0:0:0:0:
256,192,75390,1,8,0:0:0:0:
256,192,75478,1,0,0:0:0:0:
256,192,75919,1,8,0:0:0:0:
256,192,76008,1,8,0:0:0:0:
256,192,76096,1,8,0:0:0:0:
64,320,76272,1,4,0:0:0:0:
256,192,76449,1,8,0:0:0:0:
448,64,76537,1,8,0:0:0:0:
448,64,76625,1,8,0:0:0:0:
256,192,76802,1,0,0:0:0:0:
448,64,76890,1,8,0:0:0:0:
224,192,77066,1,8,0:0:0:0:
224,192,77155,1,0,0:0:0:0:
224,192,77331,1,8,0:0:0:0:
224,192,77508,5,0,0:0:0:0:
224,192,77596,1,8,0:0:0:0:
224,192,77684,1,0,0:0:0:0:
64,64,77949,1,0,0:0:0:0:
192,192,78037,1,0,0:0:0:0:
192,160,78213,1,8,0:0:0:0:
448,64,78302,1,8,0:0:0:0:
64,64,78478,1,0,0:0:0:0:
256,192,78566,5,0,0:0:0:0:
256,192,78743,1,8,0:0:0:0:
256,224,78831,1,0,0:0:0:0:
256,224,78919,1,0,0:0:0:0:
256,192,79008,1,0,0:0:0:0:
256,224,79096,1,8,0:0:0:0:
256,224,79272,5,0,0:0:0:0:
224,192,79361,1,0,0:0:0:0:
224,192,79449,1,8,0:0:0:0:
224,192,79625,5,8,0:0:0:0:
224,192,79713,1,8,0:0:0:0:
448,64,79890,1,0,0:0:0:0:
224,192,79978,5,0,0:0:0:0:
224,192,80155,5,8,0:0:0:0:
256,192,80331,1,0,0:0:0:0:
448,64,80419,1,8,0:0:0:0:
64,64,80508,1,0,0:0:0:0:
256,192,80684,1,8,0:0:0:0:
448,64,80772,1,8,0:0:0:0:
256,192,80949,1,0,0:0:0:0:
256,192,81037,1,0,0:0:0:0:
256,192,81213,5,0,0:0:0:0:
256,192,81390,5,8,0:0:0:0:
256,192,81566,5,8,0:0:0:0:
256,192,81743,5,0,0:0:0:0:
64,64,81919,5,12,0:0:0:0:
64,64,82184,1,0,0:0:0:0:
256,192,82449,1,0,0:0:0:0:
256,192,82625,1,8,0:0:0:0:
256,192,82802,1,0,0:0:0:0:
256,192,82978,1,8,0:0:0:0:
256,192,83155,1,8,0:0:0:0:
256,192,83684,5,8,0:0:0:0:
256,192,84037,1,8,0:0:0:0:
256,192,84213,1,0,0:0:0:0:
256,192,84566,1,8,0:0:0:0:
256,192,84919,1,0,0:0:0:0:
256,192,85272,1,0,0:0:0:0:
256,192,85625,1,0,0:0:0:0:
256,192,85802,1,8,0:0:0:0:
256,192,85978,1,8,0:0:0:0:
224,192,86331,1,0,0:0:0:0:
256,192,86508,1,8,0:0:0:0:
256,192,86684,1,0,0:0:0:0:
256,192,86772,1,0,0:0:0:0:
256,192,86861,1,8,0:0:0:0:
256,192,87037,1,0,0:0:0:0:
256,192,87213,1,8,0:0:0:0:
256,192,87302,1,8,0:0:0:0:
288,192,87390,1,0,0:0:0:0:
288,192,87566,5,12,0:0:0:0:
64,64,87831,1,0,0:0:0:0:
448,64,87919,1,8,0:0:0:0:
256,192,88096,1,8,0:0:0:0:
256,192,88272,1,0,0:0:0:0:
256,192,88449,1,8,0:0:0:0:
256,192,88625,1,0,0:0:0:0:
288,192,88802,1,0,0:0:0:0:
256,192,89155,1,0,0:0:0:0:
288,192,89331,1,8,0:0:0:0:
288,192,89684,1,8,0:0:0:0:
288,192,89861,1,8,0:0:0:0:
288,192,90213,1,8,0:0:0:0:
288,192,90566,1,8,0:0:0:0:
256,192,90919,1,0,0:0:0:0:
256,192,91272,1,0,0:0:0:0:
256,192,91449,1,8,0:0:0:0:
256,192,91625,1,8,0:0:0:0:
256,128,91978,1,0,0:0:0:0:
256,192,92155,5,8,0:0:0:0:
256,192,92331,1,8,0:0:0:0:
256,192,92419,1,8,0:0:0:0:
256,192,92508,1,0,0:0:0:0:
256,192,92684,1,0,0:0:0:0:
256,192,92861,1,8,0:0:0:0:
256,192,92949,1,0,0:0:0:0:
256,192,93037,1,8,0:0:0:0:
256,192,93213,5,4,0:0:0:0:
256,192,93566,1,0,0:0:0:0:
256,192,93743,1,0,0:0:0:0:
288,224,93919,1,8,0:0:0:0:
256,192,94096,1,8,0:0:0:0:
256,192,94272,1,0,0:0:0:0:
256,192,94449,1,8,0:0:0:0:
64,64,94625,1,0,0:0:0:0:
288,192,94802,5,8,0:0:0:0:
256,192,94978,1,8,0:0:0:0:
256,192,95155,1,0,0:0:0:0:
448,320,95508,1,12,0:0:0:0:
320,160,95861,1,0,0:0:0:0:
320,160,96037,5,8,0:0:0:0:
288,192,96302,1,0,0:0:0:0:
320,160,96566,1,0,0:0:0:0:
320,160,96655,1,8,0:0:0:0:
320,160,96743,1,8,0:0:0:0:
320,160,96919,1,0,0:0:0:0:
320,160,97096,1,8,0:0:0:0:
320,160,97272,1,8,0:0:0:0:
320,160,97625,5,0,0:0:0:0:
320,160,97802,1,8,0:0:0:0:
320,128,97978,1,0,0:0:0:0:
320,160,98155,1,8,0:0:0:0:
288,128,98331,1,8,0:0:0:0:
320,128,98508,1,0,0:0:0:0:
64,64,98684,1,0,0:0:0:0:
448,320,98861,1,12,0:0:0:0:
320,160,99213,1,8,0:0:0:0:
320,160,99390,5,0,0:0:0:0:
320,160,99566,1,8,0:0:0:0:
320,160,99743,5,0,0:0:0:0:
320,160,99919,1,8,0:0:0:0:
320,160,100096,5,0,0:0:0:0:
320,160,100184,1,0,0:0:0:0:
320,160,100272,1,8,0:0:0:0:
448,64,100361,1,8,0:0:0:0:
320,128,100449,1,0,0:0:0:0:
320,128,100625,1,8,0:0:0:0:
320,128,100713,1,0,0:0:0:0:
320,128,100802,1,8,0:0:0:0:
320,128,100890,1,0,0:0:0:0:
320,128,100978,1,8,0:0:0:0:
320,128,101684,5,12,0:0:0:0:
320,128,101861,1,0,0:0:0:0:
448,64,102037,1,8,0:0:0:0:
64,64,102125,1,0,0:0:0:0:
448,64,102213,1,8,0:0:0:0:
64,64,102390,1,0,0:0:0:0:
448,64,102566,1,8,0:0:0:0:
448,64,102655,1,8,0:0:0:0:
64,64,102831,1,0,0:0:0:0:
448,64,102919,1,8,0:0:0:0:
64,64,103096,1,0,0:0:0:0:
448,64,103272,1,8,0:0:0:0:
448,64,103361,1,8,0:0:0:0:
64,64,103537,1,0,0:0:0:0:
448,64,103625,1,8,0:0:0:0:
448,64,103802,1,8,0:0:0:0:
448,64,103978,1,0,0:0:0:0:
64,64,104155,1,0,0:0:0:0:
64,64,104508,5,0,0:0:0:0:
64,64,104684,1,0,0:0:0:0:
64,64,104861,1,0,0:0:0:0:
64,64,104949,1,0,0:0:0:0:
448,64,105037,1,8,0:0:0:0:
64,64,105213,1,0,0:0:0:0:
448,64,105390,1,8,0:0:0:0:
64,64,105478,1,0,0:0:0:0:
64,64,105655,1,0,0:0:0:0:
448,64,105743,1,8,0:0:0:0:
64,64,105919,1,0,0:0:0:0:
64,64,106096,1,8,0:0:0:0:
448,64,106184,1,8,0:0:0:0:
448,64,106272,1,0,0:0:0:0:
64,64,106449,1,0,0:0:0:0:
448,64,106625,1,8,0:0:0:0:
64,64,106802,1,0,0:0:0:0:
64,64,106978,1,0,0:0:0:0:
64,320,107331,5,4,0:0:0:0:
448,64,107508,1,8,0:0:0:0:
448,64,107684,1,8,0:0:0:0:
64,64,107772,1,8,0:0:0:0:
64,64,107861,1,0,0:0:0:0:
448,64,108037,1,8,0:0:0:0:
64,64,108213,1,0,0:0:0:0:
448,64,108302,1,8,0:0:0:0:
448,64,108478,1,8,0:0:0:0:
64,64,108566,1,0,0:0:0:0:
64,64,108743,1,8,0:0:0:0:
64,64,108919,1,0,0:0:0:0:
448,64,109008,1,8,0:0:0:0:
448,64,109184,1,8,0:0:0:0:
64,64,109272,1,0,0:0:0:0:
448,64,109449,1,8,0:0:0:0:
64,64,109537,1,8,0:0:0:0:
448,64,109625,1,8,0:0:0:0:
448,64,109802,1,0,0:0:0:0:
64,64,109890,1,0,0:0:0:0:
448,64,109978,1,0,0:0:0:0:
448,64,110155,5,8,0:0:0:0:
64,64,110331,1,0,0:0:0:0:
448,64,110508,1,8,0:0:0:0:
64,64,110596,1,0,0:0:0:0:
448,64,110684,1,8,0:0:0:0:
448,64,110861,1,8,0:0:0:0:
448,64,111037,1,8,0:0:0:0:
64,64,111125,1,0,0:0:0:0:
64,64,111302,1,0,0:0:0:0:
448,64,111390,1,8,0:0:0:0:
448,64,111566,1,8,0:0:0:0:
448,64,111743,1,0,0:0:0:0:
64,64,111831,1,8,0:0:0:0:
64,64,111919,1,0,0:0:0:0:
448,64,112096,1,8,0:0:0:0:
448,64,112272,1,0,0:0:0:0:
64,64,112361,1,8,0:0:0:0:
448,64,112449,1,8,0:0:0:0:
448,64,112537,1,8,0:0:0:0:
64,64,112625,1,0,0:0:0:0:
448,320,112978,5,12,0:0:0:0:
448,320,113155,1,12,0:0:0:0:
64,64,113331,1,0,0:0:0:0:
448,64,113419,1,8,0:0:0:0:
64,64,113508,1,0,0:0:0:0:
64,64,113684,1,0,0:0:0:0:
448,64,113861,1,8,0:0:0:0:
64,64,113949,1,0,0:0:0:0:
64,64,114125,1,0,0:0:0:0:
448,64,114213,1,8,0:0:0:0:
64,320,114390,5,4,0:0:0:0:
64,320,114655,1,4,0:0:0:0:
64,320,114919,1,4,0:0:0:0:
448,320,115096,1,12,0:0:0:0:
448,64,115449,1,8,0:0:0:0:
64,64,115537,1,0,0:0:0:0:
64,64,115625,1,0,0:0:0:0:
64,320,115802,5,12,0:0:0:0:
64,320,115978,1,12,0:0:0:0:
448,64,116155,1,0,0:0:0:0:
64,64,116243,1,0,0:0:0:0:
64,64,116331,1,0,0:0:0:0:
448,64,116508,1,8,0:0:0:0:
64,64,116684,1,0,0:0:0:0:
64,64,116772,1,0,0:0:0:0:
448,64,116949,1,8,0:0:0:0:
448,64,117037,1,8,0:0:0:0:
64,320,117213,5,4,0:0:0:0:
64,320,117390,1,4,0:0:0:0:
448,64,117566,1,8,0:0:0:0:
448,64,117655,1,8,0:0:0:0:
448,64,117743,1,8,0:0:0:0:
64,320,117919,1,4,0:0:0:0:
448,64,118096,1,8,0:0:0:0:
64,320,118272,1,4,0:0:0:0:
448,64,118449,1,8,0:0:0:0:
64,64,118625,5,0,0:0:0:0:
448,64,118743,1,0,0:0:0:0:
448,64,118861,1,8,0:0:0:0:
64,64,118978,1,8,0:0:0:0:
448,64,119096,1,8,0:0:0:0:
448,64,119213,1,8,0:0:0:0:
64,64,119331,1,0,0:0:0:0:
64,64,119508,5,0,0:0:0:0:
448,64,119596,1,8,0:0:0:0:
448,64,119772,1,8,0:0:0:0:
64,64,119861,1,0,0:0:0:0:
448,320,120037,1,12,0:0:0:0:
64,64,120213,1,0,0:0:0:0:
448,64,120302,1,8,0:0:0:0:
448,64,120478,1,8,0:0:0:0:
64,64,120566,1,0,0:0:0:0:
64,320,120743,5,4,0:0:0:0:
64,320,121008,5,4,0:0:0:0:
64,320,121272,5,4,0:0:0:0:
448,320,121449,5,12,0:0:0:0:
64,64,121625,1,0,0:0:0:0:
448,64,121802,1,8,0:0:0:0:
64,64,121978,1,0,0:0:0:0:
448,64,122155,5,8,0:0:0:0:
448,64,122243,1,8,0:0:0:0:
64,64,122331,1,0,0:0:0:0:
448,64,122508,1,8,0:0:0:0:
448,64,122596,1,8,0:0:0:0:
64,64,122684,1,0,0:0:0:0:
64,64,122772,1,0,0:0:0:0:
448,64,122861,1,8,0:0:0:0:
64,64,123390,5,0,0:0:0:0:
448,64,123566,1,8,0:0:0:0:
448,64,123743,1,8,0:0:0:0:
64,64,123919,1,0,0:0:0:0:
64,64,124096,1,0,0:0:0:0:
448,64,124272,1,8,0:0:0:0:
256,192,135566,5,0,0:0:0:0:
448,64,136272,1,8,0:0:0:0:
256,192,136802,1,8,0:0:0:0:
448,64,137155,1,0,0:0:0:0:
64,64,137331,1,0,0:0:0:0:
448,64,137508,1,8,0:0:0:0:
448,64,137684,1,8,0:0:0:0:
256,224,138037,1,0,0:0:0:0:
448,64,138213,1,8,0:0:0:0:
448,64,138390,5,8,0:0:0:0:
448,64,139096,1,8,0:0:0:0:
448,64,139625,1,0,0:0:0:0:
288,192,139802,1,0,0:0:0:0:
448,64,140331,1,8,0:0:0:0:
448,64,140508,1,8,0:0:0:0:
64,64,140861,1,0,0:0:0:0:
256,192,141037,1,0,0:0:0:0:
448,64,141213,5,8,0:0:0:0:
256,192,141919,1,0,0:0:0:0:
448,64,142449,1,8,0:0:0:0:
448,64,144037,5,8,0:0:0:0:
64,320,144390,1,4,0:0:0:0:
64,320,144566,1,4,0:0:0:0:
448,64,144743,1,8,0:0:0:0:
256,192,144919,1,0,0:0:0:0:
448,64,145096,1,8,0:0:0:0:
448,64,145184,1,8,0:0:0:0:
448,64,145272,1,8,0:0:0:0:
448,64,145449,5,4,0:0:0:0:
448,64,145625,1,8,0:0:0:0:
448,64,145802,1,8,0:0:0:0:
64,64,145890,1,0,0:0:0:0:
64,64,145978,1,0,0:0:0:0:
64,64,146066,1,0,0:0:0:0:
64,64,146155,1,8,0:0:0:0:
448,64,146508,5,8,0:0:0:0:
448,64,146596,1,8,0:0:0:0:
64,64,146684,1,0,0:0:0:0:
448,64,146861,1,8,0:0:0:0:
448,64,146949,1,8,0:0:0:0:
448,64,147037,1,8,0:0:0:0:
448,64,147213,1,8,0:0:0:0:
64,64,147390,1,0,0:0:0:0:
64,64,147478,1,0,0:0:0:0:
64,64,147566,1,0,0:0:0:0:
448,64,147743,1,8,0:0:0:0:
256,192,147831,1,0,0:0:0:0:
448,64,147919,1,8,0:0:0:0:
448,64,148008,1,8,0:0:0:0:
64,64,148096,1,0,0:0:0:0:
64,64,148272,1,0,0:0:0:0:
64,64,148449,1,0,0:0:0:0:
448,64,148625,1,8,0:0:0:0:
64,64,148713,1,0,0:0:0:0:
448,64,148802,1,8,0:0:0:0:
64,64,148890,1,0,0:0:0:0:
448,64,148978,1,8,0:0:0:0:
256,224,149331,5,8,0:0:0:0:
256,224,149419,1,8,0:0:0:0:
256,224,149508,1,0,0:0:0:0:
256,224,149684,1,12,0:0:0:0:
224,256,150037,1,8,0:0:0:0:
256,224,150213,1,0,0:0:0:0:
64,64,150302,1,0,0:0:0:0:
448,64,150390,1,8,0:0:0:0:
256,224,150478,1,0,0:0:0:0:
448,64,150566,1,8,0:0:0:0:
448,64,150743,1,8,0:0:0:0:
256,224,150831,1,8,0:0:0:0:
448,64,150919,1,0,0:0:0:0:
256,224,151008,1,0,0:0:0:0:
224,224,151096,1,8,0:0:0:0:
224,192,151449,1,8,0:0:0:0:
448,64,151625,1,8,0:0:0:0:
256,224,151802,1,0,0:0:0:0:
448,64,151890,1,0,0:0:0:0:
448,64,151978,1,8,0:0:0:0:
64,64,152155,1,0,0:0:0:0:
448,64,152243,1,0,0:0:0:0:
448,64,152331,1,8,0:0:0:0:
64,64,152419,1,0,0:0:0:0:
256,224,152508,1,8,0:0:0:0:
224,224,152684,1,0,0:0:0:0:
448,64,152861,1,8,0:0:0:0:
224,224,152949,1,8,0:0:0:0:
224,224,153037,1,0,0:0:0:0:
224,224,153125,1,0,0:0:0:0:
224,224,153213,5,8,0:0:0:0:
224,192,153390,1,0,0:0:0:0:
224,224,153566,1,0,0:0:0:0:
256,224,153743,1,8,0:0:0:0:
256,192,153831,1,8,0:0:0:0:
224,192,153919,1,0,0:0:0:0:
224,224,154272,1,8,0:0:0:0:
224,224,154449,1,0,0:0:0:0:
224,224,154537,1,8,0:0:0:0:
224,224,154625,1,0,0:0:0:0:
224,224,154802,1,0,0:0:0:0:
448,64,154978,1,8,0:0:0:0:
224,224,155066,1,8,0:0:0:0:
448,64,155155,1,8,0:0:0:0:
64,320,155331,1,4,0:0:0:0:
448,64,155508,1,8,0:0:0:0:
64,64,155596,1,0,0:0:0:0:
448,64,155684,1,8,0:0:0:0:
64,64,155861,1,0,0:0:0:0:
64,64,155949,1,0,0:0:0:0:
448,64,156037,1,8,0:0:0:0:
448,64,156125,1,8,0:0:0:0:
64,64,156213,1,0,0:0:0:0:
448,64,156390,1,8,0:0:0:0:
64,64,156566,1,0,0:0:0:0:
448,64,156919,1,8,0:0:0:0:
448,64,157008,1,8,0:0:0:0:
64,64,157096,1,0,0:0:0:0:
448,64,157272,1,8,0:0:0:0:
64,64,157361,1,0,0:0:0:0:
448,64,157449,1,8,0:0:0:0:
64,64,157713,5,0,0:0:0:0:
448,64,157802,1,8,0:0:0:0:
64,64,157978,1,0,0:0:0:0:
256,256,158155,1,8,0:0:0:0:
256,256,158331,1,0,0:0:0:0:
256,256,158508,1,8,0:0:0:0:
256,256,158596,1,8,0:0:0:0:
256,256,158684,1,0,0:0:0:0:
288,192,158861,1,0,0:0:0:0:
224,160,158949,1,0,0:0:0:0:
256,192,159037,1,8,0:0:0:0:
64,64,159125,1,8,0:0:0:0:
256,192,159213,1,0,0:0:0:0:
256,256,159390,1,8,0:0:0:0:
256,256,159566,1,8,0:0:0:0:
288,256,159743,1,0,0:0:0:0:
256,256,159831,1,8,0:0:0:0:
256,256,159919,1,0,0:0:0:0:
256,192,160096,1,0,0:0:0:0:
256,192,160272,1,8,0:0:0:0:
256,192,160361,1,0,0:0:0:0:
256,224,160449,1,8,0:0:0:0:
256,224,160625,1,8,0:0:0:0:
256,224,160713,1,8,0:0:0:0:
256,224,160802,1,0,0:0:0:0:
256,224,160978,5,12,0:0:0:0:
64,64,161331,1,0,0:0:0:0:
64,64,161508,1,8,0:0:0:0:
448,64,161684,1,0,0:0:0:0:
448,64,161772,1,0,0:0:0:0:
448,64,161861,1,8,0:0:0:0:
448,64,162037,1,8,0:0:0:0:
448,64,162125,1,8,0:0:0:0:
64,64,162213,1,0,0:0:0:0:
64,64,162390,1,12,0:0:0:0:
64,64,162743,1,8,0:0:0:0:
64,64,162919,1,0,0:0:0:0:
64,64,163008,1,0,0:0:0:0:
448,64,163096,5,8,0:0:0:0:
64,64,163184,1,8,0:0:0:0:
64,64,163361,5,0,0:0:0:0:
448,64,163449,1,8,0:0:0:0:
448,64,163625,5,8,0:0:0:0:
64,64,163713,1,0,0:0:0:0:
448,64,163802,1,8,0:0:0:0:
448,64,163978,1,8,0:0:0:0:
64,64,164066,1,8,0:0:0:0:
448,64,164155,1,0,0:0:0:0:
448,64,164331,1,8,0:0:0:0:
448,64,164419,1,8,0:0:0:0:
64,64,164508,1,0,0:0:0:0:
64,64,164684,1,0,0:0:0:0:
64,64,164772,1,0,0:0:0:0:
64,64,164861,1,0,0:0:0:0:
448,64,165037,1,8,0:0:0:0:
448,64,165125,1,8,0:0:0:0:
448,64,165213,1,0,0:0:0:0:
288,192,165302,1,0,0:0:0:0:
448,64,165390,1,8,0:0:0:0:
448,64,165743,1,8,0:0:0:0:
64,64,166096,1,0,0:0:0:0:
448,64,166272,1,8,0:0:0:0:
448,64,166361,1,8,0:0:0:0:
64,64,166449,1,0,0:0:0:0:
448,320,166625,5,12,0:0:0:0:
288,192,166802,1,0,0:0:0:0:
64,64,166978,1,0,0:0:0:0:
288,192,167066,1,0,0:0:0:0:
64,64,167155,1,8,0:0:0:0:
448,64,167243,1,0,0:0:0:0:
448,64,167331,1,8,0:0:0:0:
448,64,167508,1,0,0:0:0:0:
448,64,167596,1,0,0:0:0:0:
448,64,167684,1,0,0:0:0:0:
64,64,167861,1,8,0:0:0:0:
64,64,167949,1,8,0:0:0:0:
64,64,168037,1,0,0:0:0:0:
448,64,168125,1,0,0:0:0:0:
448,64,168213,1,8,0:0:0:0:
448,64,168390,1,0,0:0:0:0:
448,64,168566,5,8,0:0:0:0:
64,64,168919,1,0,0:0:0:0:
448,64,169096,1,8,0:0:0:0:
256,160,169184,1,0,0:0:0:0:
448,64,169272,1,8,0:0:0:0:
64,64,169449,1,0,0:0:0:0:
64,64,169802,1,0,0:0:0:0:
448,64,169978,1,8,0:0:0:0:
448,64,170066,1,0,0:0:0:0:
448,64,170155,1,8,0:0:0:0:
64,64,170331,1,0,0:0:0:0:
64,64,170419,1,8,0:0:0:0:
64,64,170508,1,0,0:0:0:0:
448,64,170684,1,8,0:0:0:0:
448,64,170772,1,8,0:0:0:0:
448,64,170861,1,0,0:0:0:0:
64,64,170949,1,0,0:0:0:0:
448,64,171037,1,8,0:0:0:0:
64,64,171213,1,0,0:0:0:0:
64,64,171390,5,8,0:0:0:0:
448,64,171566,1,8,0:0:0:0:
64,64,171655,1,0,0:0:0:0:
448,64,171743,1,8,0:0:0:0:
448,64,171919,1,8,0:0:0:0:
448,64,172008,1,8,0:0:0:0:
64,64,172096,1,0,0:0:0:0:
448,320,172272,1,12,0:0:0:0:
64,64,172625,1,0,0:0:0:0:
448,64,172802,5,8,0:0:0:0:
448,64,172890,1,8,0:0:0:0:
448,64,172978,1,8,0:0:0:0:
64,64,173155,1,8,0:0:0:0:
64,64,173243,1,8,0:0:0:0:
64,64,173331,1,0,0:0:0:0:
448,64,173508,1,8,0:0:0:0:
448,64,173596,1,0,0:0:0:0:
448,64,173684,1,8,0:0:0:0:
448,64,173772,1,8,0:0:0:0:
448,64,173861,1,0,0:0:0:0:
64,64,174037,1,8,0:0:0:0:
64,64,174213,5,0,0:0:0:0:
448,64,174390,1,8,0:0:0:0:
64,64,174478,1,0,0:0:0:0:
448,64,174566,1,8,0:0:0:0:
448,64,174743,1,8,0:0:0:0:
448,64,174919,1,0,0:0:0:0:
256,192,175008,1,0,0:0:0:0:
448,64,175096,1,8,0:0:0:0:
448,64,175184,1,8,0:0:0:0:
448,64,175272,1,0,0:0:0:0:
448,64,175449,1,8,0:0:0:0:
288,192,175625,1,0,0:0:0:0:
448,64,175802,1,8,0:0:0:0:
448,64,175978,1,0,0:0:0:0:
64,64,176066,1,0,0:0:0:0:
448,64,176155,1,0,0:0:0:0:
64,64,176331,5,8,0:0:0:0:
64,64,176419,1,8,0:0:0:0:
448,64,176508,1,0,0:0:0:0:
64,64,176596,1,0,0:0:0:0:
64,64,176684,1,8,0:0:0:0:
448,64,176861,1,0,0:0:0:0:
448,64,177037,1,8,0:0:0:0:
448,64,177390,1,8,0:0:0:0:
448,64,177566,1,0,0:0:0:0:
288,224,177655,1,0,0:0:0:0:
64,64,177743,1,8,0:0:0:0:
448,320,177919,5,4,0:0:0:0:
448,64,178272,1,8,0:0:0:0:
64,64,178449,1,0,0:0:0:0:
448,64,178537,1,0,0:0:0:0:
448,64,178625,1,8,0:0:0:0:
448,64,178802,1,8,0:0:0:0:
448,64,178890,1,8,0:0:0:0:
64,64,178978,1,0,0:0:0:0:
448,64,179155,1,8,0:0:0:0:
64,64,179243,1,0,0:0:0:0:
64,64,179331,1,0,0:0:0:0:
448,64,179508,1,8,0:0:0:0:
64,64,179596,1,0,0:0:0:0:
64,64,179684,1,0,0:0:0:0:
448,64,179861,5,8,0:0:0:0:
448,64,179949,1,8,0:0:0:0:
448,64,180037,1,8,0:0:0:0:
64,64,180213,1,0,0:0:0:0:
448,64,180390,1,8,0:0:0:0:
448,64,180478,1,8,0:0:0:0:
64,64,180566,1,0,0:0:0:0:
64,64,180655,1,0,0:0:0:0:
448,64,180743,1,8,0:0:0:0:
448,64,181096,1,8,0:0:0:0:
448,64,181184,1,8,0:0:0:0:
64,64,181272,1,0,0:0:0:0:
448,64,181361,1,8,0:0:0:0:
64,64,181449,1,0,0:0:0:0:
448,64,181625,1,8,0:0:0:0:
64,64,181713,1,8,0:0:0:0:
448,64,181802,1,0,0:0:0:0:
64,64,181978,1,8,0:0:0:0:
64,64,182155,1,0,0:0:0:0:
448,64,182243,1,0,0:0:0:0:
448,64,182331,1,8,0:0:0:0:
64,64,182419,1,0,0:0:0:0:
448,64,182508,1,8,0:0:0:0:
64,64,182684,5,0,0:0:0:0:
448,64,182861,1,8,0:0:0:0:
64,64,183037,1,0,0:0:0:0:
64,64,183213,1,0,0:0:0:0:
64,64,183302,1,0,0:0:0:0:
64,64,183390,1,0,0:0:0:0:
448,320,183566,1,12,0:0:0:0:
64,64,183919,1,0,0:0:0:0:
448,64,184096,1,8,0:0:0:0:
448,64,184184,1,8,0:0:0:0:
64,64,184272,1,0,0:0:0:0:
448,64,184449,1,8,0:0:0:0:
448,64,184625,1,0,0:0:0:0:
448,64,184713,1,0,0:0:0:0:
64,64,184802,1,0,0:0:0:0:
448,320,184978,5,12,0:0:0:0:
64,64,185331,1,0,0:0:0:0:
448,64,185508,1,0,0:0:0:0:
448,64,185596,1,0,0:0:0:0:
64,64,185684,1,8,0:0:0:0:
448,64,185861,1,8,0:0:0:0:
448,64,186037,1,0,0:0:0:0:
448,64,186125,1,8,0:0:0:0:
64,64,186213,1,0,0:0:0:0:
448,320,186390,5,12,0:0:0:0:
64,64,186566,1,0,0:0:0:0:
64,64,186655,1,0,0:0:0:0:
448,64,186743,1,8,0:0:0:0:
64,64,186919,1,0,0:0:0:0:
448,320,187096,1,12,0:0:0:0:
64,64,187361,5,0,0:0:0:0:
64,64,187449,1,0,0:0:0:0:
448,320,187625,1,12,0:0:0:0:
64,320,187978,5,4,0:0:0:0:
64,320,188155,5,4,0:0:0:0:
448,64,188331,1,8,0:0:0:0:
448,64,188508,1,8,0:0:0:0:
448,64,188596,1,8,0:0:0:0:
64,64,188684,1,0,0:0:0:0:
448,64,188861,5,8,0:0:0:0:
448,64,188949,1,8,0:0:0:0:
64,64,189037,1,0,0:0:0:0:
448,64,189213,1,8,0:0:0:0:
448,64,189566,5,8,0:0:0:0:
64,64,189743,1,0,0:0:0:0:
448,64,190096,1,8,0:0:0:0:
64,64,190449,1,0,0:0:0:0:
448,64,190625,1,8,0:0:0:0:
448,64,190978,5,8,0:0:0:0:
64,64,191155,1,0,0:0:0:0:
448,64,191508,1,8,0:0:0:0:
64,64,191684,1,8,0:0:0:0:
448,64,191861,1,0,0:0:0:0:
288,192,192037,1,12,0:0:0:0:
256,192,192213,12,0,194508,0:0:0:0:
256,192,194861,5,4,0:0:0:0:
