osu file format v14

[General]
AudioFilename: audio.mp3
AudioLeadIn: 0
PreviewTime: 144037
Countdown: 0
SampleSet: Normal
StackLeniency: 0.7
Mode: 1
LetterboxInBreaks: 0
WidescreenStoryboard: 0

[Editor]
Bookmarks: 12727,14139,25433,48021,81903,93197,101668,112962,122844,145433
DistanceSpacing: 1.6
BeatDivisor: 8
GridSize: 32
TimelineZoom: 2.6

[Metadata]
Title:DAYDREAM FANTASIA
TitleUnicode:デイドリームファンタジア
Artist:DIVELA feat. Hatsune Miku
ArtistUnicode:DIVELA feat. 初音ミク
Creator:SN707
Version:Futsuu
Source:
Tags:vocaloid electronic japanese ft. featuring synth rock jrock j-rock ディヴェラ KARENT
BeatmapID:4339903
BeatmapSetID:2073145

[Difficulty]
HPDrainRate:7
CircleSize:5
OverallDifficulty:3.9
ApproachRate:5
SliderMultiplier:1.4
SliderTickRate:1

[Events]
//Background and Video events
0,0,"daydream.jpg",0,70
//Break Periods
2,124472,134155
//Storyboard Layer 0 (Background)
//Storyboard Layer 1 (Fail)
//Storyboard Layer 2 (Pass)
//Storyboard Layer 3 (Foreground)
//Storyboard Layer 4 (Overlay)
//Storyboard Sound Samples

[TimingPoints]
-2786,352.941176470588,4,1,0,90,1,0
2126,-100,4,1,0,90,0,0
24655,-100,4,1,0,85,0,0
25008,-100,4,1,0,75,0,0
25360,-100,4,1,0,65,0,0
25655,-100,4,1,0,60,0,0
36713,-100,4,1,0,70,0,0
47655,-100,4,1,0,80,0,0
48037,-100,4,1,0,80,0,1
69890,-100,4,1,0,90,0,1
70625,-100,4,1,0,90,0,0
82155,-100,4,1,0,60,0,0
99008,-100,4,1,0,63,0,0
99184,-100,4,1,0,67,0,0
99361,-100,4,1,0,70,0,0
99537,-100,4,1,0,73,0,0
99714,-100,4,1,0,77,0,0
99890,-100,4,1,0,80,0,0
100066,-100,4,1,0,90,0,0
101655,-100,4,1,0,80,0,0
122125,-100,4,1,0,90,0,0
123360,-100,4,1,0,60,0,0
141169,-100,4,1,0,30,0,0
144008,-100,4,1,0,80,0,0
144302,-100,4,1,0,100,0,0
144655,-100,4,1,0,80,0,0
145449,-100,4,1,0,80,0,1
166066,-100,4,1,0,82,0,1
166243,-100,4,1,0,84,0,1
166331,-100,4,1,0,86,0,1
166419,-100,4,1,0,87,0,1
166596,-100,4,1,0,90,0,1
188126,-100,4,1,0,87,0,1
188302,-100,4,1,0,84,0,1
188479,-100,4,1,0,82,0,1
188567,-100,4,1,0,80,0,1
188655,-100,4,1,0,79,0,1
188831,-100,4,1,0,76,0,1
188920,-100,4,1,0,75,0,1
189008,-100,4,1,0,73,0,1
189213,-100,4,1,0,70,0,0

[HitObjects]
257,159,2155,5,8,0:0:0:0:
448,64,2331,1,8,0:0:0:0:
64,64,2508,1,0,0:0:0:0:
262,153,2684,1,0,0:0:0:0:
64,320,2861,5,12,0:0:0:0:
64,64,3213,1,8,0:0:0:0:
64,64,3566,1,0,0:0:0:0:
448,64,3919,1,8,0:0:0:0:
256,192,4096,1,0,0:0:0:0:
448,64,4272,1,8,0:0:0:0:
64,64,4625,1,0,0:0:0:0:
64,64,4978,1,8,0:0:0:0:
448,64,5684,1,8,0:0:0:0:
64,64,6037,1,8,0:0:0:0:
64,64,6390,1,0,0:0:0:0:
64,64,6743,1,8,0:0:0:0:
256,192,6919,1,0,0:0:0:0:
64,64,7096,5,0,0:0:0:0:
64,64,7449,1,8,0:0:0:0:
320,192,7625,1,0,0:0:0:0:
448,64,7802,1,8,0:0:0:0:
448,320,8508,1,12,0:0:0:0:
288,192,8861,1,0,0:0:0:0:
448,64,9213,1,8,0:0:0:0:
288,192,9390,1,0,0:0:0:0:
64,64,9566,1,8,0:0:0:0:
64,64,9919,5,8,0:0:0:0:
256,192,10272,1,8,0:0:0:0:
288,192,10449,1,0,0:0:0:0:
64,64,10625,1,0,0:0:0:0:
64,64,11331,1,0,0:0:0:0:
448,64,11684,1,8,0:0:0:0:
64,64,12037,1,0,0:0:0:0:
64,64,12390,1,8,0:0:0:0:
448,64,13802,5,8,0:0:0:0:
64,320,14155,1,12,0:0:0:0:
256,192,14508,1,0,0:0:0:0:
256,192,14684,1,8,0:0:0:0:
64,64,14861,1,8,0:0:0:0:
224,192,15213,1,8,0:0:0:0:
448,64,15566,1,8,0:0:0:0:
224,160,15919,1,0,0:0:0:0:
448,64,16096,1,8,0:0:0:0:
448,64,16272,1,8,0:0:0:0:
256,192,16625,1,0,0:0:0:0:
448,64,16978,1,8,0:0:0:0:
448,64,17331,1,8,0:0:0:0:
64,64,17508,1,0,0:0:0:0:
256,160,17684,1,8,0:0:0:0:
256,192,18037,1,0,0:0:0:0:
256,192,18390,1,8,0:0:0:0:
64,64,18743,1,0,0:0:0:0:
448,64,18919,1,8,0:0:0:0:
448,64,19096,1,8,0:0:0:0:
64,320,19802,1,4,0:0:0:0:
256,192,20155,1,8,0:0:0:0:
245,193,20331,1,0,0:0:0:0:
64,64,20508,1,0,0:0:0:0:
224,192,20861,1,8,0:0:0:0:
256,160,21213,1,8,0:0:0:0:
224,160,21566,1,0,0:0:0:0:
256,192,21743,1,8,0:0:0:0:
448,64,21919,1,8,0:0:0:0:
448,64,22272,1,8,0:0:0:0:
64,64,22625,1,0,0:0:0:0:
224,192,22802,1,0,0:0:0:0:
448,64,22978,1,8,0:0:0:0:
267,220,23331,1,0,0:0:0:0:
273,223,23508,1,0,0:0:0:0:
448,64,23684,1,8,0:0:0:0:
263,192,24037,1,0,0:0:0:0:
448,64,24390,1,8,0:0:0:0:
64,320,24743,1,4,0:0:0:0:
448,320,25096,1,12,0:0:0:0:
448,320,25449,1,12,0:0:0:0:
64,64,26155,1,0,0:0:0:0:
64,64,26508,1,8,0:0:0:0:
64,64,27213,5,8,0:0:0:0:
64,64,27566,1,8,0:0:0:0:
64,64,28096,1,8,0:0:0:0:
64,64,28449,1,0,0:0:0:0:
64,64,28802,1,8,0:0:0:0:
448,64,29155,1,8,0:0:0:0:
64,64,29508,1,0,0:0:0:0:
448,64,30390,1,8,0:0:0:0:
64,64,30743,1,8,0:0:0:0:
448,64,31096,1,8,0:0:0:0:
64,64,31802,1,0,0:0:0:0:
64,64,32155,1,8,0:0:0:0:
64,64,32861,1,8,0:0:0:0:
64,64,33213,1,8,0:0:0:0:
64,64,33743,1,8,0:0:0:0:
64,64,34096,1,8,0:0:0:0:
64,64,34449,1,0,0:0:0:0:
64,64,34802,1,0,0:0:0:0:
64,64,35155,1,8,0:0:0:0:
64,64,36037,1,0,0:0:0:0:
64,320,36743,5,4,0:0:0:0:
64,64,37449,1,8,0:0:0:0:
64,64,37978,1,8,0:0:0:0:
64,64,38508,1,8,0:0:0:0:
64,64,38684,1,0,0:0:0:0:
64,64,39213,1,0,0:0:0:0:
64,64,39566,5,8,0:0:0:0:
64,64,39919,1,8,0:0:0:0:
64,64,40272,1,8,0:0:0:0:
64,64,40802,1,8,0:0:0:0:
64,64,41331,1,8,0:0:0:0:
64,64,41508,1,0,0:0:0:0:
64,64,41861,1,8,0:0:0:0:
256,192,42390,5,12,0:0:0:0:
64,64,42919,1,0,0:0:0:0:
256,192,43096,1,8,0:0:0:0:
253,187,43449,1,8,0:0:0:0:
256,192,43625,5,8,0:0:0:0:
271,187,44155,1,8,0:0:0:0:
64,64,44331,1,0,0:0:0:0:
64,64,44508,1,8,0:0:0:0:
448,64,45037,1,0,0:0:0:0:
256,192,45213,5,8,0:0:0:0:
256,192,45390,1,8,0:0:0:0:
256,192,45566,1,0,0:0:0:0:
448,64,46096,1,8,0:0:0:0:
274,197,46449,1,0,0:0:0:0:
64,64,46625,1,8,0:0:0:0:
448,320,47684,5,12,0:0:0:0:
256,192,48037,1,8,0:0:0:0:
448,64,48213,1,8,0:0:0:0:
64,64,48390,1,0,0:0:0:0:
224,192,48743,1,8,0:0:0:0:
256,192,49096,1,0,0:0:0:0:
256,192,49272,1,8,0:0:0:0:
256,224,49625,5,8,0:0:0:0:
64,64,49802,1,0,0:0:0:0:
448,64,50155,1,8,0:0:0:0:
448,64,50508,1,8,0:0:0:0:
448,64,50684,1,8,0:0:0:0:
64,64,50861,1,0,0:0:0:0:
448,64,51390,1,8,0:0:0:0:
448,64,51743,1,8,0:0:0:0:
288,224,51919,1,8,0:0:0:0:
288,192,52096,1,0,0:0:0:0:
288,192,52449,5,0,0:0:0:0:
288,192,52625,1,8,0:0:0:0:
448,64,52978,1,8,0:0:0:0:
64,64,53331,1,0,0:0:0:0:
256,224,53684,5,12,0:0:0:0:
256,224,54213,1,0,0:0:0:0:
256,224,54390,1,8,0:0:0:0:
270,207,54566,1,0,0:0:0:0:
256,224,54743,1,8,0:0:0:0:
64,64,54919,1,0,0:0:0:0:
224,224,55625,1,8,0:0:0:0:
256,224,55802,1,0,0:0:0:0:
270,207,55978,1,8,0:0:0:0:
64,64,56155,1,0,0:0:0:0:
448,64,56331,1,8,0:0:0:0:
448,64,56684,1,8,0:0:0:0:
448,64,56861,1,8,0:0:0:0:
224,224,57037,1,0,0:0:0:0:
64,64,57919,1,0,0:0:0:0:
224,224,58272,1,8,0:0:0:0:
224,224,58625,1,0,0:0:0:0:
224,224,58802,1,0,0:0:0:0:
256,224,58978,1,8,0:0:0:0:
64,320,59331,1,4,0:0:0:0:
448,64,59684,1,8,0:0:0:0:
256,224,59861,1,0,0:0:0:0:
64,64,60037,1,0,0:0:0:0:
448,64,60390,1,8,0:0:0:0:
224,224,60566,1,0,0:0:0:0:
256,256,60919,1,0,0:0:0:0:
256,256,61096,1,8,0:0:0:0:
288,256,61449,1,8,0:0:0:0:
256,256,61802,5,8,0:0:0:0:
256,256,61978,1,8,0:0:0:0:
64,64,62155,1,0,0:0:0:0:
256,256,62508,1,8,0:0:0:0:
256,256,62861,1,0,0:0:0:0:
256,256,63037,1,8,0:0:0:0:
256,256,63390,1,8,0:0:0:0:
64,64,63743,1,0,0:0:0:0:
64,64,63919,1,0,0:0:0:0:
256,192,64272,1,8,0:0:0:0:
256,224,64625,1,8,0:0:0:0:
256,224,64978,5,12,0:0:0:0:
256,192,65508,1,0,0:0:0:0:
256,192,65684,1,8,0:0:0:0:
258,200,65861,1,8,0:0:0:0:
448,64,66037,1,8,0:0:0:0:
256,192,66213,1,0,0:0:0:0:
256,192,67096,1,8,0:0:0:0:
272,189,67361,1,0,0:0:0:0:
256,192,67625,1,0,0:0:0:0:
224,224,68684,1,8,0:0:0:0:
256,224,69037,1,0,0:0:0:0:
256,224,69566,1,8,0:0:0:0:
256,224,69919,5,0,0:0:0:0:
64,64,70096,1,0,0:0:0:0:
256,224,70272,1,8,0:0:0:0:
64,320,70625,1,4,0:0:0:0:
256,192,70978,1,8,0:0:0:0:
256,192,71155,1,0,0:0:0:0:
64,64,71331,1,0,0:0:0:0:
224,192,71684,1,8,0:0:0:0:
448,64,72037,1,8,0:0:0:0:
224,160,72390,1,0,0:0:0:0:
448,64,72566,1,8,0:0:0:0:
448,64,72743,1,8,0:0:0:0:
256,192,73096,1,0,0:0:0:0:
64,64,73449,1,0,0:0:0:0:
448,64,73802,1,8,0:0:0:0:
64,64,73978,1,0,0:0:0:0:
256,160,74155,1,8,0:0:0:0:
256,192,74508,1,0,0:0:0:0:
256,192,74861,1,8,0:0:0:0:
64,64,75213,1,0,0:0:0:0:
448,64,75390,1,8,0:0:0:0:
448,64,75566,1,8,0:0:0:0:
64,320,76272,1,4,0:0:0:0:
256,192,76625,1,8,0:0:0:0:
245,193,76802,1,0,0:0:0:0:
64,64,76978,1,0,0:0:0:0:
224,192,77331,1,8,0:0:0:0:
256,160,77684,1,8,0:0:0:0:
224,160,78037,1,0,0:0:0:0:
256,192,78213,1,8,0:0:0:0:
448,64,78390,1,8,0:0:0:0:
256,192,78743,1,0,0:0:0:0:
448,64,79096,1,8,0:0:0:0:
224,192,79272,1,0,0:0:0:0:
448,64,79449,1,8,0:0:0:0:
448,64,79802,1,8,0:0:0:0:
273,223,79978,1,0,0:0:0:0:
448,64,80155,1,8,0:0:0:0:
263,192,80508,1,0,0:0:0:0:
64,64,80861,1,0,0:0:0:0:
256,192,81213,1,0,0:0:0:0:
256,192,81566,5,8,0:0:0:0:
64,64,81919,5,12,0:0:0:0:
256,192,82625,1,8,0:0:0:0:
256,192,82978,1,0,0:0:0:0:
256,192,83684,5,0,0:0:0:0:
256,192,84037,1,8,0:0:0:0:
256,192,84566,1,8,0:0:0:0:
256,192,84919,1,0,0:0:0:0:
256,192,85272,1,8,0:0:0:0:
256,192,85625,1,8,0:0:0:0:
256,192,85978,1,0,0:0:0:0:
448,64,86861,1,8,0:0:0:0:
64,64,87213,1,0,0:0:0:0:
288,192,87566,5,12,0:0:0:0:
256,192,88272,1,8,0:0:0:0:
256,192,88625,1,8,0:0:0:0:
288,192,89331,1,0,0:0:0:0:
288,192,89684,1,8,0:0:0:0:
288,192,90213,1,8,0:0:0:0:
288,192,90566,1,8,0:0:0:0:
256,192,90919,1,0,0:0:0:0:
256,192,91272,1,0,0:0:0:0:
256,192,91625,1,8,0:0:0:0:
256,192,92331,1,8,0:0:0:0:
256,192,92508,1,0,0:0:0:0:
448,64,92861,1,8,0:0:0:0:
256,192,93213,5,4,0:0:0:0:
288,224,93919,1,8,0:0:0:0:
256,192,94272,1,0,0:0:0:0:
288,192,94802,5,8,0:0:0:0:
256,192,95155,1,0,0:0:0:0:
448,320,95508,1,12,0:0:0:0:
320,160,96037,5,0,0:0:0:0:
320,160,96743,1,8,0:0:0:0:
448,64,97096,1,8,0:0:0:0:
320,160,97625,5,0,0:0:0:0:
320,128,97978,1,0,0:0:0:0:
320,128,98508,1,0,0:0:0:0:
320,128,98861,5,12,0:0:0:0:
320,160,99213,1,0,0:0:0:0:
320,160,99566,1,8,0:0:0:0:
320,160,99919,1,8,0:0:0:0:
320,160,100272,1,8,0:0:0:0:
448,64,100449,1,8,0:0:0:0:
64,64,100625,1,0,0:0:0:0:
64,64,100802,1,0,0:0:0:0:
320,128,100978,1,8,0:0:0:0:
320,128,101684,5,12,0:0:0:0:
448,64,102037,1,8,0:0:0:0:
448,64,102213,1,8,0:0:0:0:
64,64,102390,1,0,0:0:0:0:
64,64,102743,1,0,0:0:0:0:
64,64,103096,1,0,0:0:0:0:
448,64,103449,1,8,0:0:0:0:
448,64,103802,1,8,0:0:0:0:
64,64,104508,5,0,0:0:0:0:
64,64,104861,1,0,0:0:0:0:
448,64,105037,1,8,0:0:0:0:
64,64,105213,1,0,0:0:0:0:
64,64,105566,1,0,0:0:0:0:
64,64,105919,1,0,0:0:0:0:
224,192,106096,1,0,0:0:0:0:
448,64,106272,1,8,0:0:0:0:
448,64,106625,1,8,0:0:0:0:
64,320,107331,5,4,0:0:0:0:
448,64,107684,1,8,0:0:0:0:
448,64,107861,1,8,0:0:0:0:
448,64,108037,1,8,0:0:0:0:
64,64,108390,1,0,0:0:0:0:
64,64,108743,1,0,0:0:0:0:
64,64,109096,1,0,0:0:0:0:
448,64,109449,1,8,0:0:0:0:
448,64,109802,1,8,0:0:0:0:
448,64,110155,5,8,0:0:0:0:
64,64,110508,1,0,0:0:0:0:
64,64,110684,1,0,0:0:0:0:
448,64,110861,1,8,0:0:0:0:
64,64,111213,1,0,0:0:0:0:
448,64,111566,1,8,0:0:0:0:
256,224,111743,1,8,0:0:0:0:
64,64,111919,1,0,0:0:0:0:
448,64,112272,1,8,0:0:0:0:
448,320,112978,5,12,0:0:0:0:
64,64,113331,1,0,0:0:0:0:
448,64,113508,1,8,0:0:0:0:
64,64,113684,1,0,0:0:0:0:
64,320,114390,5,4,0:0:0:0:
256,192,115096,1,12,0:0:0:0:
448,64,115449,1,0,0:0:0:0:
64,320,115802,5,12,0:0:0:0:
448,64,116155,1,0,0:0:0:0:
448,64,116331,1,0,0:0:0:0:
64,64,116508,1,8,0:0:0:0:
64,320,117213,1,4,0:0:0:0:
448,64,117566,1,8,0:0:0:0:
64,320,117919,1,4,0:0:0:0:
64,320,118272,1,4,0:0:0:0:
64,64,118625,5,8,0:0:0:0:
448,64,118978,1,0,0:0:0:0:
64,64,119331,1,8,0:0:0:0:
448,320,120037,1,12,0:0:0:0:
64,320,120743,5,4,0:0:0:0:
448,320,121449,5,12,0:0:0:0:
448,64,121802,1,8,0:0:0:0:
448,64,122155,5,8,0:0:0:0:
448,64,122331,1,8,0:0:0:0:
64,64,122508,1,0,0:0:0:0:
64,64,122684,1,0,0:0:0:0:
448,64,122861,1,8,0:0:0:0:
448,64,124272,1,0,0:0:0:0:
256,192,135566,5,0,0:0:0:0:
448,64,136272,1,8,0:0:0:0:
256,192,136802,1,0,0:0:0:0:
64,64,137331,1,0,0:0:0:0:
448,64,137684,1,8,0:0:0:0:
256,224,138037,1,0,0:0:0:0:
448,64,138390,5,8,0:0:0:0:
448,64,139096,1,8,0:0:0:0:
448,64,139625,1,8,0:0:0:0:
448,64,140508,1,8,0:0:0:0:
64,64,140861,1,0,0:0:0:0:
448,64,141213,5,8,0:0:0:0:
448,64,144037,5,8,0:0:0:0:
64,320,144390,1,4,0:0:0:0:
448,64,144743,1,8,0:0:0:0:
448,64,145096,1,8,0:0:0:0:
448,64,145449,5,4,0:0:0:0:
448,64,145802,1,0,0:0:0:0:
64,64,145978,1,0,0:0:0:0:
64,64,146155,1,0,0:0:0:0:
448,64,146508,1,8,0:0:0:0:
448,64,146861,1,8,0:0:0:0:
64,64,147037,1,0,0:0:0:0:
64,64,147390,1,0,0:0:0:0:
448,64,147743,1,8,0:0:0:0:
448,64,147919,1,8,0:0:0:0:
64,64,148096,1,0,0:0:0:0:
64,64,148449,1,0,0:0:0:0:
448,64,148625,1,8,0:0:0:0:
448,64,148978,1,8,0:0:0:0:
448,64,149331,1,0,0:0:0:0:
256,224,149684,1,12,0:0:0:0:
256,224,150213,1,0,0:0:0:0:
448,64,150390,1,8,0:0:0:0:
256,192,150566,1,0,0:0:0:0:
448,64,150743,1,8,0:0:0:0:
448,64,150919,1,8,0:0:0:0:
448,64,151625,1,8,0:0:0:0:
256,224,151802,1,0,0:0:0:0:
256,192,151978,1,8,0:0:0:0:
64,64,152155,1,0,0:0:0:0:
64,64,152331,1,0,0:0:0:0:
224,224,152684,1,8,0:0:0:0:
448,64,152861,1,8,0:0:0:0:
224,224,153037,1,0,0:0:0:0:
64,64,153919,1,0,0:0:0:0:
224,224,154272,1,8,0:0:0:0:
224,224,154625,1,0,0:0:0:0:
224,224,154802,1,0,0:0:0:0:
448,64,154978,1,8,0:0:0:0:
64,320,155331,1,4,0:0:0:0:
448,64,155684,1,8,0:0:0:0:
64,64,156037,1,0,0:0:0:0:
448,64,156213,1,8,0:0:0:0:
448,64,156390,1,8,0:0:0:0:
64,64,156566,1,0,0:0:0:0:
448,64,156919,1,0,0:0:0:0:
64,64,157096,1,8,0:0:0:0:
448,64,157449,1,0,0:0:0:0:
448,64,157802,1,8,0:0:0:0:
64,64,157978,1,0,0:0:0:0:
256,256,158155,1,8,0:0:0:0:
256,256,158508,1,8,0:0:0:0:
256,256,158684,1,0,0:0:0:0:
448,64,158861,1,8,0:0:0:0:
256,256,159037,1,8,0:0:0:0:
256,256,159390,1,8,0:0:0:0:
288,256,159743,1,0,0:0:0:0:
256,256,159919,1,0,0:0:0:0:
256,192,160272,1,8,0:0:0:0:
256,224,160449,1,0,0:0:0:0:
256,224,160625,1,8,0:0:0:0:
256,224,160978,5,12,0:0:0:0:
64,64,161508,1,0,0:0:0:0:
448,64,161684,1,8,0:0:0:0:
448,64,161861,1,8,0:0:0:0:
64,64,162037,1,8,0:0:0:0:
64,64,162213,1,0,0:0:0:0:
448,64,163096,5,8,0:0:0:0:
64,64,163361,5,0,0:0:0:0:
448,64,163625,5,8,0:0:0:0:
64,64,164684,1,8,0:0:0:0:
64,64,165037,1,0,0:0:0:0:
448,64,165743,1,8,0:0:0:0:
64,64,166096,1,0,0:0:0:0:
448,64,166272,1,8,0:0:0:0:
448,320,166625,5,12,0:0:0:0:
64,64,166978,1,0,0:0:0:0:
64,64,167155,1,0,0:0:0:0:
448,64,167508,1,8,0:0:0:0:
64,64,167861,1,0,0:0:0:0:
448,64,168213,1,8,0:0:0:0:
448,64,168566,5,8,0:0:0:0:
64,64,168919,1,0,0:0:0:0:
448,64,169096,1,8,0:0:0:0:
448,64,169272,1,8,0:0:0:0:
448,64,169449,1,8,0:0:0:0:
64,64,169802,1,0,0:0:0:0:
448,64,169978,1,8,0:0:0:0:
64,64,170331,1,0,0:0:0:0:
448,64,170684,1,8,0:0:0:0:
448,64,171037,1,8,0:0:0:0:
64,64,171390,5,0,0:0:0:0:
448,64,171566,1,8,0:0:0:0:
256,224,171743,1,0,0:0:0:0:
448,64,171919,1,8,0:0:0:0:
448,320,172272,1,12,0:0:0:0:
448,64,172802,5,8,0:0:0:0:
64,64,173155,1,0,0:0:0:0:
256,224,173331,1,0,0:0:0:0:
448,64,173508,1,8,0:0:0:0:
256,224,173684,1,0,0:0:0:0:
64,64,174213,5,0,0:0:0:0:
448,64,174390,1,8,0:0:0:0:
256,224,174566,1,8,0:0:0:0:
448,64,174743,1,8,0:0:0:0:
448,64,174919,1,0,0:0:0:0:
256,224,175096,1,8,0:0:0:0:
252,214,175802,1,0,0:0:0:0:
255,204,176155,1,0,0:0:0:0:
64,64,176331,5,8,0:0:0:0:
448,64,177037,1,8,0:0:0:0:
448,64,177390,1,8,0:0:0:0:
64,64,177566,1,0,0:0:0:0:
448,320,177919,5,12,0:0:0:0:
448,64,178272,1,0,0:0:0:0:
64,64,178449,1,8,0:0:0:0:
448,64,178802,1,0,0:0:0:0:
288,192,178978,1,0,0:0:0:0:
64,64,179155,1,8,0:0:0:0:
448,64,179508,1,8,0:0:0:0:
448,64,179861,5,8,0:0:0:0:
64,64,180213,1,0,0:0:0:0:
448,64,180390,1,8,0:0:0:0:
64,64,180566,1,0,0:0:0:0:
448,64,180743,1,8,0:0:0:0:
448,64,181096,1,8,0:0:0:0:
448,64,181272,1,8,0:0:0:0:
448,64,181625,1,8,0:0:0:0:
256,160,181802,1,8,0:0:0:0:
64,64,181978,1,0,0:0:0:0:
448,64,182331,1,0,0:0:0:0:
64,64,182684,5,0,0:0:0:0:
448,64,182861,1,8,0:0:0:0:
192,160,183037,1,8,0:0:0:0:
64,64,183213,1,0,0:0:0:0:
448,320,183566,1,12,0:0:0:0:
448,64,184096,1,8,0:0:0:0:
64,64,184272,1,0,0:0:0:0:
192,160,184449,1,0,0:0:0:0:
448,64,184625,1,8,0:0:0:0:
448,320,184978,5,12,0:0:0:0:
448,64,185508,1,8,0:0:0:0:
448,64,185684,1,8,0:0:0:0:
192,192,185861,1,0,0:0:0:0:
64,64,186037,1,0,0:0:0:0:
448,320,186390,5,12,0:0:0:0:
448,320,187096,1,12,0:0:0:0:
448,320,187625,1,12,0:0:0:0:
64,320,187978,5,0,0:0:0:0:
160,288,188155,1,0,0:0:0:0:
448,64,188331,1,8,0:0:0:0:
64,64,188684,1,0,0:0:0:0:
448,64,188861,5,8,0:0:0:0:
64,64,189037,1,0,0:0:0:0:
64,64,189743,1,0,0:0:0:0:
64,64,190449,1,0,0:0:0:0:
448,64,191331,5,8,0:0:0:0:
256,192,192037,1,12,0:0:0:0:
256,192,192213,12,0,194508,0:0:0:0:
256,192,194861,5,4,0:0:0:0:
