osu file format v14

[General]
AudioFilename: audio.mp3
AudioLeadIn: 0
PreviewTime: 76840
Countdown: 0
SampleSet: Soft
StackLeniency: 0.4
Mode: 0
LetterboxInBreaks: 0
WidescreenStoryboard: 0

[Editor]
DistanceSpacing: 3.2
BeatDivisor: 4
GridSize: 32
TimelineZoom: 1

[Metadata]
Title:Beat Syncer
TitleUnicode:ビートシンカー
Artist:DIVELA feat. Hatsune Miku
ArtistUnicode:DIVELA feat. 初音ミク
Creator:Log Off Now
Version:One More Time!
Source:グルーヴコースター
Tags:japanese vocaloid rock video game ミライコレクション groove coaster mirai collection short cut version
BeatmapID:2336704
BeatmapSetID:1034008

[Difficulty]
HPDrainRate:5.5
CircleSize:3.8
OverallDifficulty:9.2
ApproachRate:9.4
SliderMultiplier:1.4
SliderTickRate:1

[Events]
//Background and Video events
0,0,"BeatSyncer.jpg",0,0
//Break Periods
//Storyboard Layer 0 (Background)
//Storyboard Layer 1 (Fail)
//Storyboard Layer 2 (Pass)
//Storyboard Layer 3 (Foreground)
//Storyboard Layer 4 (Overlay)
//Storyboard Sound Samples

[TimingPoints]
40,300,4,2,1,55,1,0
40,-117.647058823529,4,2,1,55,0,0
9640,-100,4,2,1,65,0,0
14440,-100,4,2,1,70,0,0
15640,-100,4,2,1,75,0,0
16840,-100,4,2,1,80,0,0
17440,-100,4,2,1,85,0,0
18040,-100,4,2,1,70,0,0
18940,-100,4,2,2,75,0,0
19165,-100,4,2,2,5,0,0
19240,-83.3333333333333,4,2,1,85,0,1
19315,-83.3333333333333,4,2,1,85,0,0
38440,-117.647058823529,4,2,1,85,0,0
57640,-105.263157894737,4,2,1,60,0,0
67240,-95.2380952380954,4,2,1,70,0,0
72040,-95.2380952380954,4,2,1,80,0,0
74590,-95.2380952380954,4,2,1,65,0,0
74740,-95.2380952380954,4,2,1,68,0,0
74890,-95.2380952380954,4,2,1,71,0,0
75040,-95.2380952380954,4,2,1,73,0,0
75190,-95.2380952380954,4,2,1,76,0,0
75340,-95.2380952380954,4,2,1,79,0,0
75490,-95.2380952380954,4,2,1,82,0,0
76840,-83.3333333333333,4,2,1,87,0,1
96040,-83.3333333333333,4,2,1,87,0,0

[Colours]
Combo1 : 172,192,247
Combo2 : 237,167,3
Combo3 : 3,199,193
Combo4 : 0,70,128

[HitObjects]
151,172,40,6,0,B|208:153|208:201|282:163,2,119.000002269745,6|0|2,0:0|0:0|0:0,0:0:0:0:
71,233,940,2,0,L|56:109,2,119.000002269745,2|0|2,0:0|0:0|0:0,0:0:0:0:
137,293,1840,2,0,P|176:274|208:272,1,59.5000011348725,2|0,0:0|0:0,0:0:0:0:
268,325,2140,1,2,0:0:0:0:
268,325,2290,1,2,0:0:0:0:
330,258,2440,6,0,P|316:197|321:123,1,119.000002269745,2|0,0:0|0:0,0:0:0:0:
403,71,2890,1,2,0:0:0:0:
403,71,2965,1,2,0:0:0:0:
403,71,3040,2,0,B|312:56|320:124|208:93,1,178.500003404617,2|0,0:0|0:0,0:0:0:0:
89,34,3640,2,0,P|139:65|147:141,1,119.000002269745,2|0,0:0|0:0,0:0:0:0:
105,201,4090,1,2,0:0:0:0:
70,113,4240,1,2,0:0:0:0:
70,113,4690,5,2,0:0:0:0:
105,201,4840,2,0,L|94:277,1,59.5000011348725,2|0,0:0|0:0,0:0:0:0:
195,340,5140,2,0,L|184:264,1,59.5000011348725,2|0,0:0|0:0,0:0:0:0:
294,200,5440,2,0,L|283:276,1,59.5000011348725,2|0,0:0|0:0,0:0:0:0:
351,330,5740,2,0,P|386:309|415:306,1,59.5000011348725,2|0,0:0|0:0,0:0:0:0:
499,344,6040,6,0,L|488:268,1,59.5000011348725,2|0,0:0|0:0,0:0:0:0:
413,212,6340,2,0,L|424:83,1,119.000002269745,2|2,0:0|0:0,0:0:0:0:
359,20,6790,1,0,0:0:0:0:
296,80,6940,2,0,P|259:93|224:88,1,59.5000011348725,2|0,0:0|0:0,0:0:0:0:
102,11,7240,6,0,P|149:66|132:185,1,178.500003404617,2|0,0:0|0:0,0:0:0:0:
127,169,7840,2,0,P|137:82|74:12,1,178.500003404617,2|0,0:0|0:0,0:0:0:0:
102,11,8440,2,0,B|193:-4|185:64|297:33,1,178.500003404617,2|0,0:0|0:0,0:0:0:0:
299,52,9040,2,0,P|246:110|282:219,1,178.500003404617,2|0,0:0|0:0,0:0:0:0:
400,130,9640,6,0,L|316:140,1,70,6|0,1:2|0:0,0:0:0:0:
163,158,9940,1,8,0:0:0:0:
320,50,10090,1,2,0:0:0:0:
263,201,10240,1,2,0:0:0:0:
228,1,10390,1,0,1:0:0:0:
152,186,10540,2,0,P|116:217|85:226,1,70,8|0,0:0|0:0,0:0:0:0:
8,106,10840,6,0,P|52:121|76:144,1,70,0|0,1:0|0:0,0:0:0:0:
152,303,11140,1,8,0:0:0:0:
223,120,11290,1,2,0:0:0:0:
95,224,11440,1,2,0:0:0:0:
75,43,11590,1,0,1:0:0:0:
238,210,11740,2,0,L|250:122,1,70,8|0,0:0|0:0,0:0:0:0:
49,36,12040,6,0,L|61:124,1,70,0|0,1:0|0:0,0:0:0:0:
189,286,12340,1,8,0:0:0:0:
1,187,12490,1,2,0:0:0:0:
216,110,12640,1,2,0:0:0:0:
106,273,12790,1,0,1:0:0:0:
142,76,12940,2,0,L|151:6,1,70,8|0,0:0|0:0,0:0:0:0:
274,178,13240,6,0,L|283:247,1,70,0|0,1:0|0:0,0:0:0:0:
377,55,13540,1,8,0:0:0:0:
463,256,13690,2,0,L|474:178,1,70,0|0,1:0|0:0,0:0:0:0:
292,8,13990,1,10,0:0:0:0:
371,258,14140,1,10,0:0:0:0:
460,12,14290,1,10,0:0:0:0:
253,205,14440,6,0,P|214:228|185:231,1,70,6|0,1:2|0:0,0:0:0:0:
7,98,14740,2,0,P|38:130|48:157,1,70,10|0,1:2|0:0,0:0:0:0:
67,354,15040,2,0,L|82:265,1,70,10|0,1:2|0:0,0:0:0:0:
191,129,15340,1,10,1:2:0:0:
216,319,15490,1,2,0:0:0:0:
70,34,15640,6,0,P|109:57|138:60,1,70,6|0,1:2|0:0,0:0:0:0:
336,9,15940,2,0,P|304:41|294:68,1,70,10|0,1:2|0:0,0:0:0:0:
257,280,16240,2,0,L|242:191,1,70,8|2,1:2|0:0,0:0:0:0:
215,15,16540,1,10,1:2:0:0:
156,229,16690,1,2,0:0:0:0:
381,86,16840,5,4,1:2:0:0:
90,154,16990,1,8,1:2:0:0:
387,212,17140,1,10,1:2:0:0:
103,58,17290,1,8,1:2:0:0:
340,318,17440,5,10,1:2:0:0:
182,6,17590,1,8,1:2:0:0:
123,347,17740,1,10,1:2:0:0:
344,1,17890,1,10,1:2:0:0:
349,22,18940,6,0,P|344:73|341:133,1,105,8|0,0:0|0:0,0:0:0:0:
269,198,19240,6,0,P|222:175|185:175,1,83.9999974365235,4|2,1:0|0:0,0:0:0:0:
84,321,19540,2,0,P|111:296|130:250,1,83.9999974365235,8|2,0:0|0:0,0:0:0:0:
25,71,19840,1,0,1:0:0:0:
42,234,19990,1,2,0:0:0:0:
243,23,20140,2,0,L|142:30,1,83.9999974365235,8|2,0:0|0:0,0:0:0:0:
134,54,20365,1,2,0:0:0:0:
134,54,20440,6,0,L|33:47,1,83.9999974365235,0|2,1:0|0:0,0:0:0:0:
23,265,20740,2,0,P|76:242|117:241,1,83.9999974365235,8|2,0:0|0:0,0:0:0:0:
252,263,21040,1,2,1:2:0:0:
88,327,21190,1,2,0:0:0:0:
312,337,21340,1,10,0:0:0:0:
193,183,21490,1,2,0:0:0:0:
105,345,21640,6,0,L|206:352,1,83.9999974365235,0|2,1:0|0:0,0:0:0:0:
214,376,21865,1,2,0:0:0:0:
214,376,21940,2,0,L|315:369,1,83.9999974365235,8|2,0:0|0:0,0:0:0:0:
463,231,22240,1,0,1:0:0:0:
289,287,22390,1,2,0:0:0:0:
487,350,22540,1,8,0:0:0:0:
403,149,22690,1,2,0:0:0:0:
382,380,22840,6,0,L|391:293,1,83.9999974365235,2|0,1:2|0:0,0:0:0:0:
219,66,23140,2,0,L|228:153,1,83.9999974365235,10|0,0:2|0:0,0:0:0:0:
272,325,23440,1,2,1:2:0:0:
386,73,23590,1,2,0:0:0:0:
386,73,23665,1,2,0:0:0:0:
386,73,23740,2,0,P|342:100|311:108,1,83.9999974365235,10|0,0:0|0:0,0:0:0:0:
130,27,24040,6,0,L|139:114,1,83.9999974365235,0|2,1:0|0:0,0:0:0:0:
294,281,24340,2,0,L|303:194,1,83.9999974365235,8|2,0:0|0:0,0:0:0:0:
222,26,24640,1,0,1:0:0:0:
195,255,24790,1,2,0:0:0:0:
401,25,24940,2,0,L|410:127,1,83.9999974365235,8|2,0:0|0:0,0:0:0:0:
432,134,25165,1,2,0:0:0:0:
432,134,25240,6,0,L|423:231,1,83.9999974365235,0|2,1:0|0:0,0:0:0:0:
319,344,25540,2,0,P|264:320|229:319,1,83.9999974365235,8|2,0:0|0:0,0:0:0:0:
34,350,25840,1,2,1:2:0:0:
221,224,25990,1,2,0:0:0:0:
161,368,26140,1,10,0:0:0:0:
129,185,26290,1,2,0:0:0:0:
280,290,26440,5,0,1:0:0:0:
315,81,26590,1,2,0:0:0:0:
146,276,26740,1,8,0:0:0:0:
394,169,26890,1,2,0:0:0:0:
222,45,27040,2,0,L|232:146,1,83.9999974365235,0|2,1:2|0:0,0:0:0:0:
375,312,27340,1,10,0:0:0:0:
412,78,27490,1,2,0:0:0:0:
257,263,27640,5,2,1:2:0:0:
492,143,27790,1,12,0:0:0:0:
201,34,27940,2,0,L|211:135,1,83.9999974365235,12|2,1:2|0:0,0:0:0:0:
242,347,28240,1,0,1:0:0:0:
372,126,28390,1,8,0:0:0:0:
368,102,28465,1,8,0:0:0:0:
365,76,28540,2,0,L|359:26,1,41.9999987182618,8|8,1:2|0:0,0:0:0:0:
277,0,28690,2,0,L|282:41,1,41.9999987182618,8|8,0:0|0:0,0:0:0:0:
286,118,28840,6,0,P|233:155|200:155,1,83.9999974365235,4|0,1:0|0:0,0:0:0:0:
45,34,29140,2,0,L|58:128,1,83.9999974365235,8|2,0:0|0:0,0:0:0:0:
190,271,29440,1,0,1:0:0:0:
217,69,29590,1,2,0:0:0:0:
0,273,29740,2,0,P|39:257|105:272,1,83.9999974365235,8|2,0:0|0:0,0:0:0:0:
98,286,29965,1,2,0:0:0:0:
98,286,30040,6,0,P|137:302|203:287,1,83.9999974365235,0|2,1:0|0:0,0:0:0:0:
215,141,30340,2,8,P|181:166|161:231,1,83.9999974365235,8|2,0:0|0:0,0:0:0:0:
198,371,30640,1,2,1:2:0:0:
254,216,30790,1,2,0:0:0:0:
106,336,30940,1,10,0:0:0:0:
86,156,31090,1,2,0:0:0:0:
275,318,31240,6,0,L|287:216,1,83.9999974365235,0|2,1:0|0:0,0:0:0:0:
311,208,31465,1,2,0:0:0:0:
311,208,31540,2,0,L|302:108,1,83.9999974365235,8|2,0:0|0:0,0:0:0:0:
194,16,31840,1,0,1:0:0:0:
213,208,31990,1,2,0:0:0:0:
288,12,32140,1,8,0:0:0:0:
122,220,32290,1,2,0:0:0:0:
22,12,32440,6,0,L|109:21,1,83.9999974365235,2|0,1:2|0:0,0:0:0:0:
302,104,32740,2,0,L|215:113,1,83.9999974365235,10|0,0:2|0:0,0:0:0:0:
1,132,33040,1,2,1:2:0:0:
131,303,33190,1,2,0:0:0:0:
131,303,33265,1,2,0:0:0:0:
131,303,33340,2,0,L|119:202,1,83.9999974365235,10|0,0:0|0:0,0:0:0:0:
227,29,33640,6,0,L|218:116,1,83.9999974365235,0|2,1:0|0:0,0:0:0:0:
248,304,33940,2,0,P|290:273|323:267,1,83.9999974365235,8|2,0:0|0:0,0:0:0:0:
491,287,34240,1,0,1:0:0:0:
327,362,34390,1,2,0:0:0:0:
381,122,34540,2,0,L|390:224,1,83.9999974365235,8|2,0:0|0:0,0:0:0:0:
412,231,34765,1,2,0:0:0:0:
412,231,34840,6,0,L|403:328,1,83.9999974365235,0|2,1:0|0:0,0:0:0:0:
242,195,35140,2,0,L|233:98,1,83.9999974365235,8|2,0:0|0:0,0:0:0:0:
355,36,35440,1,2,1:2:0:0:
331,234,35590,1,2,0:0:0:0:
268,29,35740,1,10,0:0:0:0:
426,102,35890,1,2,0:0:0:0:
198,240,36040,5,0,1:0:0:0:
346,119,36190,1,2,0:0:0:0:
294,333,36340,1,8,0:0:0:0:
169,118,36490,1,2,0:0:0:0:
99,360,36640,2,0,L|200:350,1,83.9999974365235,0|2,1:2|0:0,0:0:0:0:
401,186,36940,1,10,0:0:0:0:
171,231,37090,1,2,0:0:0:0:
430,318,37240,5,2,1:2:0:0:
146,244,37390,1,12,0:0:0:0:
409,71,37540,2,0,L|404:155,1,83.9999974365235,12|2,1:2|0:0,0:0:0:0:
294,368,37840,1,0,1:0:0:0:
237,169,37990,1,8,0:0:0:0:
239,150,38065,1,8,0:0:0:0:
241,127,38140,2,0,L|245:85,1,41.9999987182618,8|8,1:2|0:0,0:0:0:0:
331,53,38290,2,0,L|327:95,1,41.9999987182618,8|8,0:0|0:0,0:0:0:0:
320,174,38440,6,0,P|362:139|445:136,2,119.000002269745,4|0|0,1:0|0:0|0:0,0:0:0:0:
331,287,39190,1,2,0:0:0:0:
403,217,39340,1,2,0:0:0:0:
224,159,39490,1,0,0:0:0:0:
224,159,39640,6,0,P|229:215|231:294,1,119.000002269745,2|0,0:0|0:0,0:0:0:0:
160,327,40090,2,0,P|115:296|32:290,1,119.000002269745,2|0,0:0|0:0,0:0:0:0:
140,164,40540,2,0,P|121:186|94:198,1,59.5000011348725,2|0,0:0|0:0,0:0:0:0:
58,58,40840,5,2,0:0:0:0:
58,58,40990,2,0,P|64:93|67:142,1,59.5000011348725,2|0,0:0|0:0,0:0:0:0:
214,264,41290,2,0,P|215:223|223:180,1,59.5000011348725,2|0,0:0|0:0,0:0:0:0:
249,27,41590,1,0,0:0:0:0:
140,164,41740,1,2,0:0:0:0:
319,94,41890,6,0,B|413:87|383:134|495:121,1,178.500003404617,2|0,0:0|0:0,0:0:0:0:
447,30,42490,1,0,0:0:0:0:
339,181,42640,2,0,P|342:203|332:256,2,59.5000011348725,2|0|2,0:0|0:0|0:0,0:0:0:0:
27,175,43240,6,0,B|158:165|116:231|273:212,1,238.00000453949,2|0,0:0|0:0,0:0:0:0:
204,124,43990,1,2,0:0:0:0:
67,259,44140,1,2,0:0:0:0:
110,88,44290,1,0,0:0:0:0:
158,283,44440,6,0,P|196:245|269:239,1,119.000002269745,2|0,0:0|0:0,0:0:0:0:
265,369,44890,2,0,P|239:343|231:308,1,59.5000011348725,2|0,0:0|0:0,0:0:0:0:
337,248,45190,2,0,P|327:283|301:307,1,59.5000011348725,2|0,0:0|0:0,0:0:0:0:
294,156,45490,1,2,0:0:0:0:
294,156,45640,6,0,B|351:159|351:159|398:183|398:183|478:185,1,178.500003404617,2|0,0:0|0:0,0:0:0:0:
494,107,46240,2,0,L|408:106,1,59.5000011348725,2|0,0:0|0:0,0:0:0:0:
322,244,46540,1,2,0:0:0:0:
322,244,46690,6,0,B|265:241|265:241|218:217|218:217|138:215,1,178.500003404617,2|0,0:0|0:0,0:0:0:0:
288,30,47440,2,0,P|334:50|366:166,1,178.500003404617,2|0,0:0|0:0,0:0:0:0:
283,297,48040,6,0,B|151:287|193:353|36:334,1,238.00000453949,2|0,0:0|0:0,0:0:0:0:
111,239,48790,1,2,0:0:0:0:
240,382,48940,1,2,0:0:0:0:
278,206,49090,1,0,0:0:0:0:
133,269,49240,6,0,P|128:200|122:145,1,119.000002269745,2|0,0:0|0:0,0:0:0:0:
74,44,49690,2,0,P|105:63|137:71,1,59.5000011348725,2|0,0:0|0:0,0:0:0:0:
251,0,49990,2,0,P|222:9|197:25,1,59.5000011348725,2|0,0:0|0:0,0:0:0:0:
221,157,50290,1,2,0:0:0:0:
221,157,50440,6,0,B|263:119|316:142|316:142|353:106|412:117,1,178.500003404617,2|0,0:0|0:0,0:0:0:0:
434,224,51040,2,0,P|411:219|383:194,1,59.5000011348725,0|2,0:0|0:0,0:0:0:0:
449,66,51340,1,0,0:0:0:0:
449,66,51490,6,0,B|474:102|456:148|456:148|487:163|503:182|503:182|518:213|505:240,1,178.500003404617,2|0,0:0|0:0,0:0:0:0:
469,306,52090,1,0,0:0:0:0:
469,306,52240,2,0,P|425:282|392:280,2,59.5000011348725,2|0|2,0:0|0:0|0:0,0:0:0:0:
127,353,52840,6,0,B|151:319|164:250|148:194|92:196|51:237|75:285,1,238.00000453949,2|0,0:0|0:0,0:0:0:0:
218,350,53590,1,2,0:0:0:0:
207,197,53740,1,2,0:0:0:0:
106,363,53890,1,0,0:0:0:0:
94,127,54040,6,0,P|129:162|213:162,1,119.000002269745,2|0,0:0|0:0,0:0:0:0:
207,39,54490,2,0,P|181:65|173:100,1,59.5000011348725,2|0,0:0|0:0,0:0:0:0:
284,163,54790,2,0,P|274:128|248:104,1,59.5000011348725,2|0,0:0|0:0,0:0:0:0:
237,265,55090,1,2,0:0:0:0:
237,265,55240,6,0,P|291:206|403:208,1,178.500003404617,2|0,0:0|0:0,0:0:0:0:
396,231,55840,2,0,P|309:227|253:303,1,178.500003404617,2|0,0:0|0:0,0:0:0:0:
351,372,56440,6,0,L|344:306,1,59.5000011348725,2|0,0:0|0:0,0:0:0:0:
396,231,56740,2,0,L|403:165,1,59.5000011348725,2|0,0:0|0:0,0:0:0:0:
276,72,57040,2,0,P|313:98|345:101,1,59.5000011348725,2|0,0:0|0:0,0:0:0:0:
468,15,57340,2,0,P|439:24|417:43,1,59.5000011348725,2|0,0:0|0:0,0:0:0:0:
501,234,57640,6,0,L|485:97,2,132.999996448517,4|0|0,1:2|0:0|0:0,0:0:0:0:
364,317,58390,1,2,0:0:0:0:
414,219,58540,1,2,0:0:0:0:
452,356,58690,1,2,0:0:0:0:
318,237,58840,6,0,L|325:168,1,66.4999982242585,8|2,0:0|0:0,0:0:0:0:
332,26,59140,1,2,0:0:0:0:
454,107,59290,2,0,L|385:100,1,66.4999982242585,2|0,0:0|0:0,0:0:0:0:
228,87,59590,1,2,0:0:0:0:
228,87,59740,2,0,L|235:156,1,66.4999982242585,0|0,0:0|0:0,0:0:0:0:
241,293,60040,6,0,P|199:247|115:238,2,132.999996448517,0|0|0,1:0|0:0|0:0,0:0:0:0:
148,327,60790,1,2,0:0:0:0:
224,164,60940,1,2,0:0:0:0:
315,343,61090,1,2,0:0:0:0:
382,154,61240,6,0,L|294:161,1,66.4999982242585,8|0,0:0|0:0,0:0:0:0:
135,171,61540,1,2,0:0:0:0:
234,317,61690,2,0,L|227:229,1,66.4999982242585,2|0,0:0|0:0,0:0:0:0:
221,82,61990,1,2,0:0:0:0:
126,266,62140,2,0,L|133:178,1,66.4999982242585,2|0,0:0|0:0,0:0:0:0:
136,59,62440,6,0,P|94:105|10:114,2,132.999996448517,0|0|0,1:0|0:0|0:0,0:0:0:0:
47,22,63190,1,2,0:0:0:0:
87,197,63340,1,2,0:0:0:0:
163,61,63490,1,2,0:0:0:0:
226,216,63640,6,0,L|235:144,1,66.4999982242585,8|2,0:0|0:0,0:0:0:0:
249,9,63940,1,0,0:0:0:0:
108,115,64090,2,0,P|152:95|186:90,1,66.4999982242585,2|0,0:0|0:0,0:0:0:0:
342,173,64390,2,0,P|318:132|317:95,1,66.4999982242585,2|0,0:0|0:0,0:0:0:0:
435,53,64690,1,2,0:0:0:0:
435,53,64840,6,0,P|411:94|379:113,1,66.4999982242585,2|0,1:2|0:0,0:0:0:0:
193,30,65140,2,0,P|237:47|261:75,1,66.4999982242585,2|0,0:0|0:0,0:0:0:0:
314,230,65440,1,2,0:0:0:0:
185,119,65590,1,2,0:0:0:0:
335,37,65740,1,2,0:0:0:0:
233,209,65890,1,2,0:0:0:0:
96,20,66040,6,0,L|107:102,1,66.4999982242585,8|0,0:0|0:0,0:0:0:0:
125,255,66340,1,2,0:0:0:0:
251,57,66490,2,0,L|240:139,1,66.4999982242585,2|0,0:0|0:0,0:0:0:0:
207,331,66790,2,0,P|254:288|342:295,1,132.999996448517,2|2,0:0|0:0,0:0:0:0:
409,382,67240,6,0,L|398:290,1,73.4999977569581,0|0,1:0|0:0,0:0:0:0:
357,128,67540,2,0,L|346:220,1,73.4999977569581,8|0,0:0|0:3,0:0:0:0:
479,272,67840,1,0,1:0:0:0:
479,272,67990,2,0,L|490:364,2,73.4999977569581,8|2|0,0:0|0:3|0:0,0:0:0:0:
463,93,68440,5,8,0:0:0:0:
373,207,68590,1,0,0:0:0:0:
394,30,68740,1,0,0:0:0:0:
471,188,68890,1,8,0:0:0:0:
311,56,69040,2,0,L|320:141,1,73.4999977569581,0|0,0:0|0:0,0:0:0:0:
260,213,69340,1,4,0:3:0:0:
260,213,69490,1,4,0:3:0:0:
162,117,69640,6,0,L|247:126,1,73.4999977569581,0|0,1:0|0:0,0:0:0:0:
417,201,69940,2,0,L|343:208,1,73.4999977569581,8|0,0:0|0:0,0:0:0:0:
198,287,70240,1,0,1:0:0:0:
198,287,70390,2,0,L|271:294,2,73.4999977569581,8|2|0,0:0|0:3|0:0,0:0:0:0:
136,213,70840,5,8,0:0:0:0:
339,230,70990,1,0,0:0:0:0:
223,374,71140,1,0,0:0:0:0:
243,198,71290,2,0,L|252:113,1,73.4999977569581,8|0,0:0|0:0,0:0:0:0:
144,30,71590,1,8,0:0:0:0:
76,158,71740,1,8,0:0:0:0:
76,158,71815,1,8,0:0:0:0:
76,158,71890,1,8,0:0:0:0:
149,244,72040,6,0,P|185:222|247:220,1,73.4999977569581,2|0,1:2|0:0,0:0:0:0:
385,331,72340,2,0,P|349:323|318:303,1,73.4999977569581,8|0,0:0|0:0,0:0:0:0:
277,112,72640,1,0,1:0:0:0:
391,228,72790,1,8,0:0:0:0:
201,375,72940,2,0,L|213:287,1,73.4999977569581,0|0,0:0|0:0,0:0:0:0:
295,100,73240,6,0,L|307:188,1,73.4999977569581,10|0,0:0|0:0,0:0:0:0:
328,368,73540,1,0,0:0:0:0:
452,191,73690,2,0,P|410:223|371:228,1,73.4999977569581,8|2,0:0|0:0,0:0:0:0:
160,156,73990,1,8,0:0:0:0:
236,377,74140,2,0,L|248:289,1,73.4999977569581,8|0,0:0|0:0,0:0:0:0:
290,51,74440,5,10,1:2:0:0:
321,270,74590,1,8,1:2:0:0:
410,81,74740,1,10,1:2:0:0:
199,211,74890,1,8,1:2:0:0:
465,261,75040,5,10,1:2:0:0:
127,163,75190,1,10,1:2:0:0:
495,40,75340,1,10,1:2:0:0:
198,340,75490,1,10,1:2:0:0:
198,340,76840,6,0,L|188:236,1,83.9999974365235,4|0,1:0|0:0,0:0:0:0:
174,50,77140,1,10,0:0:0:0:
92,282,77290,1,0,0:0:0:0:
21,53,77440,2,0,P|70:84|116:84,1,83.9999974365235,2|0,1:2|0:0,0:0:0:0:
347,16,77740,5,10,0:0:0:0:
337,290,77890,1,0,0:2:0:0:
263,34,78040,1,2,1:2:0:0:
239,314,78190,1,0,0:0:0:0:
116,107,78340,2,0,P|165:76|211:76,1,83.9999974365235,10|0,0:0|0:0,0:0:0:0:
428,119,78640,5,2,1:2:0:0:
189,163,78790,1,2,0:0:0:0:
355,15,78940,2,0,P|348:46|344:106,1,83.9999974365235,10|0,0:0|0:0,0:0:0:0:
428,309,79240,6,0,P|384:281|328:279,1,83.9999974365235,2|0,1:2|0:0,0:0:0:0:
126,361,79540,1,8,0:0:0:0:
215,140,79690,1,2,0:0:0:0:
215,140,79765,1,2,0:0:0:0:
215,140,79840,2,0,L|223:234,1,83.9999974365235,2|0,1:2|0:0,0:0:0:0:
346,383,80140,2,0,L|354:289,1,83.9999974365235,8|0,0:2|0:0,0:0:0:0:
192,124,80440,6,0,L|200:218,1,83.9999974365235,2|0,1:2|0:0,0:0:0:0:
215,380,80740,1,8,0:0:0:0:
103,163,80890,1,2,0:0:0:0:
259,302,81040,2,0,P|213:291|171:300,1,83.9999974365235,2|0,1:2|0:0,0:0:0:0:
27,374,81340,1,8,0:0:0:0:
81,147,81490,1,2,0:0:0:0:
171,330,81640,5,2,1:2:0:0:
210,79,81790,1,0,0:0:0:0:
343,241,81940,1,10,0:0:0:0:
90,177,82090,1,0,0:0:0:0:
322,54,82240,2,0,L|333:146,1,83.9999974365235,2|0,1:2|0:0,0:0:0:0:
351,352,82540,5,10,0:0:0:0:
438,155,82690,1,0,0:0:0:0:
223,244,82840,1,2,1:2:0:0:
455,323,82990,1,0,0:0:0:0:
210,123,83140,2,0,L|221:215,1,83.9999974365235,10|0,0:0|0:0,0:0:0:0:
351,352,83440,5,0,1:0:0:0:
312,131,83590,1,2,0:0:0:0:
141,357,83740,2,0,L|152:265,1,83.9999974365235,10|0,0:0|0:0,0:0:0:0:
174,45,84040,6,0,P|213:73|262:75,1,83.9999974365235,2|0,1:2|0:0,0:0:0:0:
462,21,84340,1,8,0:0:0:0:
418,232,84490,1,0,0:0:0:0:
247,77,84640,6,0,L|255:162,1,83.9999974365235,2|0,1:2|0:0,0:0:0:0:
313,356,84940,1,8,0:0:0:0:
350,132,85090,1,0,0:0:0:0:
187,355,85240,5,2,1:2:0:0:
163,97,85390,1,8,0:0:0:0:
406,304,85540,2,0,L|414:219,1,83.9999974365235,8|0,0:0|0:0,0:0:0:0:
426,15,85840,5,2,1:2:0:0:
259,236,85990,1,8,0:0:0:0:
255,212,86065,1,8,0:0:0:0:
251,186,86140,2,0,L|244:135,1,41.9999987182618,8|8,1:2|0:0,0:0:0:0:
161,110,86290,2,0,L|166:151,1,41.9999987182618,8|8,0:0|0:0,0:0:0:0:
172,239,86440,6,0,B|250:229|246:292|348:268,1,167.999994873047,4|8,1:0|0:0,0:0:0:0:
406,206,86890,1,2,0:0:0:0:
278,100,87040,2,0,L|290:199,1,83.9999974365235,0|2,1:0|0:0,0:0:0:0:
418,316,87340,1,8,0:0:0:0:
404,63,87490,1,2,0:0:0:0:
404,63,87565,1,2,0:0:0:0:
404,63,87640,6,0,P|355:101|322:105,1,83.9999974365235,2|0,1:2|0:0,0:0:0:0:
95,35,87940,1,8,0:0:0:0:
155,241,88090,1,2,0:0:0:0:
258,82,88240,6,0,P|202:54|169:56,1,83.9999974365235,2|0,1:2|0:0,0:0:0:0:
58,269,88540,1,8,0:0:0:0:
12,40,88690,1,2,0:0:0:0:
177,220,88840,6,0,L|189:127,1,83.9999974365235,2|0,1:2|0:0,0:0:0:0:
332,6,89140,2,0,L|344:99,1,83.9999974365235,8|2,0:0|0:0,0:0:0:0:
323,125,89365,1,0,0:0:0:0:
323,125,89440,2,0,L|335:218,1,83.9999974365235,2|0,1:2|0:0,0:0:0:0:
358,371,89740,2,0,P|399:339|449:331,1,83.9999974365235,8|2,0:0|0:0,0:0:0:0:
492,166,90040,6,0,B|398:159|418:219|320:206,1,167.999994873047,2|8,1:2|0:0,0:0:0:0:
181,158,90490,1,2,0:0:0:0:
359,104,90640,1,0,1:0:0:0:
217,262,90790,1,2,0:0:0:0:
276,41,90940,1,10,0:0:0:0:
323,296,91090,1,2,0:0:0:0:
158,150,91240,6,0,P|122:135|73:133,1,83.9999974365235,2|0,1:2|0:0,0:0:0:0:
40,294,91540,2,0,P|70:270|97:228,1,83.9999974365235,10|0,0:0|0:0,0:0:0:0:
24,1,91840,2,0,P|59:27|106:34,1,83.9999974365235,2|0,1:2|0:0,0:0:0:0:
306,10,92140,1,10,0:0:0:0:
158,150,92290,2,0,P|193:124|240:117,1,83.9999974365235,2|0,0:2|1:0,0:0:0:0:
463,180,92590,5,2,0:0:0:0:
227,229,92740,1,8,0:0:0:0:
394,49,92890,2,0,L|384:132,1,83.9999974365235,2|0,0:0|1:2,0:0:0:0:
341,352,93190,1,2,0:0:0:0:
302,171,93340,1,10,0:0:0:0:
442,322,93490,1,2,0:0:0:0:
478,47,93640,5,4,1:2:0:0:
395,249,93790,1,2,0:0:0:0:
289,16,93940,1,8,0:0:0:0:
253,287,94090,1,2,0:0:0:0:
376,54,94240,5,4,1:2:0:0:
454,332,94390,1,2,0:0:0:0:
494,32,94540,1,10,0:0:0:0:
193,192,94690,2,0,L|287:206,1,83.9999974365235,2|0,0:0|1:0,0:0:0:0:
505,223,94990,5,2,0:0:0:0:
270,340,95140,1,10,0:0:0:0:
480,128,95290,2,0,L|386:142,1,83.9999974365235,2|0,0:0|1:0,0:0:0:0:
163,180,95590,5,2,0:0:0:0:
414,259,95740,1,10,0:0:0:0:
116,335,95890,1,2,0:0:0:0:
