osu file format v14

[General]
AudioFilename: audio.mp3
AudioLeadIn: 0
PreviewTime: 76840
Countdown: 0
SampleSet: Soft
StackLeniency: 0.4
Mode: 0
LetterboxInBreaks: 0
WidescreenStoryboard: 1

[Editor]
DistanceSpacing: 1.5
BeatDivisor: 4
GridSize: 32
TimelineZoom: 1

[Metadata]
Title:Beat Syncer
TitleUnicode:ビートシンカー
Artist:DIVELA feat. Hatsune Miku
ArtistUnicode:DIVELA feat. 初音ミク
Creator:Log Off Now
Version:Hard
Source:グルーヴコースター
Tags:japanese vocaloid rock video game ミライコレクション groove coaster mirai collection short cut version
BeatmapID:2161928
BeatmapSetID:1034008

[Difficulty]
HPDrainRate:4.5
CircleSize:3.4
OverallDifficulty:6.5
ApproachRate:8
SliderMultiplier:1.1
SliderTickRate:1

[Events]
//Background and Video events
0,0,"BeatSyncer.jpg",0,0
//Break Periods
//Storyboard Layer 0 (Background)
//Storyboard Layer 1 (Fail)
//Storyboard Layer 2 (Pass)
//Storyboard Layer 3 (Foreground)
//Storyboard Layer 4 (Overlay)
//Storyboard Sound Samples

[TimingPoints]
40,300,4,2,1,55,1,0
40,-117.647058823529,4,2,1,55,0,0
9640,-100,4,2,1,65,0,0
14440,-100,4,2,1,70,0,0
15640,-100,4,2,1,75,0,0
16840,-100,4,2,1,80,0,0
17440,-100,4,2,1,85,0,0
18040,-100,4,2,1,70,0,0
18940,-100,4,2,2,75,0,0
19165,-100,4,2,2,5,0,0
19240,-100,4,2,1,85,0,1
19315,-100,4,2,1,85,0,0
38440,-117.64705882353,4,2,1,60,0,0
57640,-105.263157894737,4,2,1,60,0,0
67240,-100,4,2,1,70,0,0
72040,-100,4,2,1,80,0,0
74590,-100,4,2,1,65,0,0
74740,-100,4,2,1,68,0,0
74890,-100,4,2,1,71,0,0
75040,-100,4,2,1,73,0,0
75190,-100,4,2,1,76,0,0
75340,-100,4,2,1,79,0,0
75490,-100,4,2,1,82,0,0
76840,-100,4,2,1,87,0,1
96040,-100,4,2,1,87,0,0

[Colours]
Combo1 : 172,192,247
Combo2 : 237,167,3
Combo3 : 3,199,193
Combo4 : 0,70,128

[HitObjects]
114,127,40,6,0,P|81:150|17:157,2,93.500001783371,6|0|2,0:0|0:0|0:0,0:0:0:0:
180,192,940,2,0,P|218:217|264:223,2,93.500001783371,2|0|2,0:0|0:0|0:0,0:0:0:0:
114,258,1840,2,0,L|119:315,1,46.7500008916855,2|0,0:0|0:0,0:0:0:0:
205,352,2140,2,0,L|210:295,1,46.7500008916855,2|2,0:0|0:0,0:0:0:0:
264,223,2440,6,0,P|297:195|399:214,1,140.250002675057,2|2,0:0|0:0,0:0:0:0:
470,158,3040,2,0,L|456:17,1,140.250002675057,2|0,0:0|0:0,0:0:0:0:
374,64,3640,2,0,L|388:205,1,140.250002675057,2|2,0:0|0:0,0:0:0:0:
465,247,4240,1,2,0:0:0:0:
465,247,4690,5,2,0:0:0:0:
398,319,4840,2,0,P|353:298|304:293,2,93.500001783371,2|0|0,0:0|0:0|0:0,0:0:0:0:
301,194,5740,2,0,P|256:215|207:220,2,93.500001783371,2|0|0,0:0|0:0|0:0,0:0:0:0:
375,125,6640,2,0,L|436:133,2,46.7500008916855,2|0|2,0:0|0:0|0:0,0:0:0:0:
309,58,7240,6,0,B|219:50|252:87|156:76,1,140.250002675057,2|0,0:0|0:0,0:0:0:0:
87,33,7840,2,0,L|100:179,1,140.250002675057,2|0,0:0|0:0,0:0:0:0:
160,231,8440,2,0,P|184:204|284:196,1,140.250002675057,2|0,0:0|0:0,0:0:0:0:
370,154,9040,2,0,L|357:300,1,140.250002675057,2|0,0:0|0:0,0:0:0:0:
245,324,9640,6,0,L|238:260,1,55,6|0,1:2|0:0,0:0:0:0:
164,211,9940,2,0,L|173:101,1,110,8|2,0:0|0:0,0:0:0:0:
233,35,10390,1,0,1:0:0:0:
233,35,10540,2,0,P|277:61|290:62,1,55,8|0,0:0|0:0,0:0:0:0:
372,8,10840,6,0,L|365:72,1,55,0|0,1:0|0:0,0:0:0:0:
321,142,11140,2,0,L|330:251,1,110,8|2,0:0|0:0,0:0:0:0:
404,312,11590,1,0,1:0:0:0:
404,312,11740,1,8,0:0:0:0:
507,169,12040,6,0,P|462:204|399:207,1,110,0|8,1:0|0:0,0:0:0:0:
347,146,12490,1,2,0:0:0:0:
279,202,12640,2,0,L|287:306,2,82.5,2|0|0,0:0|0:0|0:0,0:0:0:0:
214,140,13240,6,0,P|169:105|106:102,1,110,0|8,1:0|0:0,0:0:0:0:
48,154,13690,2,0,L|56:213,1,55,0|0,1:0|0:0,0:0:0:0:
122,265,13990,1,10,0:0:0:0:
122,265,14140,2,0,L|114:319,1,55,10|10,0:0|0:0,0:0:0:0:
186,370,14440,6,0,P|234:339|293:335,1,110,6|10,1:2|1:2,0:0:0:0:
365,372,14890,1,0,0:0:0:0:
432,316,15040,2,0,L|419:187,1,110,10|10,1:2|1:2,0:0:0:0:
333,54,15640,6,0,P|285:85|226:89,1,110,6|10,1:2|1:2,0:0:0:0:
154,52,16090,1,0,0:0:0:0:
87,108,16240,2,0,L|100:237,1,110,8|10,1:2|1:2,0:0:0:0:
163,275,16690,1,2,0:0:0:0:
236,227,16840,6,0,P|286:210|309:213,1,55,4|8,1:2|1:2,0:0:0:0:
334,135,17140,2,0,P|373:169|382:191,1,55,10|8,1:2|1:2,0:0:0:0:
363,258,17440,5,10,1:2:0:0:
363,258,17590,1,8,1:2:0:0:
428,316,17740,1,10,1:2:0:0:
365,377,17890,1,10,1:2:0:0:
428,316,18940,5,8,0:0:0:0:
330,182,19240,6,0,P|341:234|345:296,1,110,4|8,1:0|0:0,0:0:0:0:
281,344,19690,1,2,0:0:0:0:
209,302,19840,2,0,P|181:295|151:296,1,55,0|2,1:0|0:0,0:0:0:0:
84,339,20140,1,8,0:0:0:0:
40,269,20290,1,2,0:0:0:0:
40,269,20365,1,2,0:0:0:0:
40,269,20440,6,0,P|56:223|60:168,2,82.5,0|2|2,1:0|0:0|0:0,0:0:0:0:
110,311,21040,2,0,L|177:300,1,55,2|2,1:2|0:0,0:0:0:0:
203,221,21340,2,0,L|270:232,1,55,10|2,0:0|0:0,0:0:0:0:
323,284,21640,6,0,P|310:320|314:379,2,82.5,0|2|2,1:0|0:0|0:0,0:0:0:0:
402,222,22240,2,0,L|395:159,2,55,0|2|8,1:0|0:0|0:0,0:0:0:0:
483,260,22690,1,2,0:0:0:0:
483,260,22840,6,0,L|476:323,1,55,2|0,1:2|0:0,0:0:0:0:
406,361,23140,2,0,P|368:342|351:340,1,55,10|0,0:2|0:0,0:0:0:0:
279,362,23440,2,0,P|243:378|219:380,1,55,2|2,1:2|0:0,0:0:0:0:
173,313,23740,2,0,L|138:319,2,27.5,10|0|0,0:0|0:0|0:0,0:0:0:0:
239,256,24040,6,0,B|259:219|259:219|251:142,1,110,0|8,1:0|0:0,0:0:0:0:
196,78,24490,1,2,0:0:0:0:
138,139,24640,2,0,P|111:150|73:148,1,55,0|2,1:0|0:0,0:0:0:0:
15,106,24940,1,8,0:0:0:0:
0,192,25090,1,2,0:0:0:0:
0,192,25165,1,2,0:0:0:0:
0,192,25240,6,0,L|10:295,2,82.5,0|2|2,1:0|0:0|0:0,0:0:0:0:
85,244,25840,2,0,P|113:232|157:224,1,55,2|2,1:2|0:0,0:0:0:0:
224,274,26140,2,0,L|218:205,1,55,10|2,0:0|0:0,0:0:0:0:
168,149,26440,6,0,L|180:17,1,110,0|8,1:0|0:0,0:0:0:0:
254,10,26890,1,2,0:0:0:0:
311,74,27040,2,0,L|304:141,2,55,0|2|10,1:2|0:0|0:0,0:0:0:0:
388,37,27490,1,2,0:0:0:0:
459,85,27640,5,2,1:2:0:0:
414,156,27790,1,12,0:0:0:0:
414,156,27940,2,0,L|426:275,1,110,12|0,1:2|1:0,0:0:0:0:
367,335,28390,1,8,0:0:0:0:
367,335,28465,1,8,0:0:0:0:
367,335,28540,2,0,L|363:374,3,27.5,8|8|8|8,1:2|0:0|0:0|0:0,0:0:0:0:
331,310,28840,6,0,P|287:328|212:328,1,110,4|8,1:0|0:0,0:0:0:0:
158,281,29290,1,2,0:0:0:0:
214,220,29440,2,0,P|224:187|227:160,1,55,0|2,1:0|0:0,0:0:0:0:
174,102,29740,1,8,0:0:0:0:
247,54,29890,1,2,0:0:0:0:
247,54,29965,1,2,0:0:0:0:
247,54,30040,6,0,B|274:71|274:71|346:61,2,82.5,0|2|2,1:0|0:0|0:0,0:0:0:0:
171,12,30640,2,0,L|107:18,1,55,2|2,1:2|0:0,0:0:0:0:
73,94,30940,2,0,L|79:158,1,55,10|2,0:0|0:0,0:0:0:0:
137,209,31240,6,0,P|182:182|231:186,2,82.5,0|2|2,1:0|0:0|0:0,0:0:0:0:
74,276,31840,2,0,L|17:268,2,55,0|2|8,1:0|0:0|0:0,0:0:0:0:
144,332,32290,1,2,0:0:0:0:
213,281,32440,6,0,L|207:222,1,55,2|0,1:2|0:0,0:0:0:0:
149,160,32740,2,0,L|154:105,1,55,10|0,0:2|0:0,0:0:0:0:
233,67,33040,2,0,P|267:82|299:85,1,55,2|2,1:2|0:0,0:0:0:0:
333,157,33340,2,0,L|330:188,2,27.5,10|0|0,0:0|0:0|0:0,0:0:0:0:
393,91,33640,6,0,P|431:126|507:110,1,110,0|8,1:0|0:0,0:0:0:0:
511,205,34090,1,2,0:0:0:0:
434,257,34240,2,0,P|385:248|359:249,1,55,0|2,1:0|0:0,0:0:0:0:
318,304,34540,1,8,0:0:0:0:
256,249,34690,1,2,0:0:0:0:
256,249,34765,1,2,0:0:0:0:
256,249,34840,6,0,L|265:151,2,82.5,0|2|2,1:0|0:0|0:0,0:0:0:0:
181,190,35440,2,0,P|152:179|110:177,1,55,2|2,1:2|0:0,0:0:0:0:
53,224,35740,2,0,P|70:258|73:285,1,55,10|2,0:0|0:0,0:0:0:0:
27,351,36040,6,0,B|71:321|71:321|130:334,1,110,0|8,1:0|0:0,0:0:0:0:
194,384,36490,1,2,0:0:0:0:
259,328,36640,2,0,L|331:343,2,55,0|2|10,1:2|0:0|0:0,0:0:0:0:
206,259,37090,1,2,0:0:0:0:
270,193,37240,5,2,1:2:0:0:
341,246,37390,1,12,0:0:0:0:
341,246,37540,2,0,L|329:136,1,110,12|0,1:2|1:0,0:0:0:0:
369,60,37990,1,8,0:0:0:0:
369,60,38065,1,8,0:0:0:0:
369,60,38140,2,0,L|373:21,2,27.5,8|8|8,1:2|0:0|0:0,0:0:0:0:
438,110,38440,6,0,B|417:160|430:198|430:198|482:233|483:289,1,187.000003566742,4|0,1:0|0:0,0:0:0:0:
411,330,39190,2,0,P|415:355|418:385,2,46.7500008916855,2|2|0,0:0|0:0|0:0,0:0:0:0:
336,282,39640,2,0,P|305:315|200:325,2,140.250002675057,2|2|2,0:0|0:0|0:0,0:0:0:0:
259,154,40840,5,2,0:0:0:0:
259,154,40990,2,0,B|241:193|241:193|250:256,2,93.500001783371,2|2|0,0:0|0:0|0:0,0:0:0:0:
214,74,41740,1,2,0:0:0:0:
214,74,41890,2,0,B|78:94|141:32|17:46,1,187.000003566742,2|0,0:0|0:0,0:0:0:0:
55,129,42640,2,0,P|62:157|62:180,2,46.7500008916855,2|0|2,0:0|0:0|0:0,0:0:0:0:
135,240,43240,6,0,P|157:206|294:188,1,187.000003566742,2|0,0:0|0:0,0:0:0:0:
374,130,43990,2,0,L|371:79,2,46.7500008916855,2|2|0,0:0|0:0|0:0,0:0:0:0:
442,191,44440,2,0,P|435:237|435:303,1,93.500001783371,2|0,0:0|0:0,0:0:0:0:
373,348,44890,2,0,P|334:328|274:320,1,93.500001783371,2|2,0:0|0:0,0:0:0:0:
125,367,45490,1,2,0:0:0:0:
125,367,45640,6,0,B|152:334|150:287|150:287|112:235|148:173,1,187.000003566742,2|2,0:0|0:0,0:0:0:0:
248,61,46540,1,2,0:0:0:0:
248,61,46690,2,0,P|198:98|81:53,1,187.000003566742,2|0,0:0|0:0,0:0:0:0:
11,109,47440,2,0,P|16:157|17:218,1,93.500001783371,2|0,0:0|0:0,0:0:0:0:
124,324,48040,6,0,B|246:305|189:361|316:347,1,187.000003566742,2|0,0:0|0:0,0:0:0:0:
372,294,48790,2,0,L|426:301,2,46.7500008916855,2|2|0,0:0|0:0|0:0,0:0:0:0:
321,231,49240,2,0,P|295:177|299:126,1,93.500001783371,2|0,0:0|0:0,0:0:0:0:
354,79,49690,1,2,0:0:0:0:
215,14,49990,1,2,0:0:0:0:
105,117,50290,6,0,B|174:111|174:111|249:165|249:165|335:158,1,233.750004458428,2|0,0:0|0:0,0:0:0:0:
400,229,51190,2,0,L|339:237,1,46.7500008916855,2|0,0:0|0:0,0:0:0:0:
352,321,51490,2,0,P|216:252|184:268,1,187.000003566742,2|0,0:0|0:0,0:0:0:0:
133,321,52240,2,0,P|136:347|137:373,2,46.7500008916855,2|0|2,0:0|0:0|0:0,0:0:0:0:
108,168,52840,6,0,B|226:150|171:204|294:190,1,187.000003566742,2|0,0:0|0:0,0:0:0:0:
351,252,53590,2,0,L|343:312,2,46.7500008916855,2|2|0,0:0|0:0|0:0,0:0:0:0:
415,190,54040,2,0,L|401:75,1,93.500001783371,2|0,0:0|0:0,0:0:0:0:
342,31,54490,1,2,0:0:0:0:
235,129,54790,1,2,0:0:0:0:
106,39,55090,1,2,0:0:0:0:
106,39,55240,6,0,P|116:98|122:192,1,140.250002675057,2|0,0:0|0:0,0:0:0:0:
81,270,55840,2,0,P|123:233|218:226,1,140.250002675057,2|0,0:0|0:0,0:0:0:0:
293,280,56440,2,0,L|284:174,1,93.500001783371,2|2,0:0|0:0,0:0:0:0:
362,42,57040,1,2,0:0:0:0:
494,110,57340,1,2,0:0:0:0:
389,224,57640,6,0,L|403:104,2,104.499997209549,4|0|0,1:2|0:0|0:0,0:0:0:0:
332,278,58390,2,0,P|293:262|275:262,1,52.2499986047745,2|2,0:0|0:0,0:0:0:0:
208,284,58690,1,2,0:0:0:0:
208,284,58840,2,0,L|194:157,1,104.499997209549,8|2,0:0|0:0,0:0:0:0:
229,109,59290,2,0,P|187:135|126:134,1,104.499997209549,2|2,0:0|0:0,0:0:0:0:
66,95,59740,1,0,0:0:0:0:
29,247,60040,6,0,P|71:221|132:222,2,104.499997209549,0|0|0,1:0|0:0|0:0,0:0:0:0:
29,325,60790,2,0,L|98:335,1,52.2499986047745,2|2,0:0|0:0,0:0:0:0:
151,381,61090,1,2,0:0:0:0:
151,381,61240,2,0,P|207:345|255:344,1,104.499997209549,8|2,0:0|0:0,0:0:0:0:
305,294,61690,2,0,L|299:231,1,52.2499986047745,2|0,0:0|0:0,0:0:0:0:
245,185,61990,1,2,0:0:0:0:
245,185,62140,1,2,0:0:0:0:
348,66,62440,6,0,P|392:89|451:88,2,104.499997209549,0|0|0,1:0|0:0|0:0,0:0:0:0:
287,15,63190,2,0,P|255:28|225:31,1,52.2499986047745,2|2,0:0|0:0,0:0:0:0:
159,18,63490,1,2,0:0:0:0:
159,18,63640,2,0,L|168:131,1,104.499997209549,8|0,0:0|0:0,0:0:0:0:
222,177,64090,2,0,P|216:216|209:289,2,104.499997209549,2|2|2,0:0|0:0|0:0,0:0:0:0:
289,135,64840,6,0,P|320:154|389:161,1,104.499997209549,2|2,1:2|0:0,0:0:0:0:
454,122,65290,1,0,0:0:0:0:
500,185,65440,2,0,L|491:247,1,52.2499986047745,2|2,0:0|0:0,0:0:0:0:
430,285,65740,2,0,L|441:353,1,52.2499986047745,2|2,0:0|0:0,0:0:0:0:
357,249,66040,2,0,L|364:197,2,52.2499986047745,8|0|2,0:0|0:0|0:0,0:0:0:0:
300,303,66490,2,0,P|247:291|197:301,1,104.499997209549,2|2,0:0|0:0,0:0:0:0:
57,368,67090,1,2,0:0:0:0:
57,368,67240,6,0,L|48:246,1,110,0|8,1:0|0:0,0:0:0:0:
161,91,67840,2,0,L|153:145,1,55,0|8,1:0|0:0,0:0:0:0:
142,225,68140,1,2,0:3:0:0:
248,293,68440,2,0,L|255:347,2,55,8|0|0,0:0|0:0|0:0,0:0:0:0:
294,226,68890,1,8,0:0:0:0:
372,277,69040,2,0,P|405:288|439:285,1,55,0|0,0:0|0:0,0:0:0:0:
478,223,69340,1,4,0:3:0:0:
478,223,69490,1,4,0:3:0:0:
430,145,69640,6,0,B|373:131|373:131|311:148,1,110,0|8,1:0|0:0,0:0:0:0:
248,293,70240,2,0,L|241:239,1,55,0|8,1:0|0:0,0:0:0:0:
231,156,70540,1,2,0:3:0:0:
120,59,70840,2,0,L|110:135,1,55,8|0,0:0|0:0,0:0:0:0:
49,174,71140,1,0,0:0:0:0:
49,174,71290,2,0,L|64:304,1,110,8|8,0:0|0:0,0:0:0:0:
128,335,71740,2,0,L|122:371,2,27.5,8|8|8,0:0|0:0|0:0,0:0:0:0:
203,295,72040,6,0,P|231:318|310:321,1,110,2|8,1:2|0:0,0:0:0:0:
481,222,72640,2,0,L|426:213,1,55,0|8,1:0|0:0,0:0:0:0:
348,199,72940,1,0,0:0:0:0:
235,76,73240,2,0,B|247:125|247:125|238:183,1,110,10|0,0:0|0:0,0:0:0:0:
174,241,73690,1,8,0:0:0:0:
174,241,73840,2,0,P|127:218|100:218,1,55,2|8,0:0|0:0,0:0:0:0:
53,259,74140,1,8,0:0:0:0:
49,125,74440,6,0,L|110:138,1,55,10|8,1:2|1:2,0:0:0:0:
173,60,74740,2,0,L|192:119,1,55,10|8,1:2|1:2,0:0:0:0:
170,197,75040,1,10,1:2:0:0:
170,197,75190,1,10,1:2:0:0:
226,257,75340,1,10,1:2:0:0:
299,219,75490,1,10,1:2:0:0:
299,219,76840,6,0,L|289:139,1,55,4|0,1:0|0:0,0:0:0:0:
379,91,77140,2,0,L|369:171,1,55,10|0,0:0|0:0,0:0:0:0:
458,223,77440,2,0,L|448:143,1,55,2|0,1:2|0:0,0:0:0:0:
382,256,77740,6,0,L|392:336,1,55,10|0,0:0|0:2,0:0:0:0:
302,384,78040,2,0,L|312:304,1,55,2|0,1:2|0:0,0:0:0:0:
223,252,78340,2,0,L|233:332,1,55,10|0,0:0|0:0,0:0:0:0:
159,359,78640,1,2,1:2:0:0:
159,359,78790,1,2,0:0:0:0:
76,328,78940,2,0,P|40:311|4:307,1,55,10|0,0:0|0:0,0:0:0:0:
116,247,79240,6,0,L|103:130,1,110,2|8,1:2|0:0,0:0:0:0:
132,53,79690,1,2,0:0:0:0:
132,53,79765,1,2,0:0:0:0:
132,53,79840,2,0,P|167:79|238:67,1,110,2|8,1:2|0:2,0:0:0:0:
300,26,80290,1,0,0:0:0:0:
346,97,80440,6,0,L|337:216,1,110,2|8,1:2|0:0,0:0:0:0:
278,265,80890,1,2,0:0:0:0:
278,265,81040,2,0,L|286:335,1,55,2|0,1:2|0:0,0:0:0:0:
348,372,81340,1,8,0:0:0:0:
348,372,81490,1,2,0:0:0:0:
408,315,81640,6,0,L|418:235,1,55,2|0,1:2|0:0,0:0:0:0:
493,213,81940,2,0,L|503:293,1,55,10|0,0:0|0:0,0:0:0:0:
406,176,82240,2,0,L|416:96,1,55,2|0,1:2|0:0,0:0:0:0:
322,26,82540,6,0,L|332:106,1,55,10|0,0:0|0:0,0:0:0:0:
245,170,82840,2,0,L|255:90,1,55,2|0,1:2|0:0,0:0:0:0:
326,196,83140,2,0,L|336:276,1,55,10|0,0:0|0:0,0:0:0:0:
269,307,83440,1,0,1:0:0:0:
192,267,83590,1,2,0:0:0:0:
192,267,83740,1,10,0:0:0:0:
49,350,84040,6,0,L|38:233,1,110,2|8,1:2|0:0,0:0:0:0:
32,158,84490,1,0,0:0:0:0:
108,188,84640,2,0,B|172:194|150:169|231:177,1,110,2|8,1:2|0:0,0:0:0:0:
288,225,85090,1,0,0:0:0:0:
288,225,85240,5,2,1:2:0:0:
354,176,85390,1,8,0:0:0:0:
427,213,85540,2,0,L|419:272,1,55,8|0,0:0|0:0,0:0:0:0:
360,324,85840,1,2,1:2:0:0:
280,277,85990,1,8,0:0:0:0:
280,277,86065,1,8,0:0:0:0:
280,277,86140,2,0,L|284:238,3,27.5,8|8|8|8,1:2|0:0|0:0|0:0,0:0:0:0:
254,219,86440,6,0,P|204:251|143:251,2,110,4|8|0,1:0|0:0|1:0,0:0:0:0:
290,144,87190,1,2,0:0:0:0:
233,83,87340,1,8,0:0:0:0:
162,125,87490,1,2,0:0:0:0:
162,125,87565,1,2,0:0:0:0:
162,125,87640,6,0,P|113:101|51:98,1,110,2|8,1:2|0:0,0:0:0:0:
0,157,88090,1,2,0:0:0:0:
34,232,88240,2,0,B|49:284|49:284|34:342,1,110,2|8,1:2|0:0,0:0:0:0:
194,378,88840,6,0,P|240:345|302:342,1,110,2|8,1:2|0:0,0:0:0:0:
366,375,89290,1,2,0:0:0:0:
428,320,89440,2,0,P|482:316|532:320,2,82.5,2|0|2,1:2|0:0|0:0,0:0:0:0:
378,252,90040,6,0,P|354:206|358:142,1,110,2|8,1:2|0:0,0:0:0:0:
304,83,90490,2,0,L|224:96,1,55,2|0,0:0|1:0,0:0:0:0:
193,151,90790,2,0,L|113:138,2,55,2|10|2,0:0|0:0|0:0,0:0:0:0:
245,214,91240,6,0,L|233:290,1,55,2|0,1:2|0:0,0:0:0:0:
161,322,91540,2,0,L|149:246,1,55,10|0,0:0|0:0,0:0:0:0:
80,198,91840,2,0,L|68:274,1,55,2|0,1:2|0:0,0:0:0:0:
19,316,92140,1,10,0:0:0:0:
81,376,92290,2,0,P|124:358|154:357,1,55,2|0,0:2|1:0,0:0:0:0:
211,380,92590,5,2,0:0:0:0:
211,380,92740,1,8,0:0:0:0:
266,319,92890,2,0,P|261:291|259:253,1,55,2|0,0:0|1:2,0:0:0:0:
330,222,93190,2,0,L|385:227,2,55,2|10|2,0:0|0:0|0:0,0:0:0:0:
269,165,93640,6,0,P|235:180|203:183,1,55,4|2,1:2|0:0,0:0:0:0:
113,151,93940,2,0,P|133:188|137:209,1,55,8|2,0:0|0:0,0:0:0:0:
116,294,94240,2,0,P|150:279|182:276,1,55,4|2,1:2|0:0,0:0:0:0:
235,323,94540,1,10,0:0:0:0:
299,271,94690,6,0,L|312:141,1,110,2|2,0:0|0:0,0:0:0:0:
250,104,95140,1,10,0:0:0:0:
178,145,95290,2,0,P|146:156|105:155,1,55,2|0,0:0|1:0,0:0:0:0:
56,110,95590,5,2,0:0:0:0:
56,110,95740,1,10,0:0:0:0:
89,34,95890,1,2,0:0:0:0:
