osu file format v14

[General]
AudioFilename: audio.mp3
AudioLeadIn: 0
PreviewTime: -1
Countdown: 0
SampleSet: Soft
StackLeniency: 0.7
Mode: 3
LetterboxInBreaks: 0
SpecialStyle: 0
WidescreenStoryboard: 1

[Editor]
Bookmarks: 60796
DistanceSpacing: 1.1
BeatDivisor: 4
GridSize: 8
TimelineZoom: 1.6

[Metadata]
Title:REVENGE DOLL 39 ft.Hatsune Miku
TitleUnicode:REVENGE DOLL 39 ft.初音ミク
Artist:DIVELA
ArtistUnicode:DIVELA
Creator:Ba Dum Tchih
Version:HS
Source:Hatsune Miku × Alteil NEO Collaboration Theme Song
Tags:
BeatmapID:2019061
BeatmapSetID:964422

[Difficulty]
HPDrainRate:5
CircleSize:9
OverallDifficulty:5
ApproachRate:5
SliderMultiplier:1.4
SliderTickRate:1

[Events]
//Background and Video events
0,0,"background.jpg",0,0
//Break Periods
//Storyboard Layer 0 (Background)
//Storyboard Layer 1 (Fail)
//Storyboard Layer 2 (Pass)
//Storyboard Layer 3 (Foreground)
//Storyboard Sound Samples

[TimingPoints]
1246,300,4,2,1,70,1,0

[HitObjects]
199,192,1246,5,2,0:0:0:0:
199,192,1396,1,2,0:0:0:0:
369,192,1546,5,8,0:0:0:0:
483,192,1846,1,4,0:0:0:0:
199,192,1996,1,2,0:0:0:0:
369,192,2146,1,8,0:0:0:0:
199,192,2446,1,2,0:0:0:0:
199,192,2596,1,2,0:0:0:0:
369,192,2746,1,8,0:0:0:0:
199,192,2896,1,2,0:0:0:0:
199,192,2971,1,2,0:0:0:0:
483,192,3046,1,4,0:0:0:0:
199,192,3196,1,2,0:0:0:0:
369,192,3346,1,8,0:0:0:0:
199,192,3646,1,2,0:0:0:0:
199,192,3796,1,2,0:0:0:0:
369,192,3946,1,8,0:0:0:0:
483,192,4246,1,4,0:0:0:0:
199,192,4396,1,2,0:0:0:0:
369,192,4546,1,8,0:0:0:0:
199,192,4696,1,2,0:0:0:0:
483,192,4846,1,4,0:0:0:0:
199,192,4996,1,2,0:0:0:0:
369,192,5146,1,8,0:0:0:0:
483,192,5296,1,4,0:0:0:0:
199,192,5446,1,2,0:0:0:0:
199,192,5596,1,2,0:0:0:0:
369,192,5746,1,8,0:0:0:0:
199,192,5896,1,2,0:0:0:0:
199,192,6046,1,2,0:0:0:0:
199,192,6196,1,2,0:0:0:0:
369,192,6346,1,8,0:0:0:0:
199,192,6496,1,2,0:0:0:0:
369,192,6646,1,8,0:0:0:0:
199,192,6796,1,2,0:0:0:0:
199,192,6871,1,2,0:0:0:0:
369,192,6946,1,8,0:0:0:0:
369,192,7096,1,8,0:0:0:0:
483,192,7246,1,4,0:0:0:0:
199,192,7396,1,2,0:0:0:0:
369,192,7546,1,8,0:0:0:0:
369,192,7846,1,8,0:0:0:0:
199,192,7921,1,2,0:0:0:0:
199,192,7996,1,2,0:0:0:0:
199,192,8071,1,2,0:0:0:0:
369,192,8146,1,8,0:0:0:0:
199,192,8221,1,2,0:0:0:0:
199,192,8296,1,2,0:0:0:0:
199,192,8371,1,2,0:0:0:0:
369,192,8446,1,8,0:0:0:0:
369,192,8596,1,8,0:0:0:0:
199,192,8896,1,2,0:0:0:0:
199,192,9046,1,2,0:0:0:0:
369,192,9346,1,8,0:0:0:0:
369,192,9496,1,8,0:0:0:0:
199,192,9796,1,2,0:0:0:0:
199,192,9946,1,2,0:0:0:0:
369,192,10096,1,8,0:0:0:0:
199,192,10246,1,2,0:0:0:0:
199,192,10396,1,2,0:0:0:0:
369,192,10546,1,8,0:0:0:0:
369,192,10621,1,8,0:0:0:0:
369,192,10696,1,8,0:0:0:0:
369,192,10771,1,8,0:0:0:0:
199,192,10846,1,2,0:0:0:0:
256,192,10846,1,0,0:0:0:70:snare.wav
199,192,10996,1,2,0:0:0:0:
369,192,11146,1,8,0:0:0:0:
199,192,11296,1,2,0:0:0:0:
483,192,11446,1,4,0:0:0:0:
199,192,11596,1,2,0:0:0:0:
369,192,11746,1,8,0:0:0:0:
199,192,11896,1,2,0:0:0:0:
483,192,12046,1,4,0:0:0:0:
199,192,12196,1,2,0:0:0:0:
369,192,12346,1,8,0:0:0:0:
199,192,12646,1,2,0:0:0:0:
199,192,12796,1,2,0:0:0:0:
369,192,12946,1,8,0:0:0:0:
199,192,13246,1,2,0:0:0:0:
199,192,13396,1,2,0:0:0:0:
369,192,13546,1,8,0:0:0:0:
199,192,13696,1,2,0:0:0:0:
483,192,13846,1,4,0:0:0:0:
199,192,13996,1,2,0:0:0:0:
369,192,14146,1,8,0:0:0:0:
199,192,14296,1,2,0:0:0:0:
483,192,14446,1,4,0:0:0:0:
199,192,14596,1,2,0:0:0:0:
369,192,14746,1,8,0:0:0:0:
199,192,15046,1,2,0:0:0:0:
199,192,15196,1,2,0:0:0:0:
369,192,15346,1,8,0:0:0:0:
199,192,15496,1,2,0:0:0:0:
199,192,15646,1,2,0:0:0:0:
199,192,15796,1,2,0:0:0:0:
369,192,15946,1,8,0:0:0:0:
199,192,16096,1,2,0:0:0:0:
483,192,16246,1,4,0:0:0:0:
199,192,16396,1,2,0:0:0:0:
369,192,16546,1,8,0:0:0:0:
199,192,16696,1,2,0:0:0:0:
483,192,16846,1,4,0:0:0:0:
199,192,16996,1,2,0:0:0:0:
369,192,17146,1,8,0:0:0:0:
199,192,17446,1,2,0:0:0:0:
199,192,17596,1,2,0:0:0:0:
369,192,17746,1,8,0:0:0:0:
369,192,18046,1,8,0:0:0:0:
199,192,18196,1,2,0:0:0:0:
369,192,18346,1,8,0:0:0:0:
199,192,18496,1,2,0:0:0:0:
369,192,18646,1,8,0:0:0:0:
199,192,18796,1,2,0:0:0:0:
199,192,18871,1,2,0:0:0:0:
369,192,18946,1,8,0:0:0:0:
369,192,19096,1,8,0:0:0:0:
199,192,19396,1,2,0:0:0:0:
199,192,19546,1,2,0:0:0:0:
369,192,19696,5,8,0:0:0:0:
199,192,19846,1,2,0:0:0:0:
199,192,19996,1,2,0:0:0:0:
369,192,20146,1,8,0:0:0:0:
369,192,20221,1,8,0:0:0:0:
369,192,20296,1,8,0:0:0:0:
369,192,20371,1,8,0:0:0:0:
199,192,20446,1,2,0:0:0:0:
256,192,20446,1,0,0:0:0:70:snare.wav
369,192,20746,5,8,0:0:0:0:
483,192,21046,1,4,0:0:0:0:
199,192,21196,1,2,0:0:0:0:
369,192,21346,1,8,0:0:0:0:
199,192,21646,1,2,0:0:0:0:
369,192,21946,1,8,0:0:0:0:
426,192,22171,1,0,0:0:0:70:tom.wav
483,192,22246,1,4,0:0:0:0:
199,192,22396,1,2,0:0:0:0:
369,192,22546,1,8,0:0:0:0:
199,192,22846,1,2,0:0:0:0:
199,192,22996,1,2,0:0:0:0:
369,192,23146,1,8,0:0:0:0:
483,192,23446,1,4,0:0:0:0:
199,192,23596,1,2,0:0:0:0:
369,192,23746,1,8,0:0:0:0:
199,192,23896,1,2,0:0:0:0:
483,192,24046,1,4,0:0:0:0:
199,192,24196,1,2,0:0:0:0:
369,192,24346,1,8,0:0:0:0:
426,192,24571,1,0,0:0:0:70:tom.wav
199,192,24646,1,2,0:0:0:0:
199,192,24796,1,2,0:0:0:0:
369,192,24946,1,8,0:0:0:0:
199,192,25096,1,2,0:0:0:0:
199,192,25246,1,2,0:0:0:0:
256,192,25246,1,0,0:0:0:70:snare.wav
369,192,25546,1,8,0:0:0:0:
483,192,25846,1,4,0:0:0:0:
199,192,25996,1,2,0:0:0:0:
369,192,26146,1,8,0:0:0:0:
199,192,26446,1,2,0:0:0:0:
369,192,26746,1,8,0:0:0:0:
426,192,26971,1,0,0:0:0:70:tom.wav
483,192,27046,1,4,0:0:0:0:
199,192,27196,1,2,0:0:0:0:
369,192,27346,1,8,0:0:0:0:
199,192,27646,1,2,0:0:0:0:
199,192,27796,1,2,0:0:0:0:
369,192,27946,1,8,0:0:0:0:
483,192,28246,1,4,0:0:0:0:
199,192,28396,1,2,0:0:0:0:
369,192,28546,1,8,0:0:0:0:
199,192,28696,1,2,0:0:0:0:
483,192,28846,1,4,0:0:0:0:
369,192,28996,1,8,0:0:0:0:
483,192,29146,1,4,0:0:0:0:
369,192,29296,1,8,0:0:0:0:
369,192,29371,1,8,0:0:0:0:
369,192,29446,1,8,0:0:0:0:
199,192,29521,1,2,0:0:0:0:
199,192,29596,1,2,0:0:0:0:
199,192,29671,1,2,0:0:0:0:
369,192,29746,1,8,0:0:0:0:
369,192,29821,1,8,0:0:0:0:
369,192,29896,1,8,0:0:0:0:
369,192,29971,1,8,0:0:0:0:
199,192,30046,1,2,0:0:0:0:
369,192,30346,5,8,0:0:0:0:
483,192,30496,1,4,0:0:0:0:
199,192,30646,1,2,0:0:0:0:
483,192,30796,1,4,0:0:0:0:
369,192,30946,1,8,0:0:0:0:
483,192,31096,1,4,0:0:0:0:
199,192,31246,1,2,0:0:0:0:
483,192,31396,1,4,0:0:0:0:
369,192,31546,1,8,0:0:0:0:
483,192,31696,1,4,0:0:0:0:
199,192,31846,1,2,0:0:0:0:
483,192,31996,1,4,0:0:0:0:
369,192,32146,1,8,0:0:0:0:
483,192,32296,1,4,0:0:0:0:
199,192,32446,1,2,0:0:0:0:
483,192,32596,1,4,0:0:0:0:
369,192,32746,1,8,0:0:0:0:
483,192,32896,1,4,0:0:0:0:
199,192,33046,1,2,0:0:0:0:
483,192,33196,1,4,0:0:0:0:
369,192,33346,1,8,0:0:0:0:
483,192,33496,1,4,0:0:0:0:
199,192,33646,1,2,0:0:0:0:
483,192,33796,1,4,0:0:0:0:
369,192,33946,1,8,0:0:0:0:
483,192,34096,1,4,0:0:0:0:
199,192,34246,1,2,0:0:0:0:
483,192,34396,1,4,0:0:0:0:
369,192,34546,1,8,0:0:0:0:
483,192,34696,1,4,0:0:0:0:
199,192,34846,1,2,0:0:0:0:
256,192,34846,1,0,0:0:0:70:snare.wav
369,192,35146,1,8,0:0:0:0:
483,192,35296,1,4,0:0:0:0:
199,192,35446,1,2,0:0:0:0:
483,192,35596,1,4,0:0:0:0:
369,192,35746,1,8,0:0:0:0:
483,192,35896,1,4,0:0:0:0:
199,192,36046,1,2,0:0:0:0:
483,192,36196,1,4,0:0:0:0:
369,192,36346,1,8,0:0:0:0:
483,192,36496,1,4,0:0:0:0:
199,192,36646,1,2,0:0:0:0:
483,192,36796,1,4,0:0:0:0:
369,192,36946,1,8,0:0:0:0:
483,192,37096,1,4,0:0:0:0:
199,192,37246,1,2,0:0:0:0:
483,192,37396,1,4,0:0:0:0:
369,192,37546,1,8,0:0:0:0:
483,192,37696,1,4,0:0:0:0:
199,192,37846,1,2,0:0:0:0:
483,192,37996,1,4,0:0:0:0:
369,192,38146,1,8,0:0:0:0:
483,192,38296,1,4,0:0:0:0:
199,192,38446,1,2,0:0:0:0:
483,192,38596,1,4,0:0:0:0:
369,192,38746,1,8,0:0:0:0:
483,192,38896,1,4,0:0:0:0:
199,192,39046,1,2,0:0:0:0:
483,192,39196,1,4,0:0:0:0:
369,192,39346,1,8,0:0:0:0:
369,192,39421,1,8,0:0:0:0:
369,192,39496,1,8,0:0:0:0:
369,192,39571,1,8,0:0:0:0:
199,192,39646,1,2,0:0:0:0:
199,192,39796,1,2,0:0:0:0:
369,192,39946,1,8,0:0:0:0:
199,192,40096,1,2,0:0:0:0:
369,192,40246,1,8,0:0:0:0:
199,192,40396,1,2,0:0:0:0:
199,192,40471,1,2,0:0:0:0:
369,192,40546,1,8,0:0:0:0:
369,192,40696,1,8,0:0:0:0:
483,192,40846,1,4,0:0:0:0:
199,192,40996,1,2,0:0:0:0:
369,192,41146,1,8,0:0:0:0:
369,192,41446,1,8,0:0:0:0:
199,192,41596,1,2,0:0:0:0:
199,192,41671,1,2,0:0:0:0:
369,192,41746,1,8,0:0:0:0:
199,192,41821,1,2,0:0:0:0:
199,192,41896,1,2,0:0:0:0:
199,192,41971,1,2,0:0:0:0:
369,192,42046,1,8,0:0:0:0:
369,192,42196,1,8,0:0:0:0:
483,192,42346,1,4,0:0:0:0:
369,192,42496,1,8,0:0:0:0:
369,192,42646,1,8,0:0:0:0:
483,192,42796,1,4,0:0:0:0:
369,192,42946,1,8,0:0:0:0:
369,192,43096,1,8,0:0:0:0:
199,192,43396,1,2,0:0:0:0:
199,192,43546,1,2,0:0:0:0:
369,192,43696,1,8,0:0:0:0:
199,192,43846,1,2,0:0:0:0:
199,192,43996,1,2,0:0:0:0:
369,192,44146,1,8,0:0:0:0:
369,192,44221,1,8,0:0:0:0:
369,192,44296,1,8,0:0:0:0:
369,192,44371,1,8,0:0:0:0:
199,192,44446,1,2,0:0:0:0:
256,192,44446,1,0,0:0:0:70:snare.wav
199,192,44596,1,2,0:0:0:0:
369,192,44746,1,8,0:0:0:0:
199,192,44896,1,2,0:0:0:0:
483,192,45046,1,4,0:0:0:0:
199,192,45196,1,2,0:0:0:0:
369,192,45346,1,8,0:0:0:0:
199,192,45496,1,2,0:0:0:0:
483,192,45646,1,4,0:0:0:0:
199,192,45796,1,2,0:0:0:0:
369,192,45946,1,8,0:0:0:0:
199,192,46246,1,2,0:0:0:0:
199,192,46396,1,2,0:0:0:0:
369,192,46546,1,8,0:0:0:0:
199,192,46846,1,2,0:0:0:0:
199,192,46996,1,2,0:0:0:0:
369,192,47146,1,8,0:0:0:0:
199,192,47296,1,2,0:0:0:0:
483,192,47446,1,4,0:0:0:0:
199,192,47596,1,2,0:0:0:0:
369,192,47746,1,8,0:0:0:0:
199,192,47896,1,2,0:0:0:0:
483,192,48046,1,4,0:0:0:0:
199,192,48196,1,2,0:0:0:0:
369,192,48346,1,8,0:0:0:0:
199,192,48646,1,2,0:0:0:0:
199,192,48796,1,2,0:0:0:0:
369,192,48946,1,8,0:0:0:0:
199,192,49096,1,2,0:0:0:0:
199,192,49246,1,2,0:0:0:0:
256,192,49246,1,0,0:0:0:70:snare.wav
199,192,49396,1,2,0:0:0:0:
369,192,49546,1,8,0:0:0:0:
199,192,49696,1,2,0:0:0:0:
483,192,49846,1,4,0:0:0:0:
199,192,49996,1,2,0:0:0:0:
369,192,50146,1,8,0:0:0:0:
199,192,50296,1,2,0:0:0:0:
483,192,50446,1,4,0:0:0:0:
199,192,50596,1,2,0:0:0:0:
369,192,50746,1,8,0:0:0:0:
199,192,51046,1,2,0:0:0:0:
199,192,51196,1,2,0:0:0:0:
369,192,51346,1,8,0:0:0:0:
369,192,51646,1,8,0:0:0:0:
199,192,51796,1,2,0:0:0:0:
369,192,51946,1,8,0:0:0:0:
199,192,52096,1,2,0:0:0:0:
369,192,52246,1,8,0:0:0:0:
199,192,52396,1,2,0:0:0:0:
199,192,52471,1,2,0:0:0:0:
369,192,52546,1,8,0:0:0:0:
369,192,52696,5,8,0:0:0:0:
199,192,52996,1,2,0:0:0:0:
199,192,53146,1,2,0:0:0:0:
369,192,53296,1,8,0:0:0:0:
199,192,53446,1,2,0:0:0:0:
199,192,53596,1,2,0:0:0:0:
369,192,53746,5,8,0:0:0:0:
369,192,53821,1,8,0:0:0:0:
369,192,53896,1,8,0:0:0:0:
369,192,53971,1,8,0:0:0:0:
199,192,54046,1,2,0:0:0:0:
256,192,54046,1,0,0:0:0:70:snare.wav
199,192,54196,1,2,0:0:0:0:
369,192,54346,1,8,0:0:0:0:
199,192,54496,1,2,0:0:0:0:
483,192,54646,1,4,0:0:0:0:
199,192,54796,1,2,0:0:0:0:
369,192,54946,1,8,0:0:0:0:
199,192,55096,1,2,0:0:0:0:
483,192,55246,1,4,0:0:0:0:
199,192,55396,1,2,0:0:0:0:
369,192,55546,1,8,0:0:0:0:
199,192,55846,1,2,0:0:0:0:
199,192,55996,1,2,0:0:0:0:
369,192,56146,1,8,0:0:0:0:
199,192,56446,1,2,0:0:0:0:
199,192,56596,1,2,0:0:0:0:
369,192,56746,1,8,0:0:0:0:
199,192,56896,1,2,0:0:0:0:
483,192,57046,1,4,0:0:0:0:
199,192,57196,1,2,0:0:0:0:
369,192,57346,1,8,0:0:0:0:
199,192,57496,1,2,0:0:0:0:
483,192,57646,1,4,0:0:0:0:
199,192,57796,1,2,0:0:0:0:
369,192,57946,1,8,0:0:0:0:
199,192,58246,1,2,0:0:0:0:
199,192,58396,1,2,0:0:0:0:
369,192,58546,1,8,0:0:0:0:
199,192,58696,1,2,0:0:0:0:
199,192,58846,1,2,0:0:0:0:
199,192,58996,1,2,0:0:0:0:
369,192,59146,1,8,0:0:0:0:
199,192,59296,1,2,0:0:0:0:
369,192,59446,1,8,0:0:0:0:
199,192,59596,1,2,0:0:0:0:
199,192,59671,1,2,0:0:0:0:
369,192,59746,1,8,0:0:0:0:
369,192,59896,1,8,0:0:0:0:
483,192,60046,1,4,0:0:0:0:
199,192,60196,1,2,0:0:0:0:
369,192,60346,1,8,0:0:0:0:
369,192,60646,1,8,0:0:0:0:
199,192,60796,1,2,0:0:0:0:
199,192,60871,1,2,0:0:0:0:
369,192,60946,1,8,0:0:0:0:
199,192,61021,1,2,0:0:0:0:
199,192,61096,1,2,0:0:0:0:
369,192,61246,1,8,0:0:0:0:
369,192,61396,1,8,0:0:0:0:
369,192,61696,1,8,0:0:0:0:
369,192,61846,1,8,0:0:0:0:
199,192,62146,1,2,0:0:0:0:
369,192,62296,1,8,0:0:0:0:
199,192,62596,1,2,0:0:0:0:
199,192,62746,1,2,0:0:0:0:
369,192,62896,5,8,0:0:0:0:
199,192,63046,1,2,0:0:0:0:
199,192,63196,1,2,0:0:0:0:
369,192,63346,1,8,0:0:0:0:
369,192,63421,1,8,0:0:0:0:
369,192,63496,1,8,0:0:0:0:
369,192,63571,1,8,0:0:0:0:
199,192,63646,1,2,0:0:0:0:
256,192,63646,1,0,0:0:0:70:snare.wav
369,192,63946,5,8,0:0:0:0:
199,192,64096,1,2,0:0:0:0:
199,192,64396,1,2,0:0:0:0:
369,192,64546,1,8,0:0:0:0:
199,192,64696,1,2,0:0:0:0:
199,192,64996,1,2,0:0:0:0:
369,192,65146,1,8,0:0:0:0:
199,192,65446,1,2,0:0:0:0:
199,192,65596,1,2,0:0:0:0:
369,192,65746,1,8,0:0:0:0:
369,192,66046,1,8,0:0:0:0:
199,192,66196,1,2,0:0:0:0:
369,192,66346,1,8,0:0:0:0:
199,192,66496,1,2,0:0:0:0:
369,192,66646,1,8,0:0:0:0:
199,192,66796,1,2,0:0:0:0:
199,192,66871,1,2,0:0:0:0:
369,192,66946,1,8,0:0:0:0:
369,192,67096,1,8,0:0:0:0:
199,192,67396,1,2,0:0:0:0:
199,192,67546,1,2,0:0:0:0:
369,192,67696,1,8,0:0:0:0:
199,192,67846,1,2,0:0:0:0:
199,192,67996,1,2,0:0:0:0:
369,192,68146,1,8,0:0:0:0:
369,192,68221,1,8,0:0:0:0:
369,192,68296,1,8,0:0:0:0:
369,192,68371,1,8,0:0:0:0:
199,192,68446,1,2,0:0:0:0:
256,192,68446,1,0,0:0:0:70:snare.wav
199,192,68596,1,2,0:0:0:0:
369,192,68746,1,8,0:0:0:0:
199,192,68896,1,2,0:0:0:0:
483,192,69046,1,4,0:0:0:0:
199,192,69196,1,2,0:0:0:0:
369,192,69346,1,8,0:0:0:0:
199,192,69496,1,2,0:0:0:0:
483,192,69646,1,4,0:0:0:0:
199,192,69796,1,2,0:0:0:0:
369,192,69946,1,8,0:0:0:0:
199,192,70246,1,2,0:0:0:0:
199,192,70396,1,2,0:0:0:0:
369,192,70546,1,8,0:0:0:0:
199,192,70846,1,2,0:0:0:0:
199,192,70996,1,2,0:0:0:0:
369,192,71146,1,8,0:0:0:0:
199,192,71296,1,2,0:0:0:0:
483,192,71446,1,4,0:0:0:0:
199,192,71596,1,2,0:0:0:0:
369,192,71746,1,8,0:0:0:0:
199,192,71896,1,2,0:0:0:0:
483,192,72046,1,4,0:0:0:0:
199,192,72196,1,2,0:0:0:0:
369,192,72346,1,8,0:0:0:0:
199,192,72646,1,2,0:0:0:0:
199,192,72796,1,2,0:0:0:0:
369,192,72946,1,8,0:0:0:0:
199,192,73096,1,2,0:0:0:0:
199,192,73246,1,2,0:0:0:0:
199,192,73396,1,2,0:0:0:0:
369,192,73546,1,8,0:0:0:0:
199,192,73696,1,2,0:0:0:0:
483,192,73846,1,4,0:0:0:0:
199,192,73996,1,2,0:0:0:0:
369,192,74146,1,8,0:0:0:0:
199,192,74296,1,2,0:0:0:0:
483,192,74446,1,4,0:0:0:0:
199,192,74596,1,2,0:0:0:0:
369,192,74746,1,8,0:0:0:0:
199,192,75046,1,2,0:0:0:0:
199,192,75196,1,2,0:0:0:0:
369,192,75346,1,8,0:0:0:0:
369,192,75646,1,8,0:0:0:0:
199,192,75796,1,2,0:0:0:0:
369,192,75946,1,8,0:0:0:0:
199,192,76096,1,2,0:0:0:0:
369,192,76246,1,8,0:0:0:0:
199,192,76396,1,2,0:0:0:0:
199,192,76471,1,2,0:0:0:0:
369,192,76546,1,8,0:0:0:0:
369,192,76696,1,8,0:0:0:0:
199,192,76996,1,2,0:0:0:0:
199,192,77146,1,2,0:0:0:0:
369,192,77296,1,8,0:0:0:0:
199,192,77446,1,2,0:0:0:0:
199,192,77596,1,2,0:0:0:0:
369,192,77746,1,8,0:0:0:0:
369,192,77821,1,8,0:0:0:0:
369,192,77896,1,8,0:0:0:0:
369,192,77971,1,8,0:0:0:0:
199,192,78046,1,2,0:0:0:0:
256,192,78046,1,0,0:0:0:70:snare.wav
199,192,78196,1,2,0:0:0:0:
369,192,78346,1,8,0:0:0:0:
199,192,78496,1,2,0:0:0:0:
483,192,78646,1,4,0:0:0:0:
199,192,78796,1,2,0:0:0:0:
369,192,78946,1,8,0:0:0:0:
199,192,79096,1,2,0:0:0:0:
483,192,79246,1,4,0:0:0:0:
199,192,79396,1,2,0:0:0:0:
369,192,79546,1,8,0:0:0:0:
199,192,79846,1,2,0:0:0:0:
199,192,79996,1,2,0:0:0:0:
369,192,80146,1,8,0:0:0:0:
199,192,80446,1,2,0:0:0:0:
199,192,80596,1,2,0:0:0:0:
369,192,80746,1,8,0:0:0:0:
199,192,80896,1,2,0:0:0:0:
483,192,81046,1,4,0:0:0:0:
199,192,81196,1,2,0:0:0:0:
369,192,81346,1,8,0:0:0:0:
199,192,81496,1,2,0:0:0:0:
483,192,81646,1,4,0:0:0:0:
199,192,81796,1,2,0:0:0:0:
369,192,81946,1,8,0:0:0:0:
199,192,82246,1,2,0:0:0:0:
199,192,82396,1,2,0:0:0:0:
369,192,82546,1,8,0:0:0:0:
199,192,82696,1,2,0:0:0:0:
199,192,82846,1,2,0:0:0:0:
199,192,82996,1,2,0:0:0:0:
369,192,83146,1,8,0:0:0:0:
199,192,83296,1,2,0:0:0:0:
483,192,83446,1,4,0:0:0:0:
199,192,83596,1,2,0:0:0:0:
369,192,83746,1,8,0:0:0:0:
199,192,83896,1,2,0:0:0:0:
483,192,84046,1,4,0:0:0:0:
199,192,84196,1,2,0:0:0:0:
369,192,84346,1,8,0:0:0:0:
199,192,84646,1,2,0:0:0:0:
199,192,84796,1,2,0:0:0:0:
369,192,84946,1,8,0:0:0:0:
369,192,85246,1,8,0:0:0:0:
199,192,85396,1,2,0:0:0:0:
369,192,85546,1,8,0:0:0:0:
199,192,85696,1,2,0:0:0:0:
369,192,85846,1,8,0:0:0:0:
199,192,85996,1,2,0:0:0:0:
199,192,86071,1,2,0:0:0:0:
369,192,86146,1,8,0:0:0:0:
369,192,86296,1,8,0:0:0:0:
199,192,86596,1,2,0:0:0:0:
199,192,86746,1,2,0:0:0:0:
369,192,86896,1,8,0:0:0:0:
199,192,87046,1,2,0:0:0:0:
199,192,87196,1,2,0:0:0:0:
369,192,87346,1,8,0:0:0:0:
369,192,87421,1,8,0:0:0:0:
369,192,87496,1,8,0:0:0:0:
369,192,87571,1,8,0:0:0:0:
199,192,87646,1,2,0:0:0:0:
256,192,87646,1,0,0:0:0:70:snare.wav
199,192,87796,1,2,0:0:0:0:
369,192,87946,1,8,0:0:0:0:
199,192,88096,1,2,0:0:0:0:
483,192,88246,1,4,0:0:0:0:
199,192,88396,1,2,0:0:0:0:
369,192,88546,1,8,0:0:0:0:
199,192,88696,1,2,0:0:0:0:
483,192,88846,1,4,0:0:0:0:
199,192,88996,1,2,0:0:0:0:
369,192,89146,1,8,0:0:0:0:
199,192,89446,1,2,0:0:0:0:
199,192,89596,1,2,0:0:0:0:
369,192,89746,1,8,0:0:0:0:
199,192,90046,1,2,0:0:0:0:
199,192,90196,1,2,0:0:0:0:
369,192,90346,1,8,0:0:0:0:
199,192,90496,1,2,0:0:0:0:
483,192,90646,1,4,0:0:0:0:
199,192,90796,1,2,0:0:0:0:
369,192,90946,1,8,0:0:0:0:
199,192,91096,1,2,0:0:0:0:
199,192,91396,1,2,0:0:0:0:
369,192,91546,1,8,0:0:0:0:
199,192,91696,1,2,0:0:0:0:
199,192,91846,1,2,0:0:0:0:
199,192,91996,1,2,0:0:0:0:
369,192,92146,1,8,0:0:0:0:
199,192,92296,1,2,0:0:0:0:
199,192,92446,1,2,0:0:0:0:
256,192,92446,1,0,0:0:0:70:snare.wav
199,192,92596,1,2,0:0:0:0:
369,192,92746,1,8,0:0:0:0:
199,192,92896,1,2,0:0:0:0:
483,192,93046,1,4,0:0:0:0:
199,192,93196,1,2,0:0:0:0:
369,192,93346,1,8,0:0:0:0:
199,192,93496,1,2,0:0:0:0:
483,192,93646,1,4,0:0:0:0:
199,192,93796,1,2,0:0:0:0:
369,192,93946,1,8,0:0:0:0:
199,192,94246,1,2,0:0:0:0:
199,192,94396,1,2,0:0:0:0:
369,192,94546,1,8,0:0:0:0:
369,192,94846,1,8,0:0:0:0:
199,192,94996,1,2,0:0:0:0:
369,192,95146,1,8,0:0:0:0:
199,192,95296,1,2,0:0:0:0:
369,192,95446,1,8,0:0:0:0:
199,192,95596,1,2,0:0:0:0:
199,192,95671,1,2,0:0:0:0:
369,192,95746,1,8,0:0:0:0:
369,192,95896,1,8,0:0:0:0:
199,192,96196,1,2,0:0:0:0:
199,192,96346,1,2,0:0:0:0:
369,192,96496,1,8,0:0:0:0:
199,192,96646,1,2,0:0:0:0:
199,192,96796,1,2,0:0:0:0:
369,192,96946,1,8,0:0:0:0:
369,192,97021,1,8,0:0:0:0:
369,192,97096,1,8,0:0:0:0:
369,192,97171,1,8,0:0:0:0:
199,192,97246,1,2,0:0:0:0:
256,192,97246,1,0,0:0:0:70:snare.wav
199,192,97396,1,2,0:0:0:0:
369,192,97546,1,8,0:0:0:0:
199,192,97696,1,2,0:0:0:0:
483,192,97846,1,4,0:0:0:0:
199,192,97996,1,2,0:0:0:0:
369,192,98146,1,8,0:0:0:0:
199,192,98296,1,2,0:0:0:0:
483,192,98446,1,4,0:0:0:0:
199,192,98596,1,2,0:0:0:0:
369,192,98746,1,8,0:0:0:0:
199,192,99046,1,2,0:0:0:0:
199,192,99196,1,2,0:0:0:0:
369,192,99346,1,8,0:0:0:0:
199,192,99646,1,2,0:0:0:0:
199,192,99796,1,2,0:0:0:0:
369,192,99946,1,8,0:0:0:0:
199,192,100096,1,2,0:0:0:0:
483,192,100246,1,4,0:0:0:0:
199,192,100396,1,2,0:0:0:0:
369,192,100546,1,8,0:0:0:0:
199,192,100696,1,2,0:0:0:0:
483,192,100846,1,4,0:0:0:0:
199,192,100996,1,2,0:0:0:0:
369,192,101146,1,8,0:0:0:0:
199,192,101446,1,2,0:0:0:0:
199,192,101596,1,2,0:0:0:0:
369,192,101746,1,8,0:0:0:0:
199,192,101896,1,2,0:0:0:0:
199,192,102046,1,2,0:0:0:0:
199,192,102196,1,2,0:0:0:0:
369,192,102346,1,8,0:0:0:0:
199,192,102496,1,2,0:0:0:0:
483,192,102646,1,4,0:0:0:0:
199,192,102796,1,2,0:0:0:0:
369,192,102946,1,8,0:0:0:0:
199,192,103096,1,2,0:0:0:0:
483,192,103246,1,4,0:0:0:0:
199,192,103396,1,2,0:0:0:0:
369,192,103546,1,8,0:0:0:0:
199,192,103846,1,2,0:0:0:0:
199,192,103996,1,2,0:0:0:0:
369,192,104146,1,8,0:0:0:0:
199,192,104446,1,2,0:0:0:0:
199,192,104596,1,2,0:0:0:0:
369,192,104746,1,8,0:0:0:0:
199,192,104896,1,2,0:0:0:0:
483,192,105046,1,4,0:0:0:0:
199,192,105196,1,2,0:0:0:0:
369,192,105346,1,8,0:0:0:0:
199,192,105496,1,2,0:0:0:0:
483,192,105646,1,4,0:0:0:0:
199,192,105796,1,2,0:0:0:0:
369,192,105946,1,8,0:0:0:0:
199,192,106246,1,2,0:0:0:0:
199,192,106396,1,2,0:0:0:0:
369,192,106546,1,8,0:0:0:0:
199,192,106696,1,2,0:0:0:0:
199,192,106846,1,2,0:0:0:0:
256,192,106846,1,0,0:0:0:70:snare.wav
199,192,106996,1,2,0:0:0:0:
369,192,107146,1,8,0:0:0:0:
199,192,107296,1,2,0:0:0:0:
369,192,107446,1,8,0:0:0:0:
199,192,107596,1,2,0:0:0:0:
369,192,107746,1,8,0:0:0:0:
369,192,107896,1,8,0:0:0:0:
199,192,108196,1,2,0:0:0:0:
369,192,108346,1,8,0:0:0:0:
369,192,108646,1,8,0:0:0:0:
199,192,108796,1,2,0:0:0:0:
199,192,108871,1,2,0:0:0:0:
369,192,108946,1,8,0:0:0:0:
199,192,109021,1,2,0:0:0:0:
199,192,109096,1,2,0:0:0:0:
369,192,109246,1,8,0:0:0:0:
369,192,109396,1,8,0:0:0:0:
369,192,109696,1,8,0:0:0:0:
369,192,109846,1,8,0:0:0:0:
199,192,110146,1,2,0:0:0:0:
369,192,110296,1,8,0:0:0:0:
199,192,110596,1,2,0:0:0:0:
199,192,110746,1,2,0:0:0:0:
369,192,110896,1,8,0:0:0:0:
199,192,111046,1,2,0:0:0:0:
199,192,111196,1,2,0:0:0:0:
369,192,111346,1,8,0:0:0:0:
369,192,111421,1,8,0:0:0:0:
369,192,111496,1,8,0:0:0:0:
369,192,111571,1,8,0:0:0:0:
256,192,111646,1,0,0:0:0:70:snare.wav
