osu file format v14

[General]
AudioFilename: audio.mp3
AudioLeadIn: 0
PreviewTime: 87687
Countdown: 0
SampleSet: None
StackLeniency: 0.3
Mode: 0
LetterboxInBreaks: 0
WidescreenStoryboard: 1

[Editor]
Bookmarks: 32187
DistanceSpacing: 1.5
BeatDivisor: 4
GridSize: 16
TimelineZoom: 1

[Metadata]
Title:REVENGE DOLL 39
TitleUnicode:REVENGE DOLL 39
Artist:DIVELA
ArtistUnicode:DIVELA
Creator:DasVampy
Version:Insane
Source:
Tags:Hatsune Miku 初音ミク Vocaloid Altair NEO アルテイルNEO
BeatmapID:2484144
BeatmapSetID:1192150

[Difficulty]
HPDrainRate:6
CircleSize:3.7
OverallDifficulty:7
ApproachRate:9
SliderMultiplier:1.5
SliderTickRate:1

[Events]
//Background and Video events
0,0,"background.jpg",0,0
//Break Periods
//Storyboard Layer 0 (Background)
//Storyboard Layer 1 (Fail)
//Storyboard Layer 2 (Pass)
//Storyboard Layer 3 (Foreground)
//Storyboard Layer 4 (Overlay)
//Storyboard Sound Samples

[TimingPoints]
1287,300,4,1,0,60,1,0
1287,-133.333333333333,4,1,0,70,0,0
1587,-133.333333333333,4,1,0,60,0,0
2487,-133.333333333333,4,1,0,70,0,0
2787,-133.333333333333,4,1,0,60,0,0
3687,-133.333333333333,4,1,0,70,0,0
3987,-133.333333333333,4,1,0,60,0,0
4887,-133.333333333333,4,1,0,70,0,0
6087,-117.647058823529,4,1,0,70,0,0
8037,-133.333333333333,4,3,0,80,0,0
8487,-111.111111111111,4,1,0,80,0,0
10512,-117.647058823529,4,1,0,60,0,0
10887,-100,4,1,0,80,0,0
18087,-100,4,1,0,90,0,0
20187,-100,4,3,0,80,0,0
20487,-100,4,2,0,70,0,0
20787,-117.647058823529,4,1,0,60,0,0
25287,-117.647058823529,4,1,0,70,0,0
29337,-117.647058823529,4,3,0,70,0,0
29637,-117.647058823529,4,1,0,70,0,0
29787,-117.647058823529,4,3,0,70,0,0
30087,-100,4,1,0,70,0,0
34587,-100,4,3,0,50,0,0
34887,-100,4,1,0,70,0,0
39387,-100,4,3,0,80,0,0
39687,-100,4,1,0,80,0,0
41637,-100,4,3,0,80,0,0
42087,-100,4,1,0,80,0,0
44187,-80,4,3,0,80,0,0
44487,-80,4,1,0,80,0,1
51687,-100,4,1,0,90,0,0
52737,-80,4,1,0,90,0,0
52887,-100,4,1,0,90,0,0
53187,-100,4,1,0,90,0,0
53787,-100,4,3,0,80,0,0
54087,-80,4,1,0,80,0,1
58887,-100,4,1,0,90,0,0
60837,-100,4,3,0,80,0,0
61287,-80,4,1,0,90,0,1
63387,-80,4,3,0,80,0,1
63687,-100,4,1,0,70,0,0
63987,-100,4,1,0,50,0,0
66087,-100,4,1,0,70,0,0
68187,-100,4,3,0,60,0,0
68487,-100,4,1,0,80,0,0
75687,-100,4,1,0,90,0,0
77787,-100,4,3,0,80,0,0
78087,-100,4,1,0,80,0,0
82287,-100,4,1,0,90,0,0
82887,-100,4,1,0,80,0,0
85287,-100,4,1,0,90,0,0
87387,-100,4,3,0,80,0,0
87687,-80,4,1,0,80,0,1
94887,-100,4,1,0,90,0,0
96987,-100,4,3,0,80,0,0
97287,-80,4,1,0,80,0,1
102087,-80,4,1,0,80,0,0
104487,-72.7272727272727,4,1,0,80,0,0
106887,-66.6666666666667,4,1,0,85,0,1
108387,-66.6666666666667,4,1,0,90,0,1
108837,-66.6666666666667,4,3,0,80,0,1
109287,-66.6666666666667,4,1,0,70,0,1
109437,-66.6666666666667,4,1,0,90,0,1
109737,-66.6666666666667,4,1,0,70,0,1
109887,-66.6666666666667,4,1,0,90,0,1
110337,-66.6666666666667,4,1,0,70,0,1
110487,-66.6666666666667,4,1,0,90,0,1
111687,-133.333333333333,4,1,0,70,0,1
113187,-80,4,1,0,70,0,0

[Colours]
Combo1 : 7,242,255
Combo2 : 153,0,153
Combo3 : 0,255,128
Combo4 : 128,128,128

[HitObjects]
192,256,1287,6,0,P|160:256|128:240,1,56.2500021457673
177,172,1587,2,0,P|238:174|280:218,1,112.500004291535
205,345,2037,1,0,0:0:0:0:
269,290,2187,2,0,P|289:321|288:359,1,56.2500021457673
192,256,2487,5,0,0:0:0:0:
121,181,2637,2,0,L|196:168,1,56.2500021457673
106,274,2937,1,0,0:0:0:0:
106,274,3012,1,0,0:0:0:0:
106,274,3087,1,0,0:0:0:0:
205,345,3237,1,0,0:0:0:0:
274,206,3387,2,0,P|302:193|351:192,1,56.2500021457673
185,54,3687,5,0,0:0:0:0:
240,117,3837,1,0,0:0:0:0:
176,171,3987,2,0,P|178:243|215:286,1,112.500004291535
274,206,4437,1,0,0:0:0:0:
299,286,4587,1,0,0:0:0:0:
255,358,4737,5,0,0:0:0:0:
330,207,4887,2,0,L|248:205,1,56.2500021457673
183,118,5187,2,0,L|265:116,1,56.2500021457673
273,116,5412,1,0,0:0:0:0:
284,115,5487,1,0,0:0:0:0:
181,207,5637,1,0,0:0:0:0:
391,81,5787,2,0,L|391:145,1,56.2500021457673
374,232,6087,6,0,P|339:200|327:164,1,63.7500012159348
231,69,6387,2,0,P|266:101|278:137,1,63.7500012159348
192,147,6687,1,0,0:0:0:0:
147,62,6837,1,0,0:0:0:0:
147,62,6912,1,0,0:0:0:0:
147,62,6987,2,0,L|71:98,1,63.7500012159348
130,249,7287,6,0,P|175:211|189:132,1,127.50000243187
38,266,7737,2,0,P|88:331|139:339,1,127.50000243187
171,331,8112,1,0,0:0:0:0:
195,317,8187,1,0,0:0:0:0:
214,297,8262,1,0,0:0:0:0:
224,271,8337,5,0,0:0:0:0:
191,146,8487,2,0,P|239:122|279:129,1,67.4999979400635
380,279,8937,5,0,0:0:0:0:
380,279,9087,2,0,P|339:284|309:274,2,67.4999979400635
355,161,9537,5,0,0:0:0:0:
251,121,9687,2,0,P|213:113|167:122,1,67.4999979400635
152,126,9912,1,0,0:0:0:0:
127,148,9987,1,0,0:0:0:0:
113,178,10062,1,0,0:0:0:0:
107,211,10137,2,0,P|173:195|231:241,1,134.999995880127
276,334,10587,5,0,0:0:0:0:
304,319,10662,1,0,0:0:0:0:
326,296,10737,1,0,0:0:0:0:
340,268,10812,1,0,0:0:0:0:
344,236,10887,2,0,P|338:185|299:149,1,75
268,47,11187,6,0,P|249:79|249:116,1,75
186,201,11487,2,0,P|153:219|116:219,1,75
131,115,11787,1,0,0:0:0:0:
270,222,11937,2,0,P|336:181|349:86,1,150
158,46,12387,6,0,P|134:96|130:138,1,75
186,201,12687,1,0,0:0:0:0:
81,203,12837,1,0,0:0:0:0:
214,116,12987,2,0,P|262:147|271:176,1,75
268,267,13287,1,0,0:0:0:0:
358,212,13437,1,0,0:0:0:0:
366,316,13587,5,0,0:0:0:0:
441,242,13737,2,0,L|494:176,1,75
358,212,14037,1,0,0:0:0:0:
471,327,14187,1,0,0:0:0:0:
268,267,14337,2,0,B|213:240|213:240|242:298|183:349,1,150
76,288,14787,6,0,P|107:274|164:281,1,75
132,361,15087,1,0,0:0:0:0:
27,373,15237,1,0,0:0:0:0:
36,217,15387,2,0,P|83:197|137:195,1,75
147,274,15687,1,0,0:0:0:0:
195,197,15837,1,0,0:0:0:0:
133,112,15987,5,0,0:0:0:0:
28,119,16137,2,0,P|52:46|123:10,1,150
133,112,16587,1,0,0:0:0:0:
195,197,16737,2,0,P|263:231|339:206,1,150
282,61,17187,2,0,L|270:157,1,75
195,197,17487,1,0,0:0:0:0:
330,213,17637,1,0,0:0:0:0:
418,77,17787,2,0,L|406:173,1,75
282,61,18087,5,0,0:0:0:0:
416,234,18237,1,0,0:0:0:0:
336,122,18387,1,0,0:0:0:0:
255,276,18537,1,0,0:0:0:0:
211,110,18687,1,0,0:0:0:0:
160,228,18837,1,0,0:0:0:0:
160,228,18912,1,0,0:0:0:0:
160,228,18987,1,0,0:0:0:0:
65,116,19137,6,0,P|129:97|222:115,1,150
300,177,19587,1,0,0:0:0:0:
255,276,19737,1,0,0:0:0:0:
321,366,19887,2,0,P|382:347|416:329,1,75
255,276,20187,5,0,0:0:0:0:
225,253,20262,1,0,0:0:0:0:
191,238,20337,1,0,0:0:0:0:
155,229,20412,1,0,0:0:0:0:
118,223,20487,2,0,P|71:206|39:166,1,75
235,67,20787,6,0,P|303:80|340:139,1,127.50000243187
372,223,21237,1,0,0:0:0:0:
333,310,21387,2,0,P|294:279|284:249,1,63.7500012159348
192,147,21687,2,0,P|223:154|255:150,1,63.7500012159348
191,238,21987,2,0,P|186:270|193:303,1,63.7500012159348
213,326,22212,1,0,0:0:0:0:
213,326,22287,1,0,0:0:0:0:
113,196,22437,1,0,0:0:0:0:
41,361,22587,2,0,P|61:336|75:308,1,63.7500012159348
26,225,22887,5,0,0:0:0:0:
26,225,23037,1,0,0:0:0:0:
86,112,23187,2,0,B|198:31|198:31,1,127.50000243187
280,164,23637,2,0,L|226:88,1,63.7500012159348
190,237,23937,2,0,L|154:289,1,63.7500012159348
236,335,24237,2,0,B|286:264|286:264|354:264,1,127.50000243187
375,264,24612,5,0,0:0:0:0:
375,264,24687,1,0,0:0:0:0:
280,164,24837,1,0,0:0:0:0:
256,255,24987,1,0,0:0:0:0:
372,173,25137,1,0,0:0:0:0:
398,346,25287,2,0,L|318:346,1,63.7500012159348
205,346,25587,6,0,P|160:286|165:223,1,127.50000243187
256,255,26037,1,0,0:0:0:0:
280,164,26187,2,0,L|300:88,1,63.7500012159348
186,161,26487,2,0,P|134:157|108:172,1,63.7500012159348
68,75,26787,2,0,P|107:61|144:61,1,63.7500012159348
180,64,27012,1,0,0:0:0:0:
180,64,27087,1,0,0:0:0:0:
296,102,27237,1,0,0:0:0:0:
442,44,27387,2,0,L|379:67,1,63.7500012159348
263,18,27687,5,0,0:0:0:0:
263,18,27837,1,0,0:0:0:0:
216,163,27987,2,0,B|294:102|294:102|352:134|360:191,1,191.250003647804
354,264,28587,1,0,0:0:0:0:
222,355,28737,2,0,L|285:307,1,63.7500012159348
282,211,29037,2,0,L|231:249,1,63.7500012159348
123,179,29337,5,0,0:0:0:0:
123,179,29412,1,0,0:0:0:0:
123,179,29487,2,0,L|110:103,1,63.7500012159348
256,80,29787,1,0,0:0:0:0:
287,73,29862,1,0,0:0:0:0:
318,75,29937,1,0,0:0:0:0:
348,85,30012,1,0,0:0:0:0:
375,103,30087,2,0,P|409:137|417:184,1,75
335,285,30387,6,0,P|318:241|318:210,1,75
325,184,30612,1,0,0:0:0:0:
325,184,30687,2,0,P|278:229|174:233,1,150
140,159,31137,2,0,P|184:142|215:142,1,75
106,246,31437,2,0,P|77:225|53:183,1,75
196,240,31737,5,0,0:0:0:0:
156,328,31887,2,0,P|96:342|58:329,1,75
196,240,32187,2,0,P|256:226|294:239,1,75
325,307,32487,2,0,P|265:321|227:308,1,75
358,221,32787,6,0,P|349:186|292:145,1,75
139,138,33087,2,0,P|228:126|255:73,1,150
402,34,33537,2,0,B|379:77|405:120|405:120|446:174|441:252,1,225
298,335,34137,2,0,P|228:300|193:214,1,150
191,127,34587,1,0,0:0:0:0:
209,129,34662,1,0,0:0:0:0:
227,134,34737,1,0,0:0:0:0:
244,142,34812,1,0,0:0:0:0:
260,152,34887,2,0,P|290:175|306:215,1,75
74,155,35187,6,0,P|88:66|147:22,2,150
195,238,35937,2,0,L|173:321,1,75
304,208,36237,2,0,L|326:291,1,75
227,156,36537,1,0,0:0:0:0:
227,156,36612,1,0,0:0:0:0:
227,156,36687,2,0,P|255:124|312:120,1,75
327,35,36987,2,0,P|356:59|373:116,1,75
393,180,37287,2,0,P|408:213|437:237,1,75
403,370,37587,6,0,P|446:307|436:235,2,150
304,370,38337,2,0,B|307:304|351:284|351:284|296:218|218:260,1,225
152,181,38937,5,0,0:0:0:0:
152,181,39012,1,0,0:0:0:0:
152,181,39087,2,0,P|191:148|225:141,1,75
166,281,39387,1,0,0:0:0:0:
143,281,39462,1,0,0:0:0:0:
121,275,39537,1,0,0:0:0:0:
100,266,39612,1,0,0:0:0:0:
80,254,39687,2,0,P|52:217|47:182,1,75
126,62,39987,5,0,0:0:0:0:
213,141,40137,2,0,P|274:180|371:208,1,150
385,204,40512,1,0,0:0:0:0:
385,204,40587,1,0,0:0:0:0:
331,52,40737,2,0,P|296:68|209:146,1,150
216,254,41187,5,0,0:0:0:0:
116,202,41337,1,0,0:0:0:0:
132,313,41487,2,0,P|177:349|226:354,1,75
230,353,41712,1,0,0:0:0:0:
267,353,41787,1,0,0:0:0:0:
304,353,41862,1,0,0:0:0:0:
341,353,41937,1,0,0:0:0:0:
298,195,42087,5,0,0:0:0:0:
342,272,42237,2,0,P|399:257|429:240,1,75
448,100,42537,5,0,0:0:0:0:
254,117,42687,2,0,P|339:117|388:175,1,150
207,23,43137,6,0,P|154:73|152:146,1,150
298,195,43587,1,0,0:0:0:0:
254,117,43737,1,0,0:0:0:0:
343,119,43887,2,0,P|388:184|354:269,1,150
345,274,44262,1,0,0:0:0:0:
309,285,44337,1,0,0:0:0:0:
271,285,44412,1,0,0:0:0:0:
236,269,44487,6,0,P|178:258|120:281,1,93.75
66,359,44787,1,0,0:0:0:0:
187,347,44937,1,0,0:0:0:0:
153,172,45087,2,0,L|143:286,1,93.75
298,195,45387,2,0,L|306:101,1,93.75
165,77,45687,6,0,P|89:100|63:205,1,187.5
144,265,46137,2,0,L|153:172,1,93.75
234,262,46437,1,0,0:0:0:0:
298,195,46587,2,0,L|391:203,1,93.75
355,297,46887,5,0,0:0:0:0:
442,368,47037,1,0,0:0:0:0:
455,263,47187,2,0,P|431:221|365:203,1,93.75
282,344,47487,1,0,0:0:0:0:
298,195,47637,1,0,0:0:0:0:
234,262,47787,1,0,0:0:0:0:
109,148,47937,6,0,P|162:157|233:263,1,187.5
22,268,48387,1,0,0:0:0:0:
133,353,48537,1,0,0:0:0:0:
147,229,48687,2,0,P|134:176|88:136,1,93.75
131,37,48987,2,0,P|176:49|215:75,1,93.75
302,139,49287,6,0,L|321:47,1,93.75
220,251,49587,2,0,L|201:160,1,93.75
309,232,49887,1,0,0:0:0:0:
400,124,50037,1,0,0:0:0:0:
421,208,50187,1,0,0:0:0:0:
426,47,50337,1,0,0:0:0:0:
302,139,50487,6,0,P|213:167|108:156,1,187.5
218,251,50937,2,0,P|273:246|334:214,1,93.75
421,208,51237,1,0,0:0:0:0:
469,319,51387,2,0,P|416:329|372:317,1,93.75
258,314,51687,6,0,L|211:240,1,75
206,99,51987,2,0,L|246:162,1,75
337,281,52287,2,0,L|337:185,1,75
337,168,52512,1,0,0:0:0:0:
337,168,52587,1,0,0:0:0:0:
146,185,52737,6,0,P|103:90|163:5,1,187.5
250,21,53187,1,0,0:0:0:0:
206,99,53337,1,0,0:0:0:0:
249,173,53487,1,0,0:0:0:0:
293,98,53637,2,0,L|341:98,5,37.5
459,69,54087,6,0,P|459:131|425:186,1,93.75
249,173,54387,2,0,P|292:216|355:231,1,93.75
442,251,54687,1,0,0:0:0:0:
339,317,54837,2,0,P|289:319|233:285,1,93.75
249,173,55137,1,0,0:0:0:0:
368,151,55287,6,0,P|310:63|221:48,1,187.5
156,174,55737,2,0,P|220:179|274:161,1,93.75
162,85,56037,1,0,0:0:0:0:
206,250,56187,2,0,P|244:203|245:154,1,93.75
373,315,56487,6,0,L|316:218,1,93.75
189,357,56787,2,0,L|293:302,1,93.75
329,140,57087,1,0,0:0:0:0:
206,250,57237,1,0,0:0:0:0:
218,141,57387,1,0,0:0:0:0:
325,234,57537,1,0,0:0:0:0:
125,186,57687,6,0,P|134:77|226:39,1,187.5
218,141,58137,1,0,0:0:0:0:
324,233,58287,2,0,L|329:140,1,93.75
434,34,58587,2,0,L|429:127,1,93.75
422,239,58887,5,0,0:0:0:0:
470,340,59037,1,0,0:0:0:0:
354,301,59187,2,0,L|309:203,1,75
188,346,59487,2,0,L|220:266,1,75
230,239,59712,1,0,0:0:0:0:
230,239,59787,1,0,0:0:0:0:
152,95,59937,6,0,P|208:47|282:47,1,150
250,151,60387,2,0,P|209:184|167:192,1,75
121,276,60687,2,0,P|96:249|80:207,1,75
79,176,60912,1,0,0:0:0:0:
89,140,60987,1,0,0:0:0:0:
114,112,61062,1,0,0:0:0:0:
152,95,61137,5,0,0:0:0:0:
26,77,61287,2,0,P|65:38|107:22,1,93.75
175,195,61737,5,0,0:0:0:0:
121,276,61887,2,0,P|83:324|39:351,2,93.75
242,308,62337,5,0,0:0:0:0:
342,346,62487,2,0,B|362:294|409:279|409:279|464:268|491:199,1,187.5
169,144,62937,6,0,B|163:187|209:220|209:220|245:254|241:309,1,187.5
101,313,63387,1,0,0:0:0:0:
78,283,63462,1,0,0:0:0:0:
58,251,63537,1,0,0:0:0:0:
46,215,63612,1,0,0:0:0:0:
42,185,63687,6,0,P|48:125|62:95,1,75
27,26,63987,1,0,0:0:0:0:
27,26,64137,2,0,B|63:86|63:86|161:86,1,150
247,74,64587,1,0,0:0:0:0:
247,74,64737,2,0,B|327:74|327:74|363:134,1,150
418,223,65187,2,0,B|483:177|483:177|484:108,1,150
484,2,65637,1,0,0:0:0:0:
484,2,65787,2,0,L|390:34,1,75
333,170,66087,6,0,L|404:121,1,75
230,108,66387,2,0,L|246:195,1,75
198,271,66687,2,0,L|297:315,1,75
296,315,66912,1,0,0:0:0:0:
296,315,66987,1,0,0:0:0:0:
484,352,67137,6,0,B|463:308|464:270|464:270|427:283|380:255,1,150
379,351,67587,1,0,0:0:0:0:
439,188,67737,2,0,P|416:175|378:185,5,37.5
367,175,68187,1,0,0:0:0:0:
330,182,68262,1,0,0:0:0:0:
300,205,68337,1,0,0:0:0:0:
289,240,68412,1,0,0:0:0:0:
284,277,68487,2,0,P|252:322|205:334,1,75
137,330,68787,6,0,P|105:309|88:276,2,75
185,248,69237,1,0,0:0:0:0:
185,248,69387,1,0,0:0:0:0:
248,155,69537,2,0,P|173:130|105:165,1,150
12,306,69987,6,0,L|27:220,1,75
115,293,70287,1,0,0:0:0:0:
115,293,70437,1,0,0:0:0:0:
111,157,70587,2,0,L|111:67,1,75
16,19,70887,5,0,0:0:0:0:
27,115,71037,1,0,0:0:0:0:
111,157,71187,1,0,0:0:0:0:
174,25,71337,2,0,B|231:34|231:34|273:70|273:70|329:90,1,150
192,115,71787,1,0,0:0:0:0:
309,197,71937,2,0,B|290:163|290:163|238:148|238:148|192:115,1,150
332,11,72387,6,0,L|305:89,1,75
232,236,72687,1,0,0:0:0:0:
375,143,72837,1,0,0:0:0:0:
343,251,72987,1,0,0:0:0:0:
307,81,73137,1,0,0:0:0:0:
292,170,73287,1,0,0:0:0:0:
292,170,73437,1,0,0:0:0:0:
163,139,73587,5,0,0:0:0:0:
134,236,73737,2,0,L|38:236,2,75
227,325,74187,1,0,0:0:0:0:
321,302,74337,2,0,B|374:290|374:290|428:296|428:296|498:281,1,150
410,134,74787,6,0,L|424:231,1,75
481,75,75087,1,0,0:0:0:0:
481,75,75237,1,0,0:0:0:0:
313,33,75387,2,0,L|387:40,1,75
289,153,75687,6,0,P|250:169|186:173,1,75
179,69,75987,2,0,P|141:88|110:132,2,75
49,41,76437,1,0,0:0:0:0:
49,41,76512,1,0,0:0:0:0:
49,41,76587,1,0,0:0:0:0:
50,153,76737,2,0,B|81:204|138:190|138:190|189:220,1,150
259,135,77187,1,0,0:0:0:0:
371,135,77337,1,0,0:0:0:0:
389,234,77487,6,0,L|455:243,4,37.5
354,231,77862,1,0,0:0:0:0:
320,231,77937,1,0,0:0:0:0:
287,225,78012,1,0,0:0:0:0:
252,222,78087,2,0,L|142:209,1,75
163,324,78387,6,0,L|96:274,2,75
260,313,78837,1,0,0:0:0:0:
260,313,78987,1,0,0:0:0:0:
355,324,79137,2,0,B|400:263|400:263|428:221|488:233,1,150
423,368,79587,6,0,L|475:290,1,75
468,152,79887,1,0,0:0:0:0:
468,152,80037,1,0,0:0:0:0:
423,16,80187,2,0,L|371:94,1,75
291,111,80487,5,0,0:0:0:0:
291,111,80637,1,0,0:0:0:0:
366,174,80787,1,0,0:0:0:0:
352,267,80937,2,0,P|401:266|443:232,2,75
276,207,81387,1,0,0:0:0:0:
203,142,81537,2,0,B|186:69|239:36|239:36|183:44,1,150
89,174,81987,6,0,P|78:227|90:273,1,75
276,207,82287,1,0,0:0:0:0:
179,222,82437,1,0,0:0:0:0:
242,295,82587,1,0,0:0:0:0:
146,312,82737,1,0,0:0:0:0:
62,361,82887,1,0,0:0:0:0:
62,361,83037,1,0,0:0:0:0:
80,247,83187,5,0,0:0:0:0:
179,222,83337,2,0,P|190:169|178:123,2,75
146,312,83787,1,0,0:0:0:0:
109,172,83937,2,0,P|126:97|197:68,1,150
243,198,84387,6,0,L|168:132,1,75
245,302,84687,1,0,0:0:0:0:
245,302,84837,1,0,0:0:0:0:
243,198,84987,2,0,L|318:132,1,75
238,14,85287,6,0,P|189:62|176:100,1,75
333,36,85587,1,0,0:0:0:0:
372,180,85737,1,0,0:0:0:0:
174,147,85887,2,0,P|157:185|163:229,1,75
171,250,86112,1,0,0:0:0:0:
171,250,86187,1,0,0:0:0:0:
418,305,86337,6,0,P|411:211|363:177,1,150
243,198,86787,1,0,0:0:0:0:
338,265,86937,1,0,0:0:0:0:
239,318,87087,1,0,0:0:0:0:
140,263,87237,2,0,P|119:219|125:166,1,75
120,155,87462,1,0,0:0:0:0:
130,119,87537,1,0,0:0:0:0:
152,89,87612,1,0,0:0:0:0:
185,72,87687,6,0,P|243:61|301:84,1,93.75
331,198,87987,1,0,0:0:0:0:
392,66,88137,1,0,0:0:0:0:
233,152,88287,2,0,L|233:264,1,93.75
331,291,88587,2,0,L|331:179,1,93.75
392,66,88887,6,0,P|407:153|329:197,1,187.5
233,152,89337,2,0,P|205:90|151:68,1,93.75
147,156,89637,1,0,0:0:0:0:
282,39,89787,2,0,L|343:134,1,93.75
252,233,90087,5,0,0:0:0:0:
111,233,90237,1,0,0:0:0:0:
176,357,90387,2,0,L|82:357,1,93.75
22,229,90687,1,0,0:0:0:0:
147,156,90837,1,0,0:0:0:0:
180,278,90987,1,0,0:0:0:0:
45,129,91137,6,0,P|121:56|209:66,1,187.5
288,325,91587,1,0,0:0:0:0:
241,192,91737,1,0,0:0:0:0:
127,355,91887,2,0,L|198:249,1,93.75
340,247,92187,2,0,L|288:325,1,93.75
145,182,92487,6,0,P|165:135|226:103,1,93.75
346,38,92787,2,0,P|326:85|265:117,1,93.75
259,30,93087,1,0,0:0:0:0:
241,192,93237,1,0,0:0:0:0:
157,39,93387,1,0,0:0:0:0:
330,185,93537,1,0,0:0:0:0:
145,182,93687,6,0,P|112:284|182:362,1,187.5
292,349,94137,2,0,P|323:317|332:246,1,93.75
194,265,94437,1,0,0:0:0:0:
94,364,94587,2,0,P|63:332|54:261,1,93.75
87,134,94887,6,0,L|162:196,1,75
258,82,95187,2,0,L|266:179,1,75
415,155,95487,2,0,L|352:230,1,75
347,239,95712,1,0,0:0:0:0:
347,239,95787,1,0,0:0:0:0:
486,363,95937,6,0,P|412:328|311:328,1,150
306,322,96312,1,0,0:0:0:0:
268,322,96387,1,0,0:0:0:0:
230,322,96462,1,0,0:0:0:0:
188,321,96537,2,0,P|146:302|117:260,2,75
261,191,96987,1,0,0:0:0:0:
258,153,97062,1,0,0:0:0:0:
242,118,97137,1,0,0:0:0:0:
216,90,97212,1,0,0:0:0:0:
177,72,97287,6,0,P|99:77|63:105,1,93.75
142,193,97587,2,0,P|102:217|56:221,1,93.75
22,146,97887,1,0,0:0:0:0:
95,266,98037,2,0,P|151:295|209:289,1,93.75
261,191,98337,1,0,0:0:0:0:
274,330,98487,6,0,P|182:298|145:217,1,187.5
261,191,98937,2,0,P|305:157|329:88,1,93.75
191,128,99237,1,0,0:0:0:0:
61,183,99387,2,0,P|47:117|65:59,1,93.75
191,128,99687,6,0,L|275:204,1,93.75
252,364,99987,2,0,L|299:283,1,93.75
453,355,100287,1,0,0:0:0:0:
348,216,100437,1,0,0:0:0:0:
451,252,100587,1,0,0:0:0:0:
365,343,100737,1,0,0:0:0:0:
425,163,100887,6,0,P|332:122|263:177,1,187.5
348,216,101337,1,0,0:0:0:0:
228,305,101487,2,0,P|164:305|116:257,1,93.75
182,134,101787,2,0,P|182:198|230:246,1,93.75
268,166,102087,6,0,P|267:100|246:65,1,93.75
132,63,102387,2,0,P|97:111|100:168,1,93.75
196,222,102687,2,0,P|228:275|219:335,1,93.75
113,348,102987,2,0,P|85:292|99:233,1,93.75
228,305,103287,6,0,P|296:301|351:271,1,93.75
196,222,103587,1,0,0:0:0:0:
254,94,103737,1,0,0:0:0:0:
347,198,103887,1,0,0:0:0:0:
419,77,104037,1,0,0:0:0:0:
460,211,104187,2,0,P|449:264|404:297,1,93.75
228,305,104487,6,0,P|203:227|211:185,1,103.125000983477
294,241,104787,1,0,0:0:0:0:
143,307,104937,2,0,P|130:186|183:111,1,206.250001966953
252,10,105387,2,0,P|294:56|304:121,1,103.125000983477
294,241,105687,6,0,P|366:228|410:190,1,103.125000983477
264,162,105987,1,0,0:0:0:0:
365,278,106137,1,0,0:0:0:0:
464,159,106287,2,0,P|447:114|400:81,1,103.125000983477
237,65,106587,2,0,P|243:128|294:186,1,103.125000983477
174,229,106887,6,0,L|282:148,1,112.500004291535
284,251,107186,1,0,0:0:0:0:
314,84,107336,1,0,0:0:0:0:
373,243,107487,1,0,0:0:0:0:
223,93,107637,1,0,0:0:0:0:
223,93,107712,1,0,0:0:0:0:
223,93,107787,1,0,0:0:0:0:
216,313,107937,6,0,P|325:331|369:223,1,225.000008583069
145,254,108387,1,0,0:0:0:0:
284,251,108537,1,0,0:0:0:0:
134,172,108687,1,0,0:0:0:0:
136,340,108837,1,0,0:0:0:0:
103,329,108912,1,0,0:0:0:0:
78,305,108987,1,0,0:0:0:0:
64,273,109062,1,0,0:0:0:0:
61,239,109137,5,0,0:0:0:0:
166,64,109287,2,0,L|127:194,1,112.500004291535
134,172,109737,5,0,0:0:0:0:
336,49,109887,2,0,P|350:122|273:257,1,225.000008583069
421,346,110337,5,0,0:0:0:0:
252,338,110487,2,0,P|196:291|195:228,2,112.500004291535
401,254,110937,2,0,P|428:101|335:48,1,281.250010728836
290,44,111387,1,0,0:0:0:0:
245,45,111462,1,0,0:0:0:0:
200,53,111537,1,0,0:0:0:0:
168,85,111612,1,0,0:0:0:0:
155,120,111687,6,0,B|88:141|48:112|48:112|126:218|48:320|48:320|191:338|266:230,1,562.500021457673
