osu file format v14

[General]
AudioFilename: audio.mp3
AudioLeadIn: 0
PreviewTime: 60129
Countdown: 0
SampleSet: Soft
StackLeniency: 0.6
Mode: 0
LetterboxInBreaks: 0
WidescreenStoryboard: 1

[Editor]
Bookmarks: 40933
DistanceSpacing: 1.6
BeatDivisor: 4
GridSize: 8
TimelineZoom: 1.9

[Metadata]
Title:Beat Syncer feat. Hatsune Miku
TitleUnicode:ビートシンカー feat. 初音ミク
Artist:DIVELA
ArtistUnicode:DIVELA
Creator:WMnoSotarks
Version:Insane
Source:
Tags:
BeatmapID:2035926
BeatmapSetID:956348

[Difficulty]
HPDrainRate:5
CircleSize:4
OverallDifficulty:7
ApproachRate:9
SliderMultiplier:1.2
SliderTickRate:1

[Events]
//Background and Video events
0,0,"bg.jpg",0,0
//Break Periods
//Storyboard Layer 0 (Background)
//Storyboard Layer 1 (Fail)
//Storyboard Layer 2 (Pass)
//Storyboard Layer 3 (Foreground)
//Storyboard Sound Samples

[TimingPoints]
2529,300,4,2,0,60,1,0
2529,-133.333333333333,4,2,0,30,0,0
9729,-133.333333333333,4,2,0,40,0,0
12129,-90.9090909090909,4,2,1,60,0,1
16929,-81.9672131147541,4,2,1,60,0,1
19329,-81.9672131147541,4,2,3,60,0,1
21729,-100,4,2,2,50,0,0
40929,-200,4,2,0,60,0,0
41529,-200,4,2,0,5,0,0
41679,-133.333333333333,4,2,0,35,0,0
57729,-117.647058823529,4,2,0,50,0,0
58329,-90.9090909090909,4,2,0,50,0,0
69729,-83.3333333333333,4,2,0,50,0,0
72129,-76.9230769230769,4,2,0,50,0,0
74529,-71.4285714285714,4,2,0,50,0,0
79329,-76.9230769230769,4,2,0,60,0,1
90729,-100,4,2,0,60,0,1
98529,-100,4,2,0,60,0,0

[HitObjects]
123,287,2529,6,0,L|314:322,1,180.000006866455,2|0,0:0|0:0,0:0:0:0:
386,184,3729,2,0,L|207:234,1,180.000006866455,2|0,0:0|0:0,0:0:0:0:
252,303,4929,6,0,P|311:274|335:197,1,135.000005149841,2|0,0:0|0:0,0:0:0:0:
306,113,5529,2,0,P|269:172|270:207,1,90.0000034332276,2|0,0:0|0:0,0:0:0:0:
416,245,6129,6,0,P|374:180|303:152,1,135.000005149841,2|0,0:0|0:0,0:0:0:0:
247,239,6729,2,0,P|277:192|280:146,1,90.0000034332277,2|0,0:0|0:0,0:0:0:0:
169,159,7179,1,2,0:0:0:0:
161,138,7329,5,0,0:0:0:0:
130,239,7629,1,0,0:0:0:0:
187,318,7929,1,0,0:0:0:0:
289,338,8229,1,0,0:0:0:0:
387,285,8529,1,0,0:0:0:0:
427,187,8829,1,0,0:0:0:0:
275,135,9279,6,0,L|323:105,2,45.0000017166138
257,244,9729,2,0,P|308:217|391:236,1,135.000005149841,2|0,0:0|0:0,0:0:0:0:
299,335,10329,2,0,P|272:313|251:254,1,90.0000034332276,2|0,0:0|0:0,0:0:0:0:
374,77,10929,6,0,P|371:148|317:196,1,135.000005149841,2|0,0:0|0:0,0:0:0:0:
203,98,11529,2,0,P|248:87|304:101,1,90.0000034332276,2|0,0:0|0:0,0:0:0:0:
214,262,12129,6,0,P|199:218|233:142,1,132.00000402832,12|0,0:0|0:0,0:0:0:0:
231,143,12729,1,2,3:2:0:0:
315,213,12879,1,2,3:2:0:0:
293,105,13029,2,0,P|340:93|427:112,1,132.00000402832,8|2,0:0|3:2,0:0:0:0:
327,218,13479,1,2,3:2:0:0:
212,199,13629,2,0,L|172:120,1,66.0000020141602
86,57,13929,5,2,3:2:0:0:
86,57,14079,1,2,3:2:0:0:
230,122,14229,1,8,0:0:0:0:
107,249,14529,6,0,P|143:210|222:181,1,132.00000402832,12|0,0:0|0:0,0:0:0:0:
379,228,14979,1,0,0:0:0:0:
379,228,15054,1,0,0:0:0:0:
379,228,15129,2,0,P|387:169|382:138,1,66.0000020141602,0|8,0:0|0:0,0:0:0:0:
255,159,15429,2,0,L|171:141,1,66.0000020141602
176,253,15729,5,2,3:2:0:0:
176,253,15879,1,2,3:2:0:0:
204,109,16029,1,8,0:0:0:0:
286,182,16179,1,0,0:0:0:0:
164,137,16329,1,2,3:2:0:0:
164,137,16479,1,2,3:2:0:0:
321,93,16629,2,0,P|359:68|378:41,1,66.0000020141602,8|0,0:0|0:0,0:0:0:0:
188,62,16929,6,0,P|194:101|221:157,1,73.199996984253,0|2,1:0|0:0,0:0:0:0:
336,199,17229,2,0,P|325:147|293:114,1,73.199996984253,8|0,1:0|0:0,0:0:0:0:
184,164,17529,2,0,P|187:225|213:255,1,73.199996984253,2|0,1:0|0:0,0:0:0:0:
330,324,17829,2,0,B|324:273|297:240,1,73.199996984253,8|0,1:0|0:0,0:0:0:0:
256,139,18129,5,0,1:0:0:0:
185,210,18279,1,2,0:0:0:0:
129,53,18429,1,0,1:0:0:0:
236,45,18579,1,8,0:0:0:0:
183,129,18729,2,0,P|156:165|152:226,1,73.199996984253,0|2,1:0|0:0,0:0:0:0:
186,296,19029,1,0,1:0:0:0:
186,296,19179,1,8,0:0:0:0:
257,206,19329,6,0,L|295:183,3,36.5999984921265,12|0|0|0,0:0|0:0|0:0|0:0,0:0:0:0:
366,259,19629,2,0,L|386:293,3,36.5999984921265,12|0|0|0,0:0|0:0|0:0|0:0,0:0:0:0:
360,146,19929,2,0,L|331:111,3,36.5999984921265,12|0|0|0,0:0|0:0|0:0|0:0,0:0:0:0:
207,180,20229,1,2,0:0:0:0:
150,303,20379,1,6,0:0:0:0:
150,303,20679,5,0,0:0:0:0:
207,180,20829,1,0,0:0:0:0:
277,324,20979,1,0,0:0:0:0:
315,70,21279,5,2,0:0:0:0:
309,193,21429,1,2,0:0:0:0:
192,118,21579,1,2,0:0:0:0:
364,113,21729,6,0,P|364:152|350:197,1,60
230,200,22029,2,0,P|226:161|238:124,1,60,8|0,0:0|0:0,0:0:0:0:
364,113,22329,2,0,P|364:152|350:197,1,60
230,200,22629,2,0,P|226:161|238:124,1,60,8|0,0:0|0:0,0:0:0:0:
360,185,22854,5,0,0:0:0:0:
360,185,22929,2,0,P|327:233|313:248,1,60
168,182,23229,2,0,P|189:147|221:136,1,60,8|0,0:0|0:0,0:0:0:0:
301,291,23529,1,0,0:0:0:0:
208,278,23679,1,0,0:0:0:0:
307,166,23829,1,8,0:0:0:0:
305,256,23979,1,0,0:0:0:0:
166,154,24129,5,0,0:0:0:0:
268,93,24279,1,0,0:0:0:0:
268,93,24354,1,0,0:0:0:0:
268,93,24429,1,8,0:0:0:0:
160,75,24579,1,0,0:0:0:0:
254,217,24729,2,0,P|272:167|267:137,1,60
110,190,25029,2,0,P|116:232|140:258,1,60,8|0,0:0|0:0,0:0:0:0:
331,199,25254,5,0,0:0:0:0:
331,199,25329,2,0,P|293:129|237:99,1,120,10|2,0:0|0:0,0:0:0:0:
147,175,25779,1,0,0:0:0:0:
147,175,25929,2,0,P|187:99|197:42,1,120,10|10,0:0|0:0,0:0:0:0:
321,158,26379,1,0,0:0:0:0:
200,237,26529,6,0,L|268:236,1,60
285,95,26829,2,0,P|286:134|278:172,1,60,10|0,0:0|0:0,0:0:0:0:
119,172,27129,2,0,L|197:172,1,60
205,38,27429,2,0,P|206:77|198:115,1,60,8|0,0:0|0:0,0:0:0:0:
114,94,27729,6,0,P|151:110|174:137,1,60
207,244,28029,2,0,P|166:202|158:178,1,60,8|0,0:0|0:0,0:0:0:0:
231,113,28329,2,0,P|266:135|283:165,1,60
326,309,28629,2,0,P|292:270|282:236,1,60,8|0,0:0|0:0,0:0:0:0:
374,143,28854,5,0,0:0:0:0:
374,143,28929,2,0,P|341:201|275:242,1,120,0|8,0:0|0:0,0:0:0:0:
182,160,29379,1,0,0:0:0:0:
299,107,29529,2,0,L|381:113,1,60
284,215,29829,2,0,B|199:210|200:210,1,60,8|0,0:0|0:0,0:0:0:0:
268,40,30129,5,10,0:0:0:0:
279,136,30279,1,0,0:0:0:0:
115,122,30429,2,2,P|143:114|195:113,1,60,2|0,0:0|0:0,0:0:0:0:
333,254,30729,1,10,0:0:0:0:
324,144,30879,1,0,0:0:0:0:
193,240,31029,2,0,L|217:264,2,30,10|8|8,0:0|0:0|0:0,0:0:0:0:
346,248,31329,5,4,0:0:0:0:
278,202,31479,1,0,0:0:0:0:
330,134,31629,1,8,0:0:0:0:
241,127,31779,1,0,0:0:0:0:
186,198,31929,1,0,0:0:0:0:
271,217,32079,1,0,0:0:0:0:
241,127,32229,2,0,L|176:72,1,60,8|0,0:0|0:0,0:0:0:0:
112,164,32454,5,0,0:0:0:0:
112,164,32529,2,0,L|176:154,1,60
334,196,32829,2,0,L|266:211,1,60,8|0,0:0|0:0,0:0:0:0:
151,244,33129,1,0,0:0:0:0:
252,294,33279,1,0,0:0:0:0:
151,244,33429,1,8,0:0:0:0:
158,331,33579,1,0,0:0:0:0:
225,184,33729,5,0,0:0:0:0:
225,184,33879,1,0,0:0:0:0:
321,156,34029,1,8,0:0:0:0:
321,156,34179,1,0,0:0:0:0:
243,269,34329,2,0,P|216:215|221:192,1,60
283,98,34629,2,0,P|244:88|201:92,1,60,8|0,0:0|0:0,0:0:0:0:
71,224,34854,5,0,0:0:0:0:
71,224,34929,2,0,P|62:147|73:93,1,120,10|2,0:0|0:0,0:0:0:0:
211,80,35379,1,0,0:0:0:0:
211,80,35529,2,0,P|147:106|93:159,1,120,10|10,0:0|0:0,0:0:0:0:
209,209,35979,1,0,0:0:0:0:
353,192,36129,6,0,P|351:127|356:111,2,60,0|0|8,0:0|0:0|0:0,0:0:0:0:
273,263,36579,2,0,P|255:219|250:189,2,60
165,320,37029,2,0,P|180:283|196:261,1,60,8|0,0:0|0:0,0:0:0:0:
297,205,37254,5,0,0:0:0:0:
297,205,37329,2,0,P|367:228|417:268,1,120,0|8,0:0|0:0,0:0:0:0:
289,308,37779,1,0,0:0:0:0:
238,187,37929,2,0,P|187:158|160:153,2,60,0|0|8,0:0|0:0|0:0,0:0:0:0:
170,293,38379,1,0,0:0:0:0:
97,172,38529,6,0,P|72:143|39:130,1,60
38,291,38829,2,0,P|55:330|81:357,1,60,8|0,0:0|0:0,0:0:0:0:
191,227,39129,2,0,P|229:207|264:204,1,60
258,365,39429,2,0,P|230:334|216:307,1,60,8|0,0:0|0:0,0:0:0:0:
229,143,39654,5,0,0:0:0:0:
229,143,39729,2,0,P|279:128|326:142,1,90,10|2,0:0|0:0,0:0:0:0:
344,185,40029,2,0,L|276:221,1,60,10|0,0:0|0:0,0:0:0:0:
207,137,40329,1,10,0:0:0:0:
165,219,40479,1,2,0:0:0:0:
284,182,40629,1,10,3:2:0:0:
284,182,40704,1,0,3:0:0:0:
284,182,40779,1,0,3:0:0:0:
284,182,40854,1,0,3:0:0:0:
284,182,40929,2,0,B|312:197|299:230|299:230|319:261|358:272,1,120
370,187,41679,6,0,P|364:149|353:127,2,45.0000017166138
288,261,42129,2,0,P|244:270|195:257,1,90.0000034332277
155,208,42579,2,0,P|116:148|50:115,1,135.000005149841
10,187,43179,1,0,0:0:0:0:
119,78,43329,5,0,0:0:0:0:
119,78,43479,2,0,P|156:67|258:78,1,135.000005149841
250,152,44079,1,0,0:0:0:0:
220,209,44229,1,0,0:0:0:0:
185,264,44379,1,0,0:0:0:0:
131,184,44529,6,0,P|169:139|243:124,1,135.000005149841
234,204,45129,2,0,P|229:254|166:317,1,135.000005149841
136,368,45729,1,0,0:0:0:0:
282,193,46479,6,0,P|271:160|260:144,2,45.0000017166138
286,329,46929,2,0,P|257:362|210:378,1,90.0000034332277
230,260,47379,2,0,P|291:248|359:277,1,135.000005149841
262,339,47979,1,0,0:0:0:0:
138,322,48129,2,0,B|136:274|184:270|188:209|188:209|225:197|236:167,1,180.000006866455
375,144,48879,1,0,0:0:0:0:
232,117,49029,1,0,0:0:0:0:
232,117,49179,6,0,B|288:70|288:70|347:50,1,135.000005149841
342,182,49929,2,0,B|366:230|366:230|440:294,1,135.000005149841
466,302,50529,1,0,0:0:0:0:
300,208,51279,6,0,L|239:217,2,45.0000017166138
376,148,51729,2,0,P|412:122|461:102,1,90.0000034332277
398,249,52179,2,0,P|358:275|305:284,1,90.0000034332277
205,162,52629,1,0,0:0:0:0:
205,162,52779,2,0,P|268:100|268:200,1,225.000008583069
171,248,53679,2,0,P|153:210|148:190,1,45.0000017166138
320,192,53979,2,0,P|310:275|217:212,1,225.000008583069
281,120,54879,2,0,P|323:111|379:129,1,90.0000034332277
412,175,55329,1,0,0:0:0:0:
274,257,56079,6,0,L|311:298,2,45.0000017166138
272,151,56529,2,0,P|291:125|313:108,1,45.0000017166138
406,104,56829,1,0,0:0:0:0:
406,104,56979,2,0,P|406:138|396:187,1,67.5000025749207
367,210,57279,1,0,0:0:0:0:
367,210,57579,1,0,0:0:0:0:
226,153,57729,6,0,P|246:115|302:78,1,102.000001945496
397,204,58329,2,0,L|263:155,1,132.00000402832
178,143,58929,2,0,P|197:117|246:79,1,66.0000020141602
233,215,59229,1,0,0:0:0:0:
139,160,59379,1,0,0:0:0:0:
237,109,59529,2,0,L|311:106,1,66.0000020141602
279,220,59829,2,0,L|225:283,1,66.0000020141602
177,166,60129,6,0,P|189:130|262:74,1,132.00000402832
351,199,60579,2,0,P|349:239|331:290,1,66.0000020141602
210,218,60879,1,0,0:0:0:0:
166,133,61029,1,0,0:0:0:0:
186,40,61179,2,0,P|224:20|257:8,1,66.0000020141602
312,108,61479,5,0,0:0:0:0:
231,177,61629,1,0,0:0:0:0:
128,195,61779,2,0,P|90:194|58:179,1,66.0000020141602
126,85,62079,1,0,0:0:0:0:
235,133,62229,2,0,P|269:167|279:208,1,66.0000020141602
224,306,62529,6,0,B|215:252|233:222|233:222|211:157,1,132.00000402832
333,211,62979,2,0,P|371:181|389:152,1,66.0000020141602
294,70,63279,1,0,0:0:0:0:
246,153,63429,1,0,0:0:0:0:
267,250,63579,2,0,P|301:267|338:274,1,66.0000020141602
415,202,63879,5,0,0:0:0:0:
328,97,64029,1,0,0:0:0:0:
328,97,64179,2,0,B|291:88|193:130,1,132.00000402832
262,219,64629,1,0,0:0:0:0:
342,201,64779,1,0,0:0:0:0:
248,119,64929,6,0,P|201:100|171:100,1,66.0000020141602
106,224,65229,2,0,P|149:198|167:177,1,66.0000020141602
97,79,65529,2,0,B|90:124|97:163,1,66.0000020141602
199,289,65829,2,0,P|209:249|206:204,1,66.0000020141602
167,102,66129,2,0,P|208:83|243:84,1,66.0000020141602
361,177,66429,2,0,P|316:182|284:171,1,66.0000020141602
140,127,66729,2,0,P|191:111|230:121,1,66.0000020141602
277,241,67029,2,0,P|269:279|246:312,1,66.0000020141602
141,244,67329,5,0,0:0:0:0:
211,213,67479,1,0,0:0:0:0:
78,150,67629,1,0,0:0:0:0:
152,174,67779,1,0,0:0:0:0:
112,322,67929,2,0,P|96:275|97:248,1,66.0000020141602
228,157,68229,2,0,P|217:115|196:81,1,66.0000020141602
72,205,68529,5,0,0:0:0:0:
163,188,68679,1,0,0:0:0:0:
124,302,68829,1,0,0:0:0:0:
17,157,68979,2,0,P|40:112|64:86,1,66.0000020141602
180,232,69279,2,0,P|167:275|136:300,1,66.0000020141602
87,152,69579,1,0,0:0:0:0:
258,93,69729,6,0,L|344:70,1,71.9999978027344
379,205,70029,2,0,L|289:232,1,71.9999978027344
258,93,70329,2,0,L|344:70,1,71.9999978027344
379,205,70629,2,0,L|289:232,1,71.9999978027344
258,93,70929,2,0,L|344:70,1,71.9999978027344
379,205,71229,2,0,L|289:232,1,71.9999978027344
225,85,71529,1,0,0:0:0:0:
202,187,71679,1,0,0:0:0:0:
353,124,71829,2,0,P|316:89|282:66,1,71.9999978027344
226,288,72129,6,0,P|239:236|223:179,1,77.9999964294435
130,69,72429,2,0,P|125:125|142:159,1,77.9999964294435
226,288,72729,2,0,P|239:236|223:179,1,77.9999964294435
130,69,73029,2,0,P|125:125|142:159,1,77.9999964294435
226,288,73329,6,0,P|239:236|223:179,1,77.9999964294435
135,71,73629,1,0,0:0:0:0:
181,203,73779,1,0,0:0:0:0:
181,203,73854,1,0,0:0:0:0:
181,203,73929,1,0,0:0:0:0:
242,132,74079,1,0,0:0:0:0:
106,114,74229,2,0,P|136:159|176:179,1,77.9999964294435
330,132,74529,6,0,P|379:130|437:139,1,83.9999974365235
311,273,74829,2,0,P|286:221|275:167,1,83.9999974365235
426,106,75129,2,0,P|417:167|396:208,1,83.9999974365235
426,312,75429,2,0,P|369:295|324:273,1,83.9999974365235
300,164,75729,5,0,0:0:0:0:
300,164,75804,1,0,0:0:0:0:
300,164,75879,1,0,0:0:0:0:
254,308,76029,1,0,0:0:0:0:
227,233,76179,1,0,0:0:0:0:
376,282,76329,1,0,0:0:0:0:
376,282,76404,1,0,0:0:0:0:
376,282,76479,1,0,0:0:0:0:
217,271,76629,1,0,0:0:0:0:
276,174,76779,1,0,0:0:0:0:
145,193,76929,6,0,L|126:186,32,20.9999993591309
296,192,79329,6,0,L|400:192,1,77.9999964294435
235,288,79629,2,0,L|139:288,1,77.9999964294435
296,192,79929,2,0,L|400:192,1,77.9999964294435
147,228,80229,6,0,P|149:170|173:131,1,77.9999964294435
285,225,80529,2,0,P|278:292|263:328,1,77.9999964294435
147,228,80829,2,0,P|149:170|173:131,1,77.9999964294435
326,122,81129,5,0,0:0:0:0:
231,86,81279,1,0,0:0:0:0:
244,193,81429,1,0,0:0:0:0:
326,122,81579,1,0,0:0:0:0:
191,143,81729,2,0,B|153:151|135:185|135:185|110:216|65:236,1,155.999992858887
68,124,82179,5,0,0:0:0:0:
167,83,82329,2,0,L|254:64,1,77.9999964294435
201,197,82629,2,0,P|157:220|111:216,1,77.9999964294435
256,88,82929,1,0,0:0:0:0:
163,101,83079,1,0,0:0:0:0:
285,241,83229,1,0,0:0:0:0:
252,157,83379,1,0,0:0:0:0:
387,195,83529,2,0,P|370:139|335:108,1,77.9999964294435
174,101,83829,1,0,0:0:0:0:
298,173,83979,5,0,0:0:0:0:
298,173,84129,2,0,B|360:173|393:201,1,77.9999964294435
268,308,84429,2,0,P|234:263|228:223,1,77.9999964294435
396,158,84729,2,0,P|382:228|354:253,1,77.9999964294435
200,243,85029,2,0,P|226:202|265:182,1,77.9999964294435
362,285,85329,6,0,P|321:241|307:197,1,77.9999964294435
389,87,85629,2,0,P|388:171|366:254,1,155.999992858887
297,190,86079,1,0,0:0:0:0:
404,331,86229,1,0,0:0:0:0:
451,249,86379,1,0,0:0:0:0:
300,254,86529,6,0,L|212:237,1,77.9999964294435
318,128,86829,2,0,L|385:60,1,77.9999964294435
412,225,87129,2,0,P|374:268|330:292,1,77.9999964294435
202,248,87429,2,0,P|207:315|228:351,1,77.9999964294435
315,200,87729,5,0,0:0:0:0:
226,146,87879,1,0,0:0:0:0:
226,146,88029,1,0,0:0:0:0:
294,103,88179,1,0,0:0:0:0:
258,263,88329,2,0,P|208:246|174:219,1,77.9999964294435
173,110,88629,1,0,0:0:0:0:
173,110,88704,1,0,0:0:0:0:
173,110,88779,1,0,0:0:0:0:
269,170,88929,6,0,L|306:158,3,38.9999982147218
280,256,89229,2,0,L|323:253,3,38.9999982147218
199,305,89529,2,0,L|191:264,3,38.9999982147218
221,166,89829,2,0,L|255:116,3,38.9999982147218
357,224,90129,6,0,P|366:265|364:334,1,77.9999964294435
185,281,90429,2,0,P|161:233|146:179,1,77.9999964294435
322,145,90729,6,0,P|324:168|310:192,3,30
191,162,91029,2,0,L|171:129,3,30
314,81,91329,2,0,L|332:78,15,15
376,181,91929,6,0,P|364:213|333:254,2,80
256,133,92529,2,0,P|199:135|176:149,1,60
280,274,92829,2,0,P|321:282|359:278,1,60
256,133,93129,1,0,0:0:0:0:
121,192,93279,1,0,0:0:0:0:
163,260,93429,1,0,0:0:0:0:
203,190,93579,1,0,0:0:0:0:
311,308,93729,6,0,P|265:292|238:269,1,60
180,116,94029,2,0,P|162:157|166:190,1,60
317,192,94329,2,0,L|389:174,1,60
285,90,94629,1,0,0:0:0:0:
285,90,94779,2,0,L|206:92,1,60
208,164,95079,1,0,0:0:0:0:
208,164,95229,1,0,0:0:0:0:
336,146,95379,2,0,L|331:68,1,60
220,201,95679,6,0,L|140:232,2,60
349,149,96129,5,0,0:0:0:0:
399,270,96279,1,0,0:0:0:0:
302,214,96429,1,0,0:0:0:0:
332,107,96579,1,0,0:0:0:0:
430,158,96729,1,0,0:0:0:0:
302,214,96879,1,0,0:0:0:0:
362,37,97029,1,0,0:0:0:0:
378,132,97179,1,0,0:0:0:0:
378,132,97254,1,0,0:0:0:0:
378,132,97329,5,0,0:0:0:0:
391,251,97479,1,0,0:0:0:0:
296,181,97629,1,0,0:0:0:0:
391,251,97779,1,0,0:0:0:0:
346,126,98079,5,0,0:0:0:0:
327,293,98229,1,0,0:0:0:0:
254,209,98379,1,0,0:0:0:0:
256,192,98454,12,0,100929,0:0:0:0:
