osu file format v14

[General]
AudioFilename: audio.mp3
AudioLeadIn: 0
PreviewTime: 60129
Countdown: 0
SampleSet: Soft
StackLeniency: 0.6
Mode: 0
LetterboxInBreaks: 0
WidescreenStoryboard: 1

[Editor]
Bookmarks: 40933
DistanceSpacing: 1
BeatDivisor: 4
GridSize: 4
TimelineZoom: 1.7

[Metadata]
Title:Beat Syncer feat. Hatsune Miku
TitleUnicode:ビートシンカー feat. 初音ミク
Artist:DIVELA
ArtistUnicode:DIVELA
Creator:WMnoSotarks
Version:Extra
Source:
Tags:
BeatmapID:2012542
BeatmapSetID:956348

[Difficulty]
HPDrainRate:6
CircleSize:4
OverallDifficulty:7.5
ApproachRate:9.2
SliderMultiplier:1.5
SliderTickRate:1

[Events]
//Background and Video events
0,0,"bg.jpg",0,0
//Break Periods
//Storyboard Layer 0 (Background)
//Storyboard Layer 1 (Fail)
//Storyboard Layer 2 (Pass)
//Storyboard Layer 3 (Foreground)
//Storyboard Sound Samples

[TimingPoints]
2529,300,4,2,0,60,1,0
2529,-100,4,2,1,30,0,0
4929,-100,4,2,0,30,0,0
11529,-133.333333333333,4,2,0,40,0,0
12129,-100,4,2,1,60,0,1
16929,-83.3333333333333,4,2,1,70,0,1
19329,-83.3333333333333,4,2,1,80,0,1
21729,-66.6666666666667,4,2,2,60,0,0
24129,-76.9230769230769,4,2,2,60,0,0
26529,-66.6666666666667,4,2,2,60,0,0
28929,-76.9230769230769,4,2,2,60,0,0
30729,-76.9230769230769,4,2,3,60,0,0
31329,-66.6666666666667,4,2,2,60,0,0
33729,-76.9230769230769,4,2,2,60,0,0
36129,-83.3333333333333,4,2,2,60,0,0
40329,-83.3333333333333,4,2,3,60,0,0
41229,-133.333333333333,4,2,0,45,0,0
44379,-181.818181818181,4,2,0,45,0,0
45729,-133.333333333333,4,2,0,45,0,0
53979,-181.818181818181,4,2,0,45,0,0
55329,-133.333333333333,4,2,0,45,0,0
58929,-117.647058823529,4,2,0,50,0,0
60129,-100,4,2,2,53,0,0
65979,-90.9090909090909,4,2,2,60,0,0
69729,-90.9090909090909,4,2,2,30,0,0
70329,-90.9090909090909,4,2,2,40,0,0
70929,-90.9090909090909,4,2,2,50,0,0
72129,-90.9090909090909,4,2,2,40,0,0
72729,-90.9090909090909,4,2,2,50,0,0
73329,-90.9090909090909,4,2,2,60,0,0
74529,-90.9090909090909,4,2,2,50,0,0
75129,-90.9090909090909,4,2,3,40,0,0
76929,-90.9090909090909,4,2,3,50,0,0
77229,-90.9090909090909,4,2,3,55,0,0
77529,-90.9090909090909,4,2,3,60,0,0
77829,-90.9090909090909,4,2,3,65,0,0
78129,-90.9090909090909,4,2,3,70,0,0
79329,-71.4285714285714,4,2,2,80,0,1
85629,-90.9090909090909,4,2,2,80,0,1
86529,-71.4285714285714,4,2,2,80,0,1
88929,-71.4285714285714,4,2,3,65,0,1
93729,-71.4285714285714,4,2,1,75,0,1
96129,-71.4285714285714,4,2,3,75,0,1
97179,-62.5,4,2,2,80,0,1
98529,-100,4,2,2,80,0,0

[HitObjects]
206,198,2529,5,4,0:1:0:0:
334,326,2829,1,0,0:0:0:0:
398,155,3129,1,0,0:0:0:0:
231,227,3429,5,0,0:0:0:0:
394,306,3729,1,0,0:0:0:0:
379,124,4029,1,0,0:0:0:0:
317,211,4329,5,0,0:0:0:0:
266,152,4479,1,0,0:0:0:0:
242,225,4629,1,0,0:0:0:0:
190,167,4779,1,0,0:0:0:0:
114,242,4929,6,0,P|151:288|238:246,1,150,2|0,0:0|0:0,0:0:0:0:
306,83,5379,2,0,L|354:79,1,37.5
349,144,5529,2,0,B|326:182|326:182|344:211|344:211|363:253|311:288,1,150,2|0,0:0|0:0,0:0:0:0:
174,197,5979,1,0,0:0:0:0:
174,197,6054,1,0,0:0:0:0:
174,197,6129,6,0,B|219:205|219:205|228:168|252:179|252:179|281:185|304:208,1,150,2|0,0:0|0:0,0:0:0:0:
158,337,6579,1,0,0:0:0:0:
158,337,6654,1,0,0:0:0:0:
158,337,6729,2,0,B|147:267|147:267|173:162,1,150,2|0,0:0|0:0,0:0:0:0:
295,93,7179,1,0,0:0:0:0:
429,244,7329,5,2,0:0:0:0:
349,299,7629,1,0,0:0:0:0:
251,301,7929,1,0,0:0:0:0:
163,257,8229,1,0,0:0:0:0:
259,73,8529,1,0,0:0:0:0:
260,170,8829,1,0,0:0:0:0:
333,84,9279,5,0,0:0:0:0:
333,84,9429,1,0,0:0:0:0:
445,189,9579,1,0,0:0:0:0:
347,179,9729,2,0,L|202:94,1,150,2|0,0:0|0:0,0:0:0:0:
250,257,10329,6,0,B|295:192|295:192|383:147,1,150,2|0,0:0|0:0,0:0:0:0:
228,65,10929,2,0,P|251:166|305:214,1,150,2|0,0:0|0:0,0:0:0:0:
135,183,11529,2,0,B|77:216|145:279|71:345,1,168.750006437302,2|0,0:0|0:0,0:0:0:0:
354,229,12129,5,12,0:1:0:0:
354,229,12279,1,8,0:0:0:0:
171,117,12429,2,0,B|206:88|245:111|245:111|286:101|308:64,1,150,8|0,0:0|0:0,0:0:0:0:
196,182,12879,1,0,3:0:0:0:
302,296,13029,2,0,P|315:230|335:194,1,75,8|0,0:0|0:0,0:0:0:0:
142,321,13329,5,6,0:0:0:0:
142,321,13479,1,0,0:0:0:0:
246,142,13629,2,0,B|211:103|211:103|183:139|109:121,1,150,8|0,0:0|0:0,0:0:0:0:
208,276,14079,1,2,0:0:0:0:
176,112,14229,2,0,P|161:68|136:27,1,75,8|0,0:0|0:0,0:0:0:0:
345,251,14529,6,0,P|351:188|348:163,1,75,14|0,0:0|0:0,0:0:0:0:
116,239,14829,2,0,P|104:278|103:327,1,75,8|0,0:0|0:0,0:0:0:0:
291,237,15129,2,0,P|273:180|236:149,2,100,0|0|8,0:0|0:0|0:0,0:0:0:0:
137,246,15729,5,6,0:0:0:0:
137,246,15879,1,2,0:0:0:0:
298,141,16029,2,0,P|347:127|392:139,1,75,8|2,0:0|0:0,0:0:0:0:
377,267,16329,1,0,0:0:0:0:
244,158,16479,1,2,0:0:0:0:
216,287,16629,1,8,0:0:0:0:
216,287,16779,1,2,0:0:0:0:
204,144,16929,6,0,P|221:83|249:46,1,89.9999972534181,4|0,1:0|0:0,0:0:0:0:
391,158,17229,2,0,P|340:157|297:135,1,89.9999972534181,8|0,1:0|0:0,0:0:0:0:
120,119,17529,2,0,P|188:83|239:87,1,89.9999972534181,0|0,1:0|0:0,0:0:0:0:
307,207,17829,2,0,B|309:254|284:309,1,89.9999972534181,8|0,1:0|0:0,0:0:0:0:
206,231,18129,5,4,1:0:0:0:
107,124,18279,1,0,0:0:0:0:
244,123,18429,1,8,1:0:0:0:
138,177,18579,1,0,0:0:0:0:
313,263,18729,1,0,1:0:0:0:
225,137,18879,1,0,0:0:0:0:
352,73,19029,1,8,1:0:0:0:
261,253,19179,1,0,0:0:0:0:
243,79,19329,5,12,1:0:0:0:
352,292,19479,1,0,0:0:0:0:
176,177,19629,1,8,1:0:0:0:
350,47,19779,1,0,0:0:0:0:
171,180,19929,5,12,0:1:0:0:
163,196,20004,1,0,0:0:0:0:
160,213,20079,1,0,0:0:0:0:
160,230,20154,1,0,0:0:0:0:
153,246,20229,1,8,0:1:0:0:
143,261,20304,1,0,0:0:0:0:
128,304,20379,2,0,P|184:316|209:313,1,44.999998626709,4|0,0:0|0:0,0:0:0:0:
322,296,21579,5,8,0:0:0:0:
322,296,21654,1,8,0:0:0:0:
322,296,21729,6,0,P|337:233|321:173,1,112.500004291535,12|0,0:1|0:0,0:0:0:0:
210,111,22029,2,0,P|272:80|345:92,1,112.500004291535,8|0,0:0|0:0,0:0:0:0:
366,249,22329,1,0,0:0:0:0:
280,145,22479,1,0,0:0:0:0:
356,266,22629,2,0,P|355:203|327:134,1,112.500004291535,8|0,0:0|0:0,0:0:0:0:
147,273,22854,5,0,0:0:0:0:
147,273,22929,2,0,B|149:222|149:222|171:143,1,112.500004291535
331,216,23229,1,8,0:0:0:0:
246,137,23379,1,0,0:0:0:0:
347,342,23529,1,0,0:0:0:0:
246,355,23679,1,0,0:0:0:0:
320,214,23829,1,8,0:0:0:0:
246,355,23979,1,8,0:0:0:0:
158,205,24129,6,0,P|153:282|158:304,1,97.4999955368044,4|0,0:1|0:0,0:0:0:0:
183,175,24429,2,0,B|148:229|133:278|159:293,1,97.4999955368044,8|0,0:0|0:0,0:0:0:0:
212,151,24729,2,0,P|167:186|141:231,1,97.4999955368044
246,148,25029,2,0,P|193:159|132:204,1,97.4999955368044,8|0,0:0|0:0,0:0:0:0:
391,287,25329,5,10,0:0:0:0:
317,153,25479,1,0,0:0:0:0:
391,287,25629,1,2,0:0:0:0:
203,255,25779,1,0,0:0:0:0:
458,216,25929,1,10,0:0:0:0:
317,153,26079,1,8,0:0:0:0:
314,322,26229,1,10,0:0:0:0:
314,322,26304,1,8,0:0:0:0:
314,322,26379,1,8,0:0:0:0:
191,139,26529,6,0,B|126:162|78:232,1,112.500004291535,4|0,0:1|0:0,0:0:0:0:
274,279,26829,2,0,P|323:226|342:173,1,112.500004291535,8|0,0:0|0:0,0:0:0:0:
191,139,27129,2,0,B|126:162|78:232,1,112.500004291535
263,249,27429,2,0,B|336:254|389:290,1,112.500004291535,8|0,0:0|0:0,0:0:0:0:
301,95,27654,5,0,0:0:0:0:
301,95,27729,2,0,B|259:89|247:59|194:52,1,112.500004291535
91,131,28029,2,0,B|141:139|178:90|226:107,1,112.500004291535,8|0,0:0|0:0,0:0:0:0:
327,237,28329,1,0,0:0:0:0:
231,143,28479,1,0,0:0:0:0:
371,168,28629,1,8,0:0:0:0:
278,204,28779,1,8,0:0:0:0:
422,342,28929,6,0,P|435:270|432:229,1,97.4999955368044,4|0,0:1|0:0,0:0:0:0:
418,299,29229,2,0,P|422:242|401:171,1,97.4999955368044,8|0,0:0|0:0,0:0:0:0:
400,250,29529,2,0,P|380:182|351:143,1,97.4999955368044
364,210,29829,2,0,P|329:144|285:118,1,97.4999955368044,8|0,0:0|0:0,0:0:0:0:
212,259,30129,5,10,0:0:0:0:
212,259,30204,1,0,3:0:0:0:
212,259,30279,1,0,0:0:0:0:
321,62,30429,1,2,0:0:0:0:
321,207,30579,1,0,0:0:0:0:
138,89,30729,5,10,0:0:0:0:
166,84,30804,1,8,0:0:0:0:
194,80,30879,1,8,0:0:0:0:
223,76,30954,1,8,0:0:0:0:
252,76,31029,1,8,0:0:0:0:
280,80,31104,1,8,0:0:0:0:
309,79,31179,1,8,0:0:0:0:
337,71,31254,1,8,0:0:0:0:
366,67,31329,5,12,0:0:0:0:
371,161,31479,1,0,0:0:0:0:
298,46,31629,2,0,B|348:20|348:20|410:21,1,112.500004291535,8|0,0:0|0:0,0:0:0:0:
313,223,31929,2,0,B|300:348,1,112.500004291535
167,263,32229,2,0,P|231:242|297:254,1,112.500004291535,8|0,0:0|0:0,0:0:0:0:
215,180,32454,1,0,0:0:0:0:
215,180,32529,6,0,P|245:122|253:59,1,112.500004291535
93,133,32829,2,0,P|129:188|201:222,1,112.500004291535,8|0,0:0|0:0,0:0:0:0:
348,170,33129,1,0,0:0:0:0:
261,315,33279,1,0,0:0:0:0:
387,248,33429,1,8,0:0:0:0:
351,314,33579,1,8,0:0:0:0:
348,170,33729,5,4,0:1:0:0:
280,65,33879,1,0,0:0:0:0:
280,65,33954,1,0,0:0:0:0:
280,65,34029,1,8,0:0:0:0:
460,119,34179,1,0,0:0:0:0:
267,240,34329,2,0,P|285:176|317:138,1,97.4999955368044
211,57,34629,2,0,P|181:121|132:162,1,97.4999955368044,8|0,0:0|0:0,0:0:0:0:
321,245,34929,5,10,0:0:0:0:
405,345,35079,1,8,0:0:0:0:
405,345,35154,1,8,3:2:0:0:
405,345,35229,1,10,0:0:0:0:
487,190,35379,1,0,0:0:0:0:
359,93,35529,1,2,0:0:0:0:
497,99,35679,1,0,0:0:0:0:
302,212,35829,1,10,0:0:0:0:
302,212,35904,1,8,3:2:0:0:
302,212,35979,1,10,0:0:0:0:
437,202,36129,6,0,P|432:147|402:115,1,89.9999972534181,4|0,0:1|0:0,0:0:0:0:
311,258,36429,2,0,P|338:311|383:326,1,89.9999972534181,8|0,0:0|0:0,0:0:0:0:
404,162,36729,2,0,L|310:114,1,89.9999972534181
185,187,37029,2,0,P|217:138|272:108,1,89.9999972534181,8|0,0:0|0:0,0:0:0:0:
346,214,37254,1,0,0:0:0:0:
346,214,37329,6,0,B|310:237|310:237|236:251,1,89.9999972534181
131,153,37629,2,0,P|123:237|147:275,1,89.9999972534181,8|0,0:0|0:0,0:0:0:0:
274,175,37929,2,0,P|257:103|232:71,1,89.9999972534181
138,277,38229,2,0,P|202:255|249:254,1,89.9999972534181,8|8,0:0|0:0,0:0:0:0:
409,164,38529,5,10,0:0:0:0:
329,252,38679,1,2,0:0:0:0:
311,113,38829,1,10,0:0:0:0:
329,252,38979,1,2,0:0:0:0:
416,78,39129,1,10,0:0:0:0:
451,215,39279,1,2,0:0:0:0:
208,124,39429,1,10,0:0:0:0:
208,124,39504,1,8,0:0:0:0:
208,124,39579,1,10,0:0:0:0:
290,42,39729,5,2,0:0:0:0:
243,249,39879,1,0,0:0:0:0:
382,158,40029,1,10,0:0:0:0:
382,158,40104,1,8,3:2:0:0:
382,158,40179,1,8,0:0:0:0:
236,94,40329,5,14,0:0:0:0:
236,107,40404,1,8,0:0:0:0:
236,120,40479,1,8,0:0:0:0:
236,133,40554,1,8,0:0:0:0:
236,146,40629,1,8,0:0:0:0:
236,159,40704,1,8,0:0:0:0:
236,172,40779,1,8,0:0:0:0:
236,185,40854,1,8,0:0:0:0:
236,198,40929,1,12,0:0:0:0:
154,199,41679,5,2,0:0:0:0:
198,315,41829,1,2,0:0:0:0:
244,244,41979,1,2,0:0:0:0:
244,244,42129,6,0,P|261:183|261:125,1,112.500004291535,2|0,0:0|0:0,0:0:0:0:
359,87,42579,2,0,L|429:55,1,56.2500021457673,2|0,0:0|0:0,0:0:0:0:
268,106,42879,1,2,0:0:0:0:
268,106,43029,2,0,P|295:170|295:223,1,112.500004291535,2|0,0:0|0:0,0:0:0:0:
377,316,43479,1,2,0:0:0:0:
423,201,43629,1,2,0:0:0:0:
423,201,43779,2,0,P|368:203|306:226,1,112.500004291535,2|0,0:0|0:0,0:0:0:0:
190,154,44229,1,2,0:0:0:0:
190,154,44379,2,0,B|228:131|241:88|241:88|235:144|275:200|327:158|327:158|364:230|324:233|324:233|289:247|282:256,1,371.250011329651,2|0,0:0|0:0,0:0:0:0:
211,231,46479,5,2,0:0:0:0:
262,152,46629,1,2,0:0:0:0:
342,174,46779,1,2,0:0:0:0:
342,174,46929,2,0,B|325:134|325:134|273:86,1,112.500004291535,2|0,0:0|0:0,0:0:0:0:
207,221,47379,2,0,L|328:213,1,112.500004291535,2|0,0:0|0:0,0:0:0:0:
252,114,47829,1,2,0:0:0:0:
252,114,47979,1,2,0:0:0:0:
252,114,48129,6,0,P|324:51|369:187,1,281.250010728836,2|0,0:0|0:0,0:0:0:0:
269,287,49029,1,2,0:0:0:0:
269,287,49179,2,0,P|280:228|200:162,1,168.750006437302,2|0,0:0|0:0,0:0:0:0:
160,252,49929,1,2,0:0:0:0:
152,291,50529,5,2,0:0:0:0:
388,250,51279,5,2,0:0:0:0:
276,257,51429,1,2,0:0:0:0:
160,264,51579,1,2,0:0:0:0:
236,262,51729,6,0,P|301:258|348:228,1,112.500004291535,2|0,0:0|0:0,0:0:0:0:
261,108,52179,2,0,P|241:152|256:219,1,112.500004291535,2|0,0:0|0:0,0:0:0:0:
261,108,52629,1,2,0:0:0:0:
376,226,52779,2,0,P|281:188|291:328,1,281.250010728836,2|0,0:0|0:0,0:0:0:0:
354,249,53679,1,2,0:0:0:0:
383,152,53829,1,2,0:0:0:0:
268,135,53979,2,0,B|232:157|238:202|238:202|202:185|164:211|164:211|141:178|150:216|127:239|147:260|147:260|202:262|202:262|180:295|194:335,1,371.250011329651,2|0,0:0|0:0,0:0:0:0:
184,275,56079,5,2,0:0:0:0:
164,191,56229,1,2,0:0:0:0:
245,213,56379,1,2,0:0:0:0:
245,213,56529,2,0,P|283:250|276:202,1,112.500004291535,2|0,0:0|0:0,0:0:0:0:
313,174,56979,1,2,0:0:0:0:
154,173,57279,2,0,P|178:134|257:116,1,112.500004291535,2|0,0:0|0:0,0:0:0:0:
314,309,57729,6,0,L|151:367,1,168.750006437302,2|0,0:0|0:0,0:0:0:0:
185,215,58329,2,0,P|197:155|176:34,1,168.750006437302,2|0,0:0|0:0,0:0:0:0:
89,163,58929,2,0,P|140:153|175:134,1,63.7500012159348,2|0,0:0|0:0,0:0:0:0:
292,25,59229,2,0,P|301:70|297:116,1,63.7500012159348,2|0,0:0|0:0,0:0:0:0:
208,242,59529,2,0,P|202:287|204:327,1,63.7500012159348,2|0,0:0|0:0,0:0:0:0:
376,213,59829,2,0,L|309:162,1,63.7500012159348,2|0,0:0|0:0,0:0:0:0:
151,174,60129,6,0,B|126:239|126:239|143:326,2,150,12|0|2,0:0|0:0|0:0,0:0:0:0:
266,151,60879,1,0,3:0:0:0:
266,151,61029,1,0,0:0:0:0:
256,288,61179,2,0,P|209:296|165:294,1,75,0|8,3:0|0:0,0:0:0:0:
365,246,61479,1,0,3:0:0:0:
365,246,61629,1,0,0:0:0:0:
200,148,61779,2,0,P|246:119|277:113,1,75,0|2,3:0|0:0,0:0:0:0:
226,273,62079,2,0,P|173:254|143:235,1,75,0|0,3:0|0:0,0:0:0:0:
156,87,62379,1,0,0:0:0:0:
131,222,62529,6,0,B|206:198|206:198|291:200,2,150,12|0|2,0:0|0:0|0:0,0:0:0:0:
119,107,63279,1,0,0:0:0:0:
119,107,63429,1,0,0:0:0:0:
284,133,63579,2,0,P|383:132|445:169,1,150,6|0,0:0|0:0,0:0:0:0:
367,266,64029,1,0,0:0:0:0:
367,266,64179,2,0,P|324:209|312:126,1,150
425,191,64629,2,0,L|333:209,1,75
158,100,64929,6,0,P|222:99|310:166,1,150,14|0,0:0|0:0,0:0:0:0:
231,276,65379,2,0,P|209:213|222:175,1,75,0|0,3:0|0:0,0:0:0:0:
172,124,65679,5,0,3:0:0:0:
231,244,65829,1,0,0:0:0:0:
289,110,65979,2,0,P|333:117|381:162,1,82.5000025177003,0|10,3:0|0:0,0:0:0:0:
328,227,66279,5,0,3:0:0:0:
243,357,66429,1,0,0:0:0:0:
191,235,66579,2,0,P|129:227|92:209,1,82.5000025177003,0|0,3:0|0:0,0:0:0:0:
280,102,66879,2,0,P|294:157|263:260,1,165.000005035401,0|0,3:0|0:0,0:0:0:0:
194,55,67329,5,6,0:0:0:0:
233,175,67479,1,0,0:0:0:0:
78,124,67629,1,0,0:0:0:0:
186,106,67779,1,0,0:0:0:0:
139,308,67929,1,0,0:0:0:0:
43,224,68079,1,0,0:0:0:0:
169,187,68229,1,0,0:0:0:0:
131,92,68379,1,0,0:0:0:0:
139,308,68529,6,0,P|191:282|219:234,1,82.5000025177003,8|0,0:0|0:0,0:0:0:0:
53,57,68829,2,0,P|31:99|26:157,1,82.5000025177003
241,209,69129,1,0,0:0:0:0:
123,263,69279,1,0,0:0:0:0:
236,96,69429,2,0,B|292:72|339:75,1,82.5000025177003
325,200,69729,5,12,0:0:0:0:
325,200,69879,1,0,3:0:0:0:
196,253,70029,1,8,0:0:0:0:
196,253,70179,1,0,3:0:0:0:
203,114,70329,1,10,0:0:0:0:
203,114,70479,1,0,3:0:0:0:
329,333,70629,1,8,0:0:0:0:
325,200,70779,1,0,3:0:0:0:
195,287,70929,5,8,0:0:0:0:
195,287,71079,1,0,3:0:0:0:
125,132,71229,1,8,0:0:0:0:
125,132,71379,1,0,3:0:0:0:
286,44,71529,1,10,0:0:0:0:
286,44,71679,1,8,0:0:0:0:
249,188,71979,5,0,0:0:0:0:
383,155,72129,2,0,P|358:94|324:68,1,82.5000025177003,12|8,0:0|3:0,0:0:0:0:
262,190,72429,2,0,P|280:239|323:269,1,82.5000025177003,8|8,0:0|3:0,0:0:0:0:
417,147,72729,2,0,P|382:93|341:72,1,82.5000025177003,10|8,0:0|3:0,0:0:0:0:
226,202,73029,2,0,P|255:260|290:286,1,82.5000025177003,8|8,0:0|3:0,0:0:0:0:
436,143,73329,5,8,0:0:0:0:
197,210,73479,1,0,3:2:0:0:
436,143,73629,1,8,0:0:0:0:
279,89,73779,5,0,3:0:0:0:
279,89,73854,1,0,3:0:0:0:
279,89,73929,1,0,3:0:0:0:
375,251,74079,1,0,0:0:0:0:
376,126,74229,1,0,3:0:0:0:
224,229,74379,1,0,0:0:0:0:
224,229,74529,6,0,P|242:174|241:123,1,82.5000025177003,8|0,0:0|3:0,0:0:0:0:
203,348,74829,2,0,P|185:303|196:245,1,82.5000025177003,8|0,0:0|3:0,0:0:0:0:
262,88,75129,1,8,0:0:0:0:
288,231,75279,1,0,3:0:0:0:
136,149,75429,1,8,0:0:0:0:
136,149,75579,1,0,3:0:0:0:
276,276,75729,5,8,0:0:0:0:
296,280,75804,1,8,0:0:0:0:
316,283,75879,1,8,0:0:0:0:
336,286,75954,1,8,0:0:0:0:
356,289,76029,1,8,0:0:0:0:
403,149,76179,1,12,0:0:0:0:
263,256,76329,5,8,0:0:0:0:
253,237,76404,1,8,0:0:0:0:
242,218,76479,1,8,0:0:0:0:
232,199,76554,1,8,0:0:0:0:
221,180,76629,1,8,0:0:0:0:
303,66,76779,1,4,0:0:0:0:
343,216,76929,5,8,0:0:0:0:
324,238,77004,1,8,0:0:0:0:
308,262,77079,1,8,0:0:0:0:
283,276,77154,1,8,0:0:0:0:
254,281,77229,1,8,0:0:0:0:
225,276,77304,1,8,0:0:0:0:
208,252,77379,1,8,0:0:0:0:
205,223,77454,1,8,0:0:0:0:
193,196,77529,5,8,0:0:0:0:
168,181,77604,1,8,0:0:0:0:
139,174,77679,1,8,0:0:0:0:
111,163,77754,1,8,0:0:0:0:
100,136,77829,1,8,0:0:0:0:
106,107,77904,1,8,0:0:0:0:
126,86,77979,1,8,0:0:0:0:
152,75,78054,1,8,0:0:0:0:
180,72,78129,1,8,0:0:0:0:
281,203,79329,6,0,P|212:191|147:206,1,104.999996795654,4|0,0:1|0:0,0:0:0:0:
281,203,79629,2,0,P|216:195|151:210,1,104.999996795654,8|0,0:0|0:0,0:0:0:0:
79,151,79929,1,0,0:0:0:0:
79,151,80079,1,0,0:0:0:0:
197,235,80229,6,0,P|272:219|341:244,1,104.999996795654,8|0,0:0|0:0,0:0:0:0:
197,235,80529,2,0,P|276:223|345:248,1,104.999996795654,8|0,0:0|0:0,0:0:0:0:
387,150,80829,1,0,0:0:0:0:
387,150,80979,1,0,0:0:0:0:
230,293,81129,5,0,0:0:0:0:
175,132,81279,1,0,0:0:0:0:
339,227,81429,2,0,L|425:308,1,104.999996795654,8|0,0:0|0:0,0:0:0:0:
327,89,81729,5,10,0:0:0:0:
364,167,81879,1,0,0:0:0:0:
259,163,82029,1,0,0:0:0:0:
364,167,82179,1,0,0:0:0:0:
198,302,82329,6,0,P|156:260|145:206,1,104.999996795654,10|0,0:0|0:0,0:0:0:0:
353,54,82629,2,0,P|334:131|289:181,1,104.999996795654,0|0,0:0|3:0,0:0:0:0:
145,177,82854,1,0,3:0:0:0:
145,177,82929,1,10,0:0:0:0:
199,95,83079,1,0,0:0:0:0:
257,286,83229,1,0,0:0:0:0:
262,181,83379,1,0,0:0:0:0:
157,257,83529,2,0,P|114:288|77:364,2,104.999996795654,8|2|10,0:0|0:0|0:0,0:0:0:0:
296,280,83979,1,0,0:0:0:0:
296,280,84129,6,0,P|356:266|384:210,1,104.999996795654,4|0,0:1|0:0,0:0:0:0:
254,112,84429,2,0,P|206:156|223:227,1,104.999996795654,8|0,0:0|0:0,0:0:0:0:
382,288,84729,2,0,P|378:234|337:187,1,104.999996795654
190,68,85029,1,8,0:0:0:0:
231,213,85179,1,0,0:0:0:0:
309,84,85329,2,0,P|361:51|421:32,1,104.999996795654
151,193,85629,2,0,P|131:269|206:293,1,165.000005035401,8|0,0:0|0:0,0:0:0:0:
344,167,86079,5,0,0:0:0:0:
344,167,86229,1,8,0:0:0:0:
223,137,86379,1,0,0:0:0:0:
319,328,86529,2,0,P|312:263|283:212,1,104.999996795654,2|0,0:0|0:0,0:0:0:0:
159,116,86829,2,0,L|44:117,1,104.999996795654,8|0,0:0|0:0,0:0:0:0:
294,22,87129,6,0,P|307:93|285:162,1,104.999996795654,2|2,0:0|0:0,0:0:0:0:
196,260,87429,2,0,P|183:182|203:121,1,104.999996795654,8|0,0:0|0:0,0:0:0:0:
388,214,87729,1,2,0:0:0:0:
306,114,87879,5,8,0:0:0:0:
306,114,88029,1,8,0:0:0:0:
363,308,88179,1,0,0:0:0:0:
232,297,88329,5,2,3:2:0:0:
211,280,88404,1,0,3:0:0:0:
186,270,88479,1,0,3:0:0:0:
161,260,88554,1,0,3:0:0:0:
137,248,88629,1,0,3:0:0:0:
140,114,88779,1,0,0:0:0:0:
267,241,88929,6,0,P|253:178|261:130,1,104.999996795654,10|2,0:0|0:0,0:0:0:0:
377,37,89229,1,0,0:0:0:0:
409,259,89379,1,0,0:0:0:0:
299,145,89529,1,8,0:0:0:0:
262,145,89604,1,8,0:0:0:0:
228,160,89679,1,8,0:0:0:0:
200,184,89754,1,8,0:0:0:0:
182,216,89829,1,8,0:0:0:0:
340,276,89979,1,0,0:0:0:0:
360,35,90129,6,0,P|364:107|349:157,1,104.999996795654,10|2,0:0|0:0,0:0:0:0:
195,345,90429,1,0,0:0:0:0:
187,190,90579,1,0,0:0:0:0:
329,298,90729,1,8,0:0:0:0:
363,310,90804,1,8,0:0:0:0:
399,314,90879,1,8,0:0:0:0:
435,310,90954,1,8,0:0:0:0:
470,301,91029,1,8,0:0:0:0:
366,208,91179,1,0,0:0:0:0:
123,175,91329,6,0,P|134:95|127:57,1,104.999996795654,10|2,0:0|0:0,0:0:0:0:
11,313,91629,2,0,P|78:328|160:314,1,104.999996795654
279,206,91929,1,8,0:0:0:0:
299,175,92004,1,8,0:0:0:0:
313,141,92079,1,8,0:0:0:0:
320,105,92154,1,8,0:0:0:0:
317,68,92229,1,8,0:0:0:0:
154,147,92379,1,0,0:0:0:0:
285,318,92529,6,0,P|351:301|390:252,1,104.999996795654,10|2,0:0|0:0,0:0:0:0:
254,49,92829,2,0,L|272:192,1,104.999996795654
85,211,93129,1,8,0:0:0:0:
61,182,93204,1,8,0:0:0:0:
44,148,93279,5,8,0:0:0:0:
258,215,93429,1,8,0:0:0:0:
196,65,93579,1,8,0:0:0:0:
362,128,93729,5,4,1:0:0:0:
267,237,93879,1,0,0:0:0:0:
304,62,94029,1,8,1:0:0:0:
363,290,94179,1,0,0:0:0:0:
322,176,94329,5,0,1:0:0:0:
434,310,94479,1,0,0:0:0:0:
378,113,94629,1,8,1:0:0:0:
245,73,94779,1,0,0:0:0:0:
346,206,94929,5,4,1:0:0:0:
314,51,95079,1,0,0:0:0:0:
286,297,95229,1,8,1:0:0:0:
202,167,95379,1,0,0:0:0:0:
345,149,95529,5,0,1:0:0:0:
121,115,95679,1,0,0:0:0:0:
231,68,95829,1,8,1:0:0:0:
159,277,95979,1,0,0:0:0:0:
269,176,96129,5,8,0:0:0:0:
243,142,96204,1,8,0:0:0:0:
205,123,96279,1,8,0:0:0:0:
169,101,96354,1,8,0:0:0:0:
141,68,96429,1,8,0:0:0:0:
338,37,96579,1,2,0:0:0:0:
206,143,96729,5,8,0:0:0:0:
182,177,96804,1,8,0:0:0:0:
165,215,96879,1,8,0:0:0:0:
150,254,96954,1,8,0:0:0:0:
125,288,97029,1,8,0:0:0:0:
144,108,97179,2,0,P|193:100|289:144,1,120,0|4,0:0|0:1,0:0:0:0:
313,304,97479,2,0,P|272:235|270:181,1,120,2|2,0:0|0:0,0:0:0:0:
376,77,97779,1,2,0:0:0:0:
348,208,98079,5,2,0:0:0:0:
189,288,98229,1,2,0:0:0:0:
204,167,98379,1,2,0:0:0:0:
256,192,98454,12,0,100929,0:0:0:0:
