osu file format v14

[General]
AudioFilename: audio.mp3
AudioLeadIn: 0
PreviewTime: 57553
Countdown: 0
SampleSet: Soft
StackLeniency: 0.9
Mode: 0
LetterboxInBreaks: 0
WidescreenStoryboard: 1

[Editor]
DistanceSpacing: 0.2
BeatDivisor: 3
GridSize: 4
TimelineZoom: 1.4

[Metadata]
Title:No.1 (TV Size)
TitleUnicode:No.1 (TV Size)
Artist:DISH//
ArtistUnicode:DISH//
Creator:Stack
Version:Yudragen's Expert
Source:僕のヒーローアカデミア
Tags:Soue Yudragen Chaoticred gottagof4st Armin A_r_M_i_N Addy2607 Fall _tranquility op opening my hero academia bnha season 5 boku no japanese anime
BeatmapID:2915859
BeatmapSetID:1414639

[Difficulty]
HPDrainRate:5.5
CircleSize:4.3
OverallDifficulty:8
ApproachRate:8.7
SliderMultiplier:1.95
SliderTickRate:1

[Events]
//Background and Video events
Video,107,"bnh720.mp4"
0,0,"yudragenBg.jpg",0,0
//Break Periods
//Storyboard Layer 0 (Background)
//Storyboard Layer 1 (Fail)
//Storyboard Layer 2 (Pass)
//Storyboard Layer 3 (Foreground)
//Storyboard Layer 4 (Overlay)
//Storyboard Sound Samples

[TimingPoints]
183,331.491712707182,4,2,1,40,1,0
183,-142.857142857143,4,2,1,40,0,0
5486,-111.111111111111,4,2,1,60,0,0
10790,-86.9565217391304,4,2,1,85,0,0
16094,-125,4,2,1,55,0,0
26702,-111.111111111111,4,2,1,70,0,0
36978,-83.3333333333333,4,2,1,70,0,0
37310,-100,4,2,1,75,0,0
50569,-90.9090909090909,4,2,1,80,0,0
50901,-83.3333333333333,4,2,1,80,0,0
51232,-76.9230769230769,4,2,1,80,0,0
51564,-100,4,2,1,80,0,0
53221,-90.9090909090909,4,2,1,85,0,0
58525,-80,4,2,1,90,0,0
69133,-90.9090909090909,4,2,1,75,0,0
74437,-80,4,2,1,90,0,0
77089,-51.2820512820513,4,2,1,100,0,0
79741,-83.3333333333333,4,2,1,90,0,0
85044,-80,4,2,1,95,0,0
87696,-100,4,2,1,60,0,0

[Colours]
Combo1 : 114,157,231
Combo2 : 242,153,111
Combo3 : 118,182,245
Combo4 : 204,60,60
Combo5 : 245,204,78

[HitObjects]
158,153,183,6,0,P|89:125|49:120,2,90.9999972229005,2|2|2,0:0|0:0|0:0,0:0:0:0:
101,237,845,2,0,P|132:303|146:363,2,90.9999972229005,2|2|2,0:0|0:0|0:0,0:0:0:0:
203,238,1508,5,2,0:0:0:0:
283,271,1729,1,2,0:0:0:0:
333,340,1950,1,2,0:0:0:0:
382,268,2171,5,2,0:0:0:0:
462,235,2392,1,2,0:0:0:0:
512,166,2613,1,2,0:0:0:0:
440,116,2834,6,0,P|396:106|311:161,2,136.499995834351,2|2|2,1:2|0:0|0:0,0:0:0:0:
446,126,3829,2,0,B|388:134|349:79|357:77|365:75|333:22|266:24,1,204.749993751526,2|0,0:0|0:0,0:0:0:0:
205,69,4492,2,0,P|194:114|178:190,1,102.374996875763,2|0,0:0|0:0,0:0:0:0:
182,168,4823,2,0,P|172:135|67:133,1,136.499995834351,2|4,0:0|1:0,0:0:0:0:
81,125,5486,6,0,P|45:147|36:209,1,87.7499973220826,0|4,1:0|0:3,0:0:0:0:
111,248,5818,2,0,P|113:289|161:328,1,87.7499973220826,0|4,1:0|0:3,0:0:0:0:
232,283,6149,2,0,P|269:302|327:279,1,87.7499973220826,0|4,1:0|0:3,0:0:0:0:
322,195,6481,2,0,P|357:172|366:110,1,87.7499973220826,0|4,1:0|0:3,0:0:0:0:
208,27,6812,5,2,1:2:0:0:
177,100,6978,1,4,0:3:0:0:
255,91,7144,1,2,1:2:0:0:
210,17,7310,1,4,0:3:0:0:
265,98,7475,1,2,1:2:0:0:
169,106,7641,1,4,0:3:0:0:
275,106,7807,1,2,1:2:0:0:
214,0,7973,1,4,0:3:0:0:
160,114,8138,6,0,P|151:178|141:229,1,87.7499973220826,0|4,1:0|0:3,0:0:0:0:
61,164,8470,1,0,1:0:0:0:
198,276,8636,1,4,0:3:0:0:
51,334,8801,5,0,1:0:0:0:
161,195,8967,1,0,1:0:0:0:
313,315,9133,1,0,1:0:0:0:
151,307,9299,6,0,L|197:288,2,43.8749986610413,4|0|2,1:2|0:0|0:0,0:0:0:0:
338,86,10790,6,0,P|321:148|319:174,1,56.0625010693074,6|0,1:0|0:0,0:0:0:0:
223,226,10956,2,0,P|231:185|225:147,1,56.0625010693074,2|0,1:0|0:0,0:0:0:0:
182,61,11122,5,0,1:0:0:0:
182,61,11205,1,0,1:0:0:0:
182,61,11287,2,0,P|224:84|254:91,1,56.0625010693074,2|0,1:0|0:0,0:0:0:0:
360,251,11453,1,2,1:0:0:0:
393,249,11535,1,0,1:0:0:0:
422,234,11618,1,0,1:0:0:0:
442,207,11701,1,0,1:0:0:0:
447,174,11785,2,0,P|436:124|434:99,1,56.0625010693074,2|0,1:0|0:0,0:0:0:0:
280,39,11950,5,2,1:0:0:0:
255,61,12033,1,0,1:0:0:0:
242,92,12116,1,0,1:0:0:0:
245,125,12199,1,0,1:0:0:0:
264,152,12282,2,0,P|294:138|323:127,1,56.0625010693074,2|0,1:0|0:0,0:0:0:0:
419,17,12448,2,0,P|374:2|336:-11,3,56.0625010693074,2|0|0|0,1:0|1:0|1:0|1:0,0:0:0:0:
510,82,12779,1,2,1:0:0:0:
390,212,12945,5,2,1:0:0:0:
364,233,13027,1,0,1:0:0:0:
347,262,13110,1,0,1:0:0:0:
342,295,13193,1,0,1:0:0:0:
350,327,13276,2,0,P|362:360|365:401,1,56.0625010693074,2|0,1:0|0:0,0:0:0:0:
437,296,13442,6,0,P|465:280|490:274,1,56.0625010693074,6|0,1:0|0:0,0:0:0:0:
250,242,13608,1,0,1:0:0:0:
250,242,13691,1,0,1:0:0:0:
250,242,13774,2,0,P|223:234|199:220,1,56.0625010693074,0|0,1:0|1:0,0:0:0:0:
322,110,13939,6,0,P|307:160|302:193,1,56.0625010693074,2|0,1:0|0:0,0:0:0:0:
129,278,14105,1,2,1:0:0:0:
98,264,14187,1,0,1:0:0:0:
76,239,14270,1,0,1:0:0:0:
68,207,14353,1,0,1:0:0:0:
76,174,14437,2,0,P|91:124|96:91,1,56.0625010693074,2|0,1:0|0:0,0:0:0:0:
225,0,14602,5,2,1:0:0:0:
218,32,14684,1,0,1:0:0:0:
211,65,14767,1,0,1:0:0:0:
204,98,14850,1,0,1:0:0:0:
196,131,14933,1,2,1:0:0:0:
377,240,15100,1,2,1:0:0:0:
407,226,15182,1,0,1:0:0:0:
432,204,15265,1,0,1:0:0:0:
450,175,15348,1,0,1:0:0:0:
458,143,15431,1,2,1:0:0:0:
456,110,15514,1,0,1:0:0:0:
444,78,15597,2,0,P|391:62|353:42,1,56.0625010693074,2|0,1:0|0:0,0:0:0:0:
285,167,15763,1,0,1:0:0:0:
285,167,15845,1,0,1:0:0:0:
285,167,15928,2,0,P|338:151|376:131,1,56.0625010693074,2|2,1:2|1:3,0:0:0:0:
505,220,16094,6,0,B|453:203|397:265|409:271|424:276|377:341|297:322,1,234,6|2,1:2|0:0,0:0:0:0:
238,371,16757,2,0,P|171:337|80:329,1,156,0|2,1:0|1:2,0:0:0:0:
166,210,17420,6,0,P|145:134|128:58,2,156,0|2|0,1:0|1:2|1:0,0:0:0:0:
314,165,18249,2,0,P|280:152|228:127,2,78,2|0|2,0:0|1:0|0:0,0:0:0:0:
484,53,18746,6,0,P|452:75|463:187,1,156,2|2,1:2|1:2,0:0:0:0:
512,346,19409,2,0,P|471:371|422:390,1,78,2|0,1:2|0:0,0:0:0:0:
369,345,19741,2,0,P|302:337|194:335,1,156,2|2,1:2|1:2,0:0:0:0:
74,229,20403,6,0,P|94:185|95:148,2,78,0|2|0,1:0|0:0|1:0,0:0:0:0:
8,179,20901,2,0,P|-3:126|1:94,1,78,2|0,0:0|1:0,0:0:0:0:
53,43,21232,1,2,0:0:0:0:
224,131,21398,6,0,P|285:132|386:176,2,156,2|2|0,1:2|1:2|1:0,0:0:0:0:
330,247,22227,2,0,P|293:235|260:216,2,78,2|0|2,0:0|1:0|0:0,0:0:0:0:
210,316,22724,6,0,P|182:257|129:168,1,156,2|2,1:2|1:2,0:0:0:0:
0,16,23387,2,0,P|34:56|61:85,1,78,2|0,1:2|0:0,0:0:0:0:
135,54,23718,2,0,P|194:28|232:22,1,78,2|0,1:2|0:0,0:0:0:0:
307,53,24050,6,0,P|293:109|282:209,1,156,2|0,1:2|1:0,0:0:0:0:
376,197,24547,2,0,B|480:171|424:168|533:139,1,156,2|2,0:2|0:0,0:0:0:0:
313,132,25044,2,0,P|246:134|189:208,1,156,2|2,1:2|1:2,0:0:0:0:
323,352,25707,5,0,1:0:0:0:
323,352,25873,2,0,P|378:333|406:324,1,78,2|0,0:0|1:0,0:0:0:0:
246,317,26205,1,2,0:0:0:0:
246,317,26370,2,0,P|189:301|150:287,1,78,2|0,1:2|0:0,0:0:0:0:
171,294,26619,5,0,1:0:0:0:
171,294,26702,2,0,P|129:263|121:191,1,87.7499973220826,2|0,1:2|0:0,0:0:0:0:
59,162,27033,2,0,P|86:125|217:118,1,175.499994644165,2|0,1:2|1:0,0:0:0:0:
289,96,27531,2,0,P|338:118|362:155,1,87.7499973220826,2|0,0:0|1:0,0:0:0:0:
508,264,27862,5,2,0:0:0:0:
433,244,28028,2,0,P|345:270|318:281,1,87.7499973220826,0|0,1:0|0:0,0:0:0:0:
262,376,28359,2,0,B|293:271|233:332|267:193,1,175.499994644165,2|0,1:2|1:0,0:0:0:0:
330,147,28857,2,0,P|335:90|329:41,1,87.7499973220826,2|0,0:0|1:0,0:0:0:0:
89,52,29188,5,2,0:0:0:0:
159,15,29354,2,0,P|205:34|218:103,1,87.7499973220826,2|0,1:2|0:0,0:0:0:0:
94,172,29685,2,0,P|13:192|-4:307,1,175.499994644165,2|2,1:2|1:2,0:0:0:0:
185,384,30348,2,0,P|172:336|126:313,1,87.7499973220826,2|0,1:2|0:0,0:0:0:0:
212,252,30680,6,0,P|280:281|386:314,2,175.499994644165,2|0|2,1:2|1:0|1:2,0:0:0:0:
277,197,31508,1,2,0:0:0:0:
192,149,31674,1,2,1:2:0:0:
164,69,31840,5,4,0:3:0:0:
177,61,31923,1,4,0:3:0:0:
193,65,32006,2,0,P|142:81|96:103,1,87.7499973220826,2|0,1:2|0:0,0:0:0:0:
25,76,32337,1,0,1:0:0:0:
134,253,32503,1,2,0:0:0:0:
0,311,32669,2,0,P|-1:210|71:197,1,175.499994644165,2|0,1:2|1:0,0:0:0:0:
184,337,33166,5,2,0:0:0:0:
251,285,33332,2,0,P|298:281|413:345,1,175.499994644165,2|0,1:2|1:0,0:0:0:0:
484,194,33995,2,0,P|456:116|451:93,1,87.7499973220826,2|0,1:2|0:0,0:0:0:0:
349,38,34326,2,0,P|319:74|333:128,1,87.7499973220826,2|0,1:2|0:0,0:0:0:0:
178,184,34658,6,0,B|75:160|146:126|5:92,1,175.499994644165,2|0,1:2|1:0,0:0:0:0:
0,187,35155,2,0,P|65:243|94:325,1,175.499994644165,2|2,0:0|0:0,0:0:0:0:
193,373,35652,2,0,P|266:348|267:296,1,131.624995983124,2|0,1:2|0:0,0:0:0:0:
269,302,35984,6,0,P|200:282|149:266,1,87.7499973220826,0|4,1:0|0:3,0:0:0:0:
166,174,36315,1,0,1:0:0:0:
85,333,36481,2,0,P|52:289|75:242,1,87.7499973220826,4|0,0:3|0:0,0:0:0:0:
67,255,36978,6,0,B|116:256|136:262|136:262|157:298|157:298|191:310|226:318,1,175.499994644165,8|0,1:2|0:0,0:0:0:0:
218,316,37310,6,0,P|260:278|236:211,1,97.5,6|0,1:2|0:0,0:0:0:0:
71,152,37641,2,0,P|57:96|169:17,1,195,10|0,1:2|1:0,0:0:0:0:
212,82,38138,1,0,1:0:0:0:
399,44,38304,1,8,1:2:0:0:
317,1,38470,1,2,0:0:0:0:
329,116,38636,6,0,P|348:183|351:230,1,97.5,2|0,1:2|0:0,0:0:0:0:
436,188,38967,2,0,B|370:194|354:228|360:231|367:233|331:276|258:282,1,195,10|0,1:2|1:0,0:0:0:0:
194,226,39464,1,0,1:0:0:0:
94,330,39630,1,8,1:2:0:0:
167,384,39796,1,2,0:0:0:0:
90,237,39962,6,0,P|46:258|0:274,1,97.5,2|0,1:2|0:0,0:0:0:0:
133,141,40293,2,0,P|148:73|164:33,1,97.5,10|0,1:2|0:0,0:0:0:0:
218,219,40624,1,0,1:0:0:0:
218,219,40790,1,0,1:0:0:0:
291,271,40956,2,0,B|407:310|351:321|475:356,2,195,8|2|8,1:2|1:2|1:2,0:0:0:0:
225,324,41785,1,2,0:0:0:0:
80,223,41950,5,2,1:2:0:0:
163,181,42116,1,2,1:2:0:0:
65,338,42282,1,10,1:2:0:0:
0,164,42448,5,0,1:0:0:0:
0,164,42531,1,0,1:0:0:0:
0,164,42613,2,0,P|58:176|74:221,1,97.5,2|0,1:2|0:0,0:0:0:0:
290,173,42945,2,0,P|372:124|348:15,1,195,10|0,1:2|1:0,0:0:0:0:
288,46,43442,1,0,1:0:0:0:
195,196,43608,2,0,P|162:237|196:306,1,97.5,10|0,1:2|0:0,0:0:0:0:
383,351,43939,6,0,P|312:328|256:314,1,97.5,2|0,1:2|0:0,0:0:0:0:
97,175,44271,2,0,P|92:120|96:70,1,97.5,10|2,1:2|0:1,0:0:0:0:
269,6,44602,1,2,1:2:0:0:
269,6,44768,1,0,1:0:0:0:
235,128,44934,2,0,P|213:177|197:291,1,146.25,10|0,1:2|0:0,0:0:0:0:
196,267,45265,6,0,P|228:206|341:252,1,195,0|8,1:0|1:2,0:0:0:0:
324,311,45763,1,2,0:0:0:0:
485,239,45928,1,0,1:0:0:0:
417,168,46094,1,2,1:2:0:0:
507,77,46260,2,0,P|497:19|444:2,1,97.5,8|2,1:2|0:0,0:0:0:0:
466,1,46508,5,0,1:0:0:0:
466,1,46591,1,0,1:0:0:0:
403,55,46757,1,0,1:0:0:0:
212,0,46923,1,8,1:2:0:0:
299,94,47089,1,2,0:0:0:0:
217,169,47254,1,0,1:0:0:0:
217,169,47420,1,0,1:0:0:0:
229,341,47586,2,0,P|238:293|253:247,1,97.5,8|2,1:2|0:0,0:0:0:0:
105,63,47917,6,0,P|53:79|47:141,1,97.5,2|0,1:2|0:0,0:0:0:0:
165,260,48249,2,0,B|280:231|197:180|341:146,1,195,10|0,1:2|1:0,0:0:0:0:
414,185,48746,1,0,1:0:0:0:
512,0,48912,2,0,P|463:5|425:44,1,97.5,8|2,1:2|0:0,0:0:0:0:
428,36,49160,5,0,1:0:0:0:
428,36,49243,2,0,P|365:18|301:5,1,97.5,2|0,1:2|1:0,0:0:0:0:
417,206,49575,1,10,1:2:0:0:
511,87,49741,1,0,1:0:0:0:
311,161,49906,1,8,1:2:0:0:
501,292,50072,1,0,1:0:0:0:
295,358,50238,1,2,1:2:0:0:
373,322,50403,1,4,0:3:0:0:
192,185,50569,6,0,B|139:212|139:212|180:335,1,160.875004909516,6|0,1:2|0:0,0:0:0:0:
229,254,50901,2,0,B|243:187|243:187|220:159|220:159|238:58,1,175.499994644165,6|0,1:2|0:0,0:0:0:0:
170,44,51232,2,0,B|113:12|113:12|195:25,1,126.749994197846,6|0,1:2|0:0,0:0:0:0:
255,8,51481,5,0,1:0:0:0:
255,8,51564,2,0,B|361:3|357:99|350:103|347:111|380:196|490:179,1,292.5,6|0,1:0|0:0,0:0:0:0:
296,360,52227,6,0,P|279:312|278:275,1,48.75,8|0,1:2|0:0,0:0:0:0:
383,269,52392,1,0,1:0:0:0:
383,269,52475,1,0,1:0:0:0:
383,269,52558,2,0,P|366:317|365:354,1,48.75,10|0,1:2|0:0,0:0:0:0:
298,226,52724,1,0,1:2:0:0:
446,352,52890,2,0,P|505:317|497:248,1,146.25,2|0,1:2|0:0,0:0:0:0:
497,248,53221,6,0,P|480:202|478:167,1,53.6250016365052,4|0,1:0|0:0,0:0:0:0:
324,23,53387,1,0,1:0:0:0:
276,24,53469,1,0,1:0:0:0:
236,50,53552,1,0,1:0:0:0:
216,93,53635,1,0,1:0:0:0:
222,140,53718,2,0,P|271:118|291:114,1,53.6250016365052,2|0,1:2|0:0,0:0:0:0:
376,201,53884,1,0,1:0:0:0:
375,249,53966,1,0,1:0:0:0:
349,289,54049,1,0,1:0:0:0:
306,309,54132,1,0,1:0:0:0:
259,303,54216,2,0,P|281:254|285:234,1,53.6250016365052,2|0,1:2|0:0,0:0:0:0:
104,175,54381,5,0,1:0:0:0:
52,180,54463,1,0,1:0:0:0:
26,219,54547,2,0,P|48:281|49:304,1,53.6250016365052,4|0,1:2|0:0,0:0:0:0:
206,371,54713,1,0,1:0:0:0:
154,366,54795,1,0,1:0:0:0:
128,327,54879,2,0,P|150:265|151:242,1,53.6250016365052,0|0,0:0|1:0,0:0:0:0:
271,155,55044,2,0,P|245:161|221:174,1,53.6250016365052,2|0,1:2|0:0,0:0:0:0:
0,77,55210,1,0,1:0:0:0:
0,129,55292,1,0,1:0:0:0:
25,174,55375,1,0,1:0:0:0:
74,195,55458,1,0,1:0:0:0:
126,185,55542,2,0,P|136:146|145:115,1,53.6250016365052,2|0,1:2|0:0,0:0:0:0:
225,17,55707,2,0,P|232:42|238:68,1,53.6250016365052,2|0,1:2|1:0,0:0:0:0:
392,210,55873,5,4,1:2:0:0:
480,72,56039,1,0,1:0:0:0:
432,50,56121,1,0,1:0:0:0:
379,52,56204,1,0,1:0:0:0:
332,78,56287,1,0,1:0:0:0:
302,122,56370,1,0,1:0:0:0:
295,174,56453,1,0,1:0:0:0:
290,230,56536,1,0,1:0:0:0:
260,274,56619,1,0,1:0:0:0:
214,300,56702,1,0,1:0:0:0:
161,302,56785,1,0,1:0:0:0:
112,280,56868,2,0,P|123:246|131:208,1,53.6250016365052,2|0,1:2|1:0,0:0:0:0:
202,87,57033,2,0,P|208:113|216:138,1,53.6250016365052,0|0,1:0|1:0,0:0:0:0:
379,262,57199,5,2,1:2:0:0:
54,131,57365,1,4,1:2:0:0:
221,120,58525,6,0,B|270:117|312:151|306:154|297:160|330:197|407:202,1,182.8125,6|0,1:2|0:0,0:0:0:0:
379,198,58857,2,0,P|332:214|297:226,1,60.9375,8|0,1:2|0:0,0:0:0:0:
222,321,59022,1,2,1:2:0:0:
231,326,59105,1,0,1:0:0:0:
243,327,59188,1,0,1:0:0:0:
210,232,59354,1,2,1:2:0:0:
48,374,59520,1,8,1:2:0:0:
115,269,59685,6,0,P|109:213|38:185,1,121.875,2|0,1:2|0:0,0:0:0:0:
21,261,60017,1,2,1:2:0:0:
167,100,60182,2,0,B|217:86|217:86|283:140|283:140|342:128,1,182.8125,8|0,1:2|0:0,0:0:0:0:
327,130,60514,1,2,1:2:0:0:
246,267,60680,2,0,L|222:209,1,60.9375,2|0,0:0|0:0,0:0:0:0:
310,44,60845,1,8,1:2:0:0:
162,114,61011,1,2,1:2:0:0:
351,243,61177,6,0,B|480:200|480:200|432:238,1,182.8125,2|0,1:2|0:0,0:0:0:0:
443,229,61508,2,0,L|429:295,1,60.9375,10|0,1:2|0:0,0:0:0:0:
321,359,61674,1,2,1:2:0:0:
323,346,61757,1,0,1:0:0:0:
332,337,61840,1,0,1:0:0:0:
423,382,62006,1,2,1:2:0:0:
282,154,62171,5,10,1:2:0:0:
207,245,62337,2,0,B|70:291|154:336|-13:378,1,243.75,2|0,1:2|1:0,0:0:0:0:
15,127,62834,2,0,P|44:119|90:216,1,121.875,8|2,1:2|0:0,0:0:0:0:
26,232,63166,1,2,1:2:0:0:
211,104,63332,1,2,1:2:0:0:
55,34,63497,2,0,P|76:63|85:102,1,60.9375,10|0,1:2|0:0,0:0:0:0:
212,259,63663,2,0,P|233:230|242:191,1,60.9375,2|0,1:2|0:0,0:0:0:0:
206,19,63829,6,0,P|289:117|383:75,1,243.75,4|10,1:2|1:2,0:0:0:0:
479,200,64326,2,0,P|524:237|512:294,1,121.875,2|0,0:0|1:0,0:0:0:0:
216,372,64658,2,0,B|312:347|267:303|373:273,1,182.8125,2|0,1:2|0:0,0:0:0:0:
366,274,64989,5,2,1:2:0:0:
323,205,65155,1,2,0:3:0:0:
155,213,65321,1,2,0:0:0:0:
200,284,65486,1,8,1:2:0:0:
168,83,65652,1,2,1:2:0:0:
157,89,65735,1,0,1:0:0:0:
152,100,65818,1,0,1:0:0:0:
249,135,65984,1,2,1:2:0:0:
39,269,66149,1,8,1:2:0:0:
147,203,66315,5,2,1:2:0:0:
249,231,66481,2,0,B|312:249|312:249|336:302|336:302|442:337,1,182.8125,2|0,1:2|0:0,0:0:0:0:
392,320,66812,2,0,P|435:285|400:228,1,121.875,10|0,1:2|0:0,0:0:0:0:
261,128,67144,1,2,1:2:0:0:
353,49,67310,1,0,1:0:0:0:
509,215,67475,2,0,P|459:220|438:108,1,182.8125,10|0,1:2|0:0,0:0:0:0:
431,113,67807,6,0,P|482:88|528:63,2,60.9375,2|2|0,1:3|0:3|1:0,0:0:0:0:
166,236,68138,2,0,P|152:176|120:52,1,182.8125,8|0,1:2|0:0,0:0:0:0:
121,58,68470,5,8,1:2:0:0:
64,144,68636,1,0,1:0:0:0:
249,202,68801,5,0,1:0:0:0:
305,341,68967,1,0,1:0:0:0:
70,263,69133,6,0,P|30:283|26:395,2,143.000004364014,4|2|2,1:0|0:0|0:0,0:0:0:0:
159,189,69796,2,0,P|119:168|115:57,2,143.000004364014,10|2|2,1:2|0:0|0:0,0:0:0:0:
273,149,70459,5,2,1:2:0:0:
362,200,70680,1,2,0:0:0:0:
391,293,70901,1,2,1:2:0:0:
276,359,71122,5,6,1:2:0:0:
247,266,71343,1,2,0:0:0:0:
158,215,71564,1,2,1:2:0:0:
90,296,71785,6,0,P|34:252|58:155,1,160.875004909516,2|0,1:2|0:0,0:0:0:0:
43,169,72116,2,0,B|140:137|68:132|199:99,1,160.875004909516,2|0,0:0|0:0,0:0:0:0:
187,102,72448,2,0,P|218:68|186:-2,1,107.25000327301,10|0,1:2|0:0,0:0:0:0:
0,71,72779,6,0,P|49:141|81:372,1,321.750009819031,6|0,1:2|1:0,0:0:0:0:
183,306,73442,2,0,P|217:272|290:252,1,107.25000327301,2|0,0:2|1:0,0:0:0:0:
413,207,73774,5,10,1:2:0:0:
291,356,73939,1,0,1:0:0:0:
160,182,74105,2,0,P|198:164|228:144,1,53.6250016365052,2|2,1:2|0:3,0:0:0:0:
351,32,74271,5,2,1:3:0:0:
351,32,74354,1,2,0:3:0:0:
351,32,74437,2,0,P|332:96|322:165,1,121.875,4|0,1:0|1:0,0:0:0:0:
453,78,74768,1,8,1:2:0:0:
340,265,74934,2,0,P|223:263|168:128,1,243.75,0|2,1:0|1:2,0:0:0:0:
0,246,75431,2,0,P|21:300|77:315,1,121.875,8|2,1:2|0:0,0:0:0:0:
231,231,75763,5,0,1:0:0:0:
66,131,75928,1,0,1:0:0:0:
208,32,76094,2,0,P|185:115|170:192,1,121.875,10|0,1:2|1:0,0:0:0:0:
399,172,76426,1,2,1:2:0:0:
302,120,76591,1,0,1:0:0:0:
443,70,76757,1,10,1:2:0:0:
313,244,76923,1,0,1:0:0:0:
512,179,77089,6,0,P|338:209|131:255,3,380.250001450539,12|8|8|8,1:2|1:2|1:2|1:2,0:0:0:0:
25,36,78249,5,2,1:2:0:0:
25,36,78332,1,0,1:0:0:0:
25,36,78415,2,0,B|132:90|86:178|40:194|-7:212|-50:316|85:364,3,380.250001450539,8|8|8|8,1:2|1:2|1:2|1:2,0:0:0:0:
54,349,79492,1,0,1:0:0:0:
61,356,79575,2,0,P|104:329|162:311,1,95.0625003626347,2|0,1:2|1:0,0:0:0:0:
351,183,79741,5,6,1:2:0:0:
278,152,79906,1,2,0:0:0:0:
326,267,80072,1,10,1:2:0:0:
451,167,80238,1,2,0:0:0:0:
323,72,80403,1,2,1:2:0:0:
359,158,80569,1,2,1:2:0:0:
161,177,80735,1,10,1:2:0:0:
203,98,80901,1,2,1:2:0:0:
268,188,81066,5,2,1:2:0:0:
204,264,81232,1,2,0:0:0:0:
64,138,81398,2,0,P|61:100|156:59,1,116.999996429443,10|2,1:2|0:0,0:0:0:0:
326,33,81729,1,2,1:2:0:0:
205,114,81895,1,2,1:2:0:0:
402,255,82061,2,0,P|436:228|512:209,1,116.999996429443,8|2,1:2|0:0,0:0:0:0:
250,374,82392,5,2,1:2:0:0:
307,309,82558,1,2,0:0:0:0:
189,230,82724,1,10,1:2:0:0:
133,300,82890,1,2,0:0:0:0:
287,216,83055,1,0,1:0:0:0:
144,153,83221,1,2,1:2:0:0:
155,155,83304,1,0,1:0:0:0:
170,156,83387,2,0,B|285:128|210:93|340:56,1,175.499994644165,10|0,1:2|0:0,0:0:0:0:
314,64,83718,6,0,P|374:100|343:170,1,116.999996429443,2|0,1:2|1:0,0:0:0:0:
190,342,84050,2,0,P|185:270|307:244,1,175.499994644165,10|0,1:2|0:0,0:0:0:0:
266,225,84381,2,0,L|287:301,1,58.4999982147217,0|0,1:0|0:0,0:0:0:0:
336,343,84547,1,2,1:2:0:0:
356,143,84713,1,10,1:2:0:0:
164,238,84879,1,2,0:1:0:0:
435,266,85044,6,0,P|371:238|347:224,1,60.9375,6|0,1:0|0:0,0:0:0:0:
239,70,85210,1,0,1:0:0:0:
239,70,85293,1,0,1:0:0:0:
239,70,85376,2,0,P|263:133|264:158,1,60.9375,2|0,1:0|1:0,0:0:0:0:
142,246,85542,2,0,P|166:183|167:158,1,60.9375,2|0,1:0|0:0,0:0:0:0:
113,13,85707,1,0,1:0:0:0:
59,12,85789,1,0,1:0:0:0:
16,43,85872,1,2,1:0:0:0:
3,95,85955,1,0,1:0:0:0:
22,144,86039,2,0,P|62:127|83:119,1,60.9375,2|0,1:0|0:0,0:0:0:0:
264,245,86205,5,0,1:0:0:0:
264,245,86287,1,0,1:0:0:0:
264,245,86370,2,0,P|309:263|333:272,1,60.9375,2|0,1:0|1:0,0:0:0:0:
459,186,86536,2,0,P|420:215|401:232,1,60.9375,2|0,1:0|0:0,0:0:0:0:
414,377,86702,1,0,1:0:0:0:
414,377,86785,1,0,1:0:0:0:
414,377,86868,2,0,P|407:329|402:303,1,60.9375,2|0,1:0|1:0,0:0:0:0:
342,108,87033,6,0,P|330:155|315:196,1,60.9375,2|0,1:0|0:0,0:0:0:0:
199,311,87199,1,0,1:0:0:0:
144,306,87281,1,0,1:0:0:0:
99,275,87364,1,2,1:0:0:0:
75,227,87447,1,0,1:0:0:0:
76,173,87530,1,2,1:0:0:0:
104,126,87613,1,0,1:0:0:0:
141,103,87696,6,0,P|197:130|191:200,1,97.5,6|2,1:2|0:0,0:0:0:0:
177,237,88028,1,2,0:0:0:0:
295,349,88194,2,0,P|351:322|345:252,1,97.5,2|2,0:0|0:0,0:0:0:0:
331,215,88526,1,2,0:0:0:0:
465,319,88691,5,2,0:0:0:0:
498,249,88857,1,2,0:0:0:0:
