osu file format v14

[General]
AudioFilename: audio.mp3
AudioLeadIn: 0
PreviewTime: 57553
Countdown: 0
SampleSet: Soft
StackLeniency: 0.4
Mode: 0
LetterboxInBreaks: 0
WidescreenStoryboard: 1

[Editor]
DistanceSpacing: 1
BeatDivisor: 4
GridSize: 4
TimelineZoom: 2.1

[Metadata]
Title:No.1 (TV Size)
TitleUnicode:No.1 (TV Size)
Artist:DISH//
ArtistUnicode:DISH//
Creator:Stack
Version:Soue's Normal
Source:僕のヒーローアカデミア
Tags:Soue Yudragen Chaoticred gottagof4st Armin A_r_M_i_N Addy2607 Fall _tranquility op opening my hero academia bnha season 5 boku no japanese anime
BeatmapID:2916977
BeatmapSetID:1414639

[Difficulty]
HPDrainRate:3
CircleSize:3
OverallDifficulty:3
ApproachRate:4
SliderMultiplier:1
SliderTickRate:1

[Events]
//Background and Video events
0,0,"Konachan.com - 303404 sample.jpg",0,0
Video,107,"bnh720.mp4"
//Break Periods
//Storyboard Layer 0 (Background)
//Storyboard Layer 1 (Fail)
//Storyboard Layer 2 (Pass)
//Storyboard Layer 3 (Foreground)
//Storyboard Layer 4 (Overlay)
//Storyboard Sound Samples

[TimingPoints]
183,331.491712707182,4,2,1,40,1,0
183,-99.9999999999999,4,2,1,40,0,0
5155,-99.9999999999999,4,2,1,40,0,0
5486,-99.9999999999999,4,2,1,60,0,0
10790,-99.9999999999999,4,2,1,85,0,0
16094,-99.9999999999999,4,2,1,55,0,0
26702,-99.9999999999999,4,2,1,70,0,0
37310,-99.9999999999999,4,2,1,75,0,0
50569,-99.9999999999999,4,2,1,80,0,0
53221,-99.9999999999999,4,2,1,85,0,0
58525,-99.9999999999999,4,2,1,90,0,0
71785,-99.9999999999999,4,2,1,75,0,0
72448,-99.9999999999999,4,2,1,75,0,0
74437,-99.9999999999999,4,2,1,90,0,0
77089,-99.9999999999999,4,2,1,100,0,0
79741,-99.9999999999999,4,2,1,90,0,0
85044,-99.9999999999999,4,2,1,95,0,0
87696,-99.9999999999999,4,2,1,60,0,0

[Colours]
Combo1 : 197,120,118
Combo2 : 242,153,111
Combo3 : 118,182,245

[HitObjects]
15,47,5155,5,4,1:0:0:0:
59,136,5486,6,0,L|172:154,1,100,0|0,1:0|1:0,0:0:0:0:
232,218,6149,2,0,L|345:200,1,100,0|0,1:0|1:0,0:0:0:0:
429,185,6812,1,2,1:2:0:0:
483,101,7144,1,2,1:2:0:0:
426,18,7475,1,2,1:2:0:0:
328,41,7807,6,0,P|276:57|223:43,2,100,2|0|0,1:2|1:0|1:0,0:0:0:0:
426,18,8801,1,0,1:0:0:0:
483,101,9133,1,0,1:0:0:0:
483,101,9299,2,0,L|475:150,1,50,4|2,1:2|0:0,0:0:0:0:
500,352,10790,6,0,B|454:369|454:369|406:355,1,100,6|0,1:0|1:0,0:0:0:0:
380,310,11287,2,0,B|334:293|334:293|286:307,1,100,2|0,1:0|1:0,0:0:0:0:
247,340,11785,2,0,P|183:362|102:333,2,150,2|2|2,1:0|1:0|1:0,0:0:0:0:
312,263,13111,2,0,L|298:212,1,50,0|2,1:0|1:0,0:0:0:0:
286,166,13442,6,0,P|235:155|184:168,1,100,6|0,1:0|1:0,0:0:0:0:
168,211,13939,2,0,P|117:222|66:209,1,100,2|0,1:0|1:0,0:0:0:0:
45,168,14437,2,0,L|53:9,2,150,2|0|2,1:0|0:0|1:0,0:0:0:0:
4,197,15597,1,2,1:0:0:0:
60,336,16094,6,0,P|110:345|161:333,1,100,6|2,1:2|1:2,0:0:0:0:
247,289,16757,2,0,P|297:280|348:292,1,100,0|2,1:0|1:2,0:0:0:0:
381,324,17254,1,2,0:0:0:0:
381,324,17420,2,0,L|396:223,1,100,0|2,1:0|1:2,0:0:0:0:
468,156,18083,2,0,L|453:55,1,100,0|0,1:0|1:0,0:0:0:0:
446,11,18580,1,2,0:0:0:0:
446,11,18746,5,2,1:2:0:0:
347,31,19078,1,2,1:2:0:0:
315,125,19409,1,2,1:2:0:0:
236,187,19741,1,2,1:2:0:0:
145,144,20072,2,0,P|92:127|42:138,1,100,2|0,1:2|1:0,0:0:0:0:
8,226,20735,2,0,L|26:334,1,100,0|0,1:0|1:0,0:0:0:0:
58,361,21232,1,2,0:0:0:0:
58,361,21398,6,0,B|111:369|111:369|161:349,1,100,2|2,1:2|1:2,0:0:0:0:
213,271,22061,2,0,L|196:172,1,100,0|0,1:0|1:0,0:0:0:0:
189,127,22558,1,2,0:0:0:0:
189,127,22724,1,2,1:2:0:0:
248,46,23055,1,2,1:2:0:0:
333,98,23387,1,2,1:2:0:0:
397,22,23718,1,2,1:2:0:0:
480,77,24050,6,0,P|494:124|484:174,1,100,2|0,1:2|1:0,0:0:0:0:
420,250,24713,2,0,L|313:229,1,100,0|2,1:0|1:2,0:0:0:0:
244,167,25376,2,0,L|137:188,1,100,2|0,1:2|1:0,0:0:0:0:
63,242,26039,2,0,P|54:293|70:340,1,100,0|2,1:0|1:2,0:0:0:0:
110,364,26536,1,0,0:0:0:0:
110,364,26702,5,2,1:2:0:0:
209,374,27033,1,2,1:2:0:0:
290,316,27365,2,0,L|395:333,1,100,0|0,1:0|1:0,0:0:0:0:
437,344,27862,1,2,0:0:0:0:
437,344,28028,1,0,1:0:0:0:
501,267,28359,1,2,1:2:0:0:
436,190,28691,2,0,P|424:137|430:90,1,100,0|0,1:0|1:0,0:0:0:0:
459,51,29188,1,2,0:0:0:0:
459,51,29354,5,2,1:2:0:0:
369,5,29685,1,2,1:2:0:0:
300,77,30017,1,2,1:2:0:0:
211,31,30348,2,0,L|162:23,1,50,2|0,1:2|0:0,0:0:0:0:
111,18,30680,2,0,P|92:74|105:120,1,100,2|0,1:2|1:0,0:0:0:0:
173,181,31343,2,0,L|165:240,2,50,2|2|2,1:2|0:0|1:2,0:0:0:0:
210,147,31840,1,4,0:3:0:0:
210,147,32006,6,0,P|254:138|313:154,1,100,2|0,1:2|1:0,0:0:0:0:
372,226,32669,2,0,L|352:335,1,100,2|0,1:2|1:0,0:0:0:0:
339,370,33166,1,2,0:0:0:0:
339,370,33332,2,0,L|230:350,1,100,2|0,1:2|1:0,0:0:0:0:
172,278,33995,1,2,1:2:0:0:
228,195,34326,2,0,L|226:128,1,50,2|0,1:2|0:0,0:0:0:0:
223,94,34658,6,0,L|118:106,2,100,2|0|0,1:2|1:0|1:0,0:0:0:0:
306,38,35652,1,2,1:2:0:0:
389,93,35984,2,0,P|401:141|390:195,1,100,0|0,1:0|1:0,0:0:0:0:
368,234,36481,1,4,0:3:0:0:
251,328,36978,2,0,L|243:268,1,50,8|0,1:2|0:0,0:0:0:0:
238,228,37310,5,6,1:2:0:0:
173,152,37641,1,10,1:2:0:0:
199,55,37973,2,0,L|266:35,2,50,0|0|8,1:0|1:0|1:2,0:0:0:0:
156,41,38470,1,2,0:0:0:0:
156,41,38636,1,2,1:2:0:0:
61,74,38967,1,10,1:2:0:0:
58,174,39299,2,0,L|-11:191,2,50,0|0|8,1:0|1:0|1:2,0:0:0:0:
100,203,39796,1,2,0:0:0:0:
100,203,39962,5,2,1:2:0:0:
171,272,40293,1,10,1:2:0:0:
126,361,40624,2,0,L|65:356,1,50,0|0,1:0|1:0,0:0:0:0:
26,352,40956,1,8,1:2:0:0:
13,252,41287,2,0,L|-1:135,1,100,2|8,1:2|1:2,0:0:0:0:
82,94,41950,2,0,L|89:35,2,50,2|2|10,1:2|1:2|1:2,0:0:0:0:
107,137,42448,1,0,1:0:0:0:
107,137,42613,5,2,1:2:0:0:
194,185,42945,1,10,1:2:0:0:
264,114,43276,2,0,P|296:106|318:106,1,50,0|0,1:0|1:0,0:0:0:0:
341,146,43608,2,0,P|373:154|395:154,1,50,10|0,1:2|0:0,0:0:0:0:
427,120,43939,1,2,1:2:0:0:
495,192,44271,1,10,1:2:0:0:
434,271,44602,2,0,L|440:330,1,50,2|0,1:2|1:0,0:0:0:0:
409,361,44934,6,0,B|362:375|362:375|305:362,2,100,10|0|8,1:2|1:0|1:2,0:0:0:0:
434,271,45928,2,0,L|499:285,2,50,0|2|8,1:0|1:2|1:2,0:0:0:0:
370,193,46591,2,0,L|305:207,2,50,0|0|8,1:0|1:0|1:2,0:0:0:0:
440,121,47254,2,0,L|505:135,2,50,0|0|8,1:0|1:0|1:2,0:0:0:0:
413,84,47752,1,2,0:0:0:0:
413,84,47917,5,2,1:2:0:0:
321,43,48249,1,10,1:2:0:0:
246,109,48580,2,0,L|177:97,2,50,0|0|8,1:0|1:0|1:2,0:0:0:0:
277,148,49078,1,2,0:0:0:0:
277,148,49243,1,2,1:2:0:0:
318,239,49575,2,0,P|324:268|325:298,1,50,10|0,1:2|1:0,0:0:0:0:
292,326,49906,2,0,P|263:316|237:302,1,50,8|0,1:2|1:0,0:0:0:0:
226,261,50238,1,2,1:2:0:0:
144,203,50569,6,0,B|95:191|95:191|44:210,2,100,6|6|6,1:2|1:2|1:2,0:0:0:0:
226,261,51564,2,0,B|271:278|310:256|294:247|334:225|372:243,1,150,6|0,1:0|0:0,0:0:0:0:
412,265,52227,2,0,P|440:268|464:260,1,50,8|0,1:2|1:0,0:0:0:0:
485,218,52558,1,10,1:2:0:0:
457,121,52890,2,0,L|448:66,1,50,2|0,1:2|0:0,0:0:0:0:
433,24,53221,6,0,P|380:20|331:40,1,100,4|0,1:0|1:0,0:0:0:0:
291,58,53718,2,0,P|238:62|189:42,1,100,2|0,1:2|1:0,0:0:0:0:
150,22,54216,1,2,1:2:0:0:
61,68,54547,2,0,L|80:180,1,100,4|0,1:2|0:0,0:0:0:0:
110,204,55044,2,0,L|91:316,1,100,2|0,1:2|1:0,0:0:0:0:
80,351,55542,1,2,1:2:0:0:
177,373,55873,6,0,P|229:378|278:359,1,100,4|0,1:2|1:0,0:0:0:0:
302,321,56370,2,0,P|354:316|403:335,1,100,0|0,1:0|1:0,0:0:0:0:
429,370,56868,1,2,1:2:0:0:
502,302,57199,2,0,L|493:251,1,50,2|4,1:2|1:2,0:0:0:0:
455,58,58525,6,0,B|408:45|408:45|357:60,1,100,6|8,1:2|1:2,0:0:0:0:
314,82,59022,1,2,1:2:0:0:
235,144,59354,2,0,L|241:200,1,50,2|8,1:2|1:2,0:0:0:0:
248,243,59685,1,2,1:2:0:0:
169,305,60017,1,2,1:2:0:0:
81,257,60348,2,0,L|27:270,2,50,2|2|2,0:0|1:2|0:0,0:0:0:0:
92,208,60845,2,0,P|99:176|98:150,1,50,8|2,1:2|1:2,0:0:0:0:
71,116,61177,6,0,B|119:97|119:97|166:107,1,100,2|10,1:2|1:2,0:0:0:0:
208,134,61674,2,0,B|256:153|256:153|303:143,1,100,2|2,1:2|1:2,0:0:0:0:
341,110,62171,2,0,P|392:95|455:109,1,100,10|0,1:2|0:0,0:0:0:0:
498,181,62834,1,8,1:2:0:0:
450,269,63166,2,0,L|461:326,2,50,2|2|10,1:2|1:2|1:2,0:0:0:0:
410,238,63663,6,0,B|359:228|359:228|308:244,1,100,2|0,1:2|0:0,0:0:0:0:
272,271,64160,1,10,1:2:0:0:
272,271,64326,1,2,0:0:0:0:
193,333,64658,1,2,1:2:0:0:
103,288,64989,1,2,1:2:0:0:
88,188,65321,2,0,L|82:127,1,50,2|8,0:0|1:2,0:0:0:0:
79,88,65652,1,2,1:2:0:0:
168,42,65984,2,0,P|205:33|230:36,1,50,2|8,1:2|1:2,0:0:0:0:
260,56,66315,1,2,1:2:0:0:
260,56,66481,6,0,L|246:172,1,100,2|10,1:2|1:2,0:0:0:0:
302,239,67144,2,0,L|351:244,1,50,2|0,1:2|1:0,0:0:0:0:
401,249,67475,2,0,P|419:192|409:149,2,100,10|2|8,1:2|1:3|1:2,0:0:0:0:
387,348,68470,2,0,P|357:340|333:337,1,50,8|0,1:2|1:0,0:0:0:0:
296,365,68801,2,0,P|268:372|234:373,1,50,0|0,1:0|1:0,0:0:0:0:
211,337,69133,6,0,P|154:319|77:360,1,133.333333333333,4|2,1:0|0:0,0:0:0:0:
16,309,69796,2,0,P|8:338|23:397,2,66.6666666666667,10|0|2,1:2|0:0|0:0,0:0:0:0:
60,242,70459,2,0,P|82:186|56:112,1,133.333333333333,2|2,1:2|0:0,0:0:0:0:
79,39,71122,2,0,P|43:39|8:57,2,66.6666666666667,6|0|2,1:2|0:0|0:0,0:0:0:0:
151,73,71785,6,0,L|263:54,2,100,2|2|10,1:2|0:0|1:2,0:0:0:0:
61,118,72779,2,0,P|43:186|68:266,1,150,6|0,1:2|1:0,0:0:0:0:
99,296,73442,1,2,0:2:0:0:
193,330,73774,2,0,L|247:320,1,50,10|0,1:2|1:0,0:0:0:0:
283,349,74105,2,0,L|337:359,1,50,2|2,1:2|1:3,0:0:0:0:
381,347,74437,6,0,P|389:298|379:246,1,100,4|8,1:0|1:2,0:0:0:0:
320,168,75100,2,0,P|312:119|322:67,1,100,0|8,0:0|1:2,0:0:0:0:
401,10,75763,1,0,1:0:0:0:
484,63,76094,1,10,1:2:0:0:
469,162,76426,2,0,L|476:217,1,50,2|0,1:2|1:0,0:0:0:0:
508,248,76757,2,0,L|501:303,1,50,10|0,1:2|1:0,0:0:0:0:
469,336,77089,6,0,B|419:349|419:349|369:335,1,100,12|8,1:2|1:2,0:0:0:0:
290,279,77752,2,0,B|240:266|240:266|190:280,1,100,8|8,1:2|1:2,0:0:0:0:
150,300,78249,1,2,1:2:0:0:
150,300,78415,1,8,1:2:0:0:
88,220,78746,1,8,1:2:0:0:
142,136,79078,2,0,L|141:74,2,50,8|2|8,1:2|1:2|1:2,0:0:0:0:
181,169,79575,1,2,1:2:0:0:
181,169,79741,6,0,P|231:178|283:163,1,100,6|10,1:2|1:2,0:0:0:0:
346,93,80403,2,0,L|336:43,2,50,2|2|10,1:2|1:2|1:2,0:0:0:0:
386,122,80901,1,2,1:2:0:0:
386,122,81066,2,0,L|408:232,1,100,2|10,1:2|1:2,0:0:0:0:
396,319,81729,2,0,P|427:321|450:317,2,50,2|2|8,1:2|1:2|1:2,0:0:0:0:
352,294,82227,1,2,0:0:0:0:
352,294,82392,6,0,P|305:281|252:291,1,100,2|10,1:2|1:2,0:0:0:0:
163,330,83055,2,0,L|159:280,1,50,0|2,1:0|1:2,0:0:0:0:
154,230,83387,1,10,1:2:0:0:
208,146,83718,1,2,1:2:0:0:
148,65,84050,2,0,P|95:52|44:68,1,100,10|0,1:2|1:0,0:0:0:0:
24,104,84547,2,0,L|39:213,1,100,2|2,1:2|0:1,0:0:0:0:
46,252,85044,6,0,B|99:261|99:261|146:239,1,100,6|2,1:0|1:0,0:0:0:0:
184,216,85542,1,2,1:0:0:0:
306,129,86039,2,0,B|359:120|359:120|406:142,1,100,2|2,1:0|1:0,0:0:0:0:
444,165,86537,1,2,1:0:0:0:
394,306,87033,2,0,P|345:332|243:311,1,150,2|2,1:0|1:0,0:0:0:0:
221,280,87696,6,0,L|161:290,2,50,6|2|2,1:2|0:0|0:0,0:0:0:0:
249,238,88194,2,0,L|309:248,2,50,2|2|2,0:0|0:0|0:0,0:0:0:0:
221,196,88691,2,0,P|213:162|215:142,1,50,2|2,0:0|0:0,0:0:0:0:
