osu file format v14

[General]
AudioFilename: audio.mp3
AudioLeadIn: 0
PreviewTime: 57553
Countdown: 0
SampleSet: Soft
StackLeniency: 0.3
Mode: 0
LetterboxInBreaks: 0
WidescreenStoryboard: 1

[Editor]
DistanceSpacing: 0.2
BeatDivisor: 3
GridSize: 4
TimelineZoom: 2.3

[Metadata]
Title:No.1 (TV Size)
TitleUnicode:No.1 (TV Size)
Artist:DISH//
ArtistUnicode:DISH//
Creator:Stack
Version:Fall's Hard
Source:僕のヒーローアカデミア
Tags:Soue Yudragen Chaoticred gottagof4st Armin A_r_M_i_N Addy2607 Fall _tranquility op opening my hero academia bnha season 5 boku no japanese anime
BeatmapID:2915773
BeatmapSetID:1414639

[Difficulty]
HPDrainRate:5
CircleSize:4
OverallDifficulty:6.5
ApproachRate:8
SliderMultiplier:1.7
SliderTickRate:1

[Events]
//Background and Video events
0,0,"Konachan.com - 303404 sample.jpg",0,0
Video,107,"bnh720.mp4"
//Break Periods
2,16294,25786
//Storyboard Layer 0 (Background)
//Storyboard Layer 1 (Fail)
//Storyboard Layer 2 (Pass)
//Storyboard Layer 3 (Foreground)
//Storyboard Layer 4 (Overlay)
//Storyboard Sound Samples

[TimingPoints]
183,331.491712707182,4,2,1,40,1,0
10790,-90.9090909090909,4,2,1,85,0,0
16094,-90.9090909090909,4,2,1,55,0,0
26702,-111.111111111111,4,2,1,70,0,0
37310,-100,4,2,1,75,0,0
50569,-100,4,2,1,80,0,0
53221,-100,4,2,1,85,0,0
58525,-100,4,2,1,90,0,1
69133,-100,4,2,1,75,0,1
74437,-100,4,2,1,90,0,1
77089,-100,4,2,1,100,0,1
79741,-100,4,2,1,90,0,0
85044,-100,4,2,1,95,0,0
87696,-100,4,2,1,60,0,0

[Colours]
Combo1 : 197,120,118
Combo2 : 242,153,111
Combo3 : 118,182,245

[HitObjects]
56,217,5155,5,4,1:0:0:0:
56,217,5321,1,0,1:0:0:0:
81,145,5486,6,0,L|168:137,1,85,0|4,1:0|0:3,0:0:0:0:
221,190,5818,2,0,L|308:197,1,85,0|4,1:0|0:3,0:0:0:0:
382,192,6149,2,0,B|438:151|420:75|420:75|418:97|383:136,1,170,0|0,1:0|1:0,0:0:0:0:
341,65,6647,1,4,0:3:0:0:
270,37,6812,6,0,L|182:44,1,85,2|4,1:2|0:3,0:0:0:0:
108,51,7144,2,0,P|99:101|120:148,1,85,2|4,1:2|0:3,0:0:0:0:
174,172,7475,2,0,P|183:222|162:269,1,85,2|4,1:2|0:3,0:0:0:0:
113,303,7807,2,0,L|13:306,1,85,2|4,1:2|0:3,0:0:0:0:
16,221,8138,6,0,L|100:218,1,85,0|4,1:0|0:3,0:0:0:0:
172,253,8470,2,0,B|211:269|211:269|275:242,1,85,0|4,1:0|0:3,0:0:0:0:
317,214,8801,5,0,1:0:0:0:
317,214,8967,1,0,1:0:0:0:
270,152,9133,5,0,1:0:0:0:
301,81,9299,1,4,1:2:0:0:
295,60,9464,5,2,0:0:0:0:
295,60,10790,6,0,P|254:80|166:80,1,93.5000028533936,6|2,1:0|1:0,0:0:0:0:
164,82,11039,1,0,1:0:0:0:
164,82,11122,1,0,1:0:0:0:
94,128,11287,1,2,1:0:0:0:
144,195,11453,2,0,L|140:249,3,46.7500014266968,2|0|0|0,1:0|1:0|1:0|1:0,0:0:0:0:
139,284,11785,6,0,P|180:264|268:264,1,93.5000028533936,2|2,1:0|1:0,0:0:0:0:
269,258,12033,1,0,1:0:0:0:
269,258,12116,1,0,1:0:0:0:
332,313,12282,1,2,1:0:0:0:
406,273,12448,6,0,L|409:226,3,46.7500014266968,2|0|0|0,1:0|1:0|1:0|1:0,0:0:0:0:
411,184,12779,1,2,1:0:0:0:
337,141,12945,2,0,L|334:95,3,46.7500014266968,2|0|0|0,1:0|1:0|1:0|1:0,0:0:0:0:
329,52,13276,1,2,1:0:0:0:
250,83,13442,6,0,L|124:91,1,93.5000028533936,6|0,1:0|1:0,0:0:0:0:
117,95,13691,1,0,1:0:0:0:
117,95,13774,5,0,1:0:0:0:
64,159,13939,1,2,1:0:0:0:
102,233,14105,2,0,L|148:236,3,46.7500014266968,2|0|0|0,1:0|1:0|1:0|1:0,0:0:0:0:
191,239,14437,1,2,1:0:0:0:
219,317,14602,2,0,L|265:314,3,46.7500014266968,2|0|0|0,1:0|1:0|1:0|1:0,0:0:0:0:
308,311,14934,1,0,1:0:0:0:
344,239,15100,1,2,1:0:0:0:
344,239,15182,1,0,1:0:0:0:
344,239,15265,2,0,L|347:193,1,46.7500014266968,2|0,1:0|1:0,0:0:0:0:
347,149,15431,5,0,1:0:0:0:
354,65,15597,2,0,B|431:65|471:121|471:121|445:103|407:110,1,187.000005706787,2|2,1:0|1:2,0:0:0:0:
430,192,16094,5,6,1:2:0:0:
63,43,26536,5,0,1:0:0:0:
63,43,26619,1,0,1:0:0:0:
63,43,26702,2,0,B|51:85|51:85|67:132,1,76.4999976654053,2|0,1:2|0:0,0:0:0:0:
126,157,27033,2,0,B|146:215|146:215|115:317,1,152.999995330811,2|0,1:2|1:0,0:0:0:0:
269,272,27696,1,0,1:0:0:0:
245,204,27862,1,2,0:0:0:0:
245,204,28028,6,0,L|324:196,1,76.4999976654053,0|0,1:0|0:0,0:0:0:0:
375,142,28359,2,0,L|451:149,1,76.4999976654053,2|0,1:2|0:0,0:0:0:0:
493,213,28691,2,0,P|497:250|490:298,2,76.4999976654053,0|2|0,1:0|0:0|1:0,0:0:0:0:
451,149,29188,1,2,0:0:0:0:
451,149,29354,6,0,P|433:103|427:57,1,76.4999976654053,2|0,1:2|0:0,0:0:0:0:
361,38,29685,2,0,P|353:75|338:110,1,76.4999976654053,2|0,1:2|0:0,0:0:0:0:
279,160,30017,2,0,L|202:167,1,76.4999976654053,2|0,1:2|0:0,0:0:0:0:
126,174,30348,1,2,1:2:0:0:
126,174,30514,1,0,0:0:0:0:
34,179,30680,6,0,B|39:237|39:237|56:268|56:268|61:326,1,152.999995330811,2|0,1:2|1:0,0:0:0:0:
194,365,31343,2,0,B|228:348|228:348|276:358,1,76.4999976654053,2|2,1:2|0:0,0:0:0:0:
330,314,31674,2,0,B|364:331|364:331|412:321,1,76.4999976654053,2|4,1:2|0:3,0:0:0:0:
422,318,31923,1,4,0:3:0:0:
439,314,32006,6,0,P|426:278|409:157,1,152.999995330811,2|0,1:2|1:0,0:0:0:0:
345,121,32503,5,2,0:0:0:0:
345,121,32669,2,0,P|304:185|252:241,1,152.999995330811,2|0,1:2|1:0,0:0:0:0:
202,179,33166,5,2,0:0:0:0:
202,179,33332,2,0,P|146:126|81:86,1,152.999995330811,2|0,1:2|1:0,0:0:0:0:
48,152,33829,5,0,0:0:0:0:
48,152,33995,2,0,P|65:135|80:74,1,76.4999976654053,2|0,1:2|0:0,0:0:0:0:
126,26,34326,1,2,1:2:0:0:
126,26,34492,1,0,0:0:0:0:
187,70,34658,6,0,B|224:83|224:83|347:56,1,152.999995330811,2|0,1:2|1:0,0:0:0:0:
407,33,35155,1,2,0:0:0:0:
407,33,35321,2,0,B|420:70|420:70|395:181,1,152.999995330811,0|2,1:0|1:2,0:0:0:0:
265,261,35984,6,0,B|233:263|233:263|216:273|216:273|185:276,1,76.4999976654053,0|4,1:0|0:3,0:0:0:0:
115,288,36315,1,0,1:0:0:0:
145,217,36481,1,4,0:3:0:0:
14,28,36978,5,8,1:2:0:0:
14,28,37144,1,2,0:0:0:0:
71,78,37310,6,0,P|134:67|173:75,1,85,6|0,1:2|0:0,0:0:0:0:
228,88,37641,2,0,B|221:147|221:147|224:165|224:165|220:215|220:215|224:194|251:182,1,170,10|0,1:2|1:0,0:0:0:0:
319,160,38138,1,0,1:0:0:0:
363,222,38304,1,8,1:2:0:0:
443,221,38470,1,2,0:0:0:0:
443,221,38636,6,0,L|435:306,1,85,2|0,1:2|0:0,0:0:0:0:
369,344,38967,2,0,P|308:315|194:309,1,170,10|0,1:2|1:0,0:0:0:0:
134,330,39464,1,0,1:0:0:0:
74,281,39630,1,8,1:2:0:0:
109,213,39796,1,2,0:0:0:0:
109,213,39962,6,0,P|121:162|120:95,1,85,2|0,1:2|0:0,0:0:0:0:
197,111,40293,2,0,P|200:153|210:194,1,85,10|0,1:2|0:0,0:0:0:0:
279,227,40624,1,0,1:0:0:0:
279,227,40790,1,0,1:0:0:0:
346,191,40956,2,0,P|356:149|359:107,1,85,8|0,1:2|0:0,0:0:0:0:
348,31,41287,6,0,B|411:-11|478:22|478:22|493:79,1,170,2|8,1:2|1:2,0:0:0:0:
510,131,41785,1,2,0:0:0:0:
510,131,41950,2,0,L|502:220,1,85,2|2,1:2|1:2,0:0:0:0:
496,292,42282,1,10,1:2:0:0:
496,292,42448,1,0,1:0:0:0:
435,245,42613,6,0,P|377:232|315:237,1,85,2|0,1:2|0:0,0:0:0:0:
309,167,42945,2,0,P|251:180|130:163,1,170,10|0,1:2|1:0,0:0:0:0:
80,122,43442,1,0,1:0:0:0:
148,87,43608,2,0,P|155:139|131:177,1,85,10|0,1:2|0:0,0:0:0:0:
71,197,43939,6,0,L|63:281,1,85,2|0,1:2|0:0,0:0:0:0:
108,339,44271,2,0,P|172:320|222:328,1,85,10|0,1:2|0:0,0:0:0:0:
264,335,44602,1,2,1:2:0:0:
264,335,44768,1,0,1:0:0:0:
331,282,44934,2,0,P|385:294|431:290,1,85,10|0,1:2|0:0,0:0:0:0:
463,233,45265,6,0,B|456:174|456:174|459:156|459:156|455:106|455:106|459:127|486:139,1,170,0|8,1:0|1:2,0:0:0:0:
388,15,45928,1,0,1:0:0:0:
388,15,46094,1,2,1:2:0:0:
345,78,46260,2,0,L|250:86,1,85,8|2,1:2|0:0,0:0:0:0:
209,143,46591,1,0,1:0:0:0:
209,143,46757,1,0,1:0:0:0:
153,89,46923,2,0,L|58:80,1,85,8|2,1:2|0:0,0:0:0:0:
16,137,47254,5,0,1:0:0:0:
63,197,47420,1,0,1:0:0:0:
33,267,47586,1,8,1:2:0:0:
73,341,47752,1,2,0:0:0:0:
73,341,47917,6,0,P|121:315|161:315,1,85,2|0,1:2|0:0,0:0:0:0:
218,276,48249,2,0,P|195:207|209:99,1,170,10|0,1:2|1:0,0:0:0:0:
256,55,48746,1,0,1:0:0:0:
317,101,48912,1,8,1:2:0:0:
376,53,49078,1,2,0:0:0:0:
376,53,49243,6,0,L|461:44,1,85,2|0,1:2|1:0,0:0:0:0:
470,120,49575,2,0,L|385:128,1,85,10|0,1:2|1:0,0:0:0:0:
331,194,49906,1,8,1:2:0:0:
364,262,50072,1,0,1:0:0:0:
340,334,50238,1,2,1:2:0:0:
187,325,50569,6,0,P|142:297|121:259,1,85,6|0,1:2|0:0,0:0:0:0:
49,254,50901,2,0,P|36:202|49:160,1,85,6|0,1:2|0:0,0:0:0:0:
82,95,51232,2,0,L|222:107,1,127.5,6|0,1:2|1:0,0:0:0:0:
251,112,51564,1,6,1:0:0:0:
457,11,52227,6,0,P|433:71|425:120,1,85,8|0,1:2|1:0,0:0:0:0:
403,119,52475,1,0,1:0:0:0:
403,119,52558,6,0,P|427:179|435:228,1,85,10|0,1:2|1:2,0:0:0:0:
448,273,52890,1,2,1:2:0:0:
375,249,53055,1,0,1:0:0:0:
306,312,53221,5,4,1:0:0:0:
245,358,53387,2,0,L|198:363,3,42.5,0|0|0|0,1:0|1:0|1:0|1:0,0:0:0:0:
165,370,53718,1,2,1:2:0:0:
174,293,53884,2,0,L|127:288,3,42.5,0|0|0|0,1:0|1:0|1:0|1:0,0:0:0:0:
93,285,54216,1,2,1:2:0:0:
50,221,54381,2,0,P|28:209|-1:210,2,42.5,0|0|4,1:0|1:0|1:2,0:0:0:0:
118,186,54713,6,0,L|123:138,3,42.5,0|0|0|0,1:0|1:0|1:0|1:0,0:0:0:0:
128,105,55044,1,2,1:2:0:0:
53,121,55210,2,0,L|48:73,3,42.5,0|0|0|0,1:0|1:0|1:0|1:0,0:0:0:0:
43,40,55542,1,2,1:2:0:0:
124,30,55707,1,2,1:2:0:0:
124,30,55790,1,0,1:0:0:0:
124,30,55873,6,0,P|176:19|228:35,1,85,4|0,1:2|1:0,0:0:0:0:
239,46,56122,1,0,1:0:0:0:
267,72,56205,2,0,L|270:125,3,42.5,0|0|0|0,1:0|1:0|1:0|1:0,0:0:0:0:
299,144,56536,2,0,L|296:197,3,42.5,0|0|0|0,1:0|1:0|1:0|1:0,0:0:0:0:
280,226,56868,2,0,L|283:279,3,42.5,2|0|0|0,1:2|1:0|1:0|1:0,0:0:0:0:
302,305,57199,5,2,1:2:0:0:
373,259,57365,1,4,1:2:0:0:
275,268,58525,6,0,P|310:229|335:110,1,170,6|8,1:2|1:2,0:0:0:0:
315,43,59022,1,2,1:2:0:0:
315,43,59105,1,0,1:0:0:0:
315,43,59188,2,0,L|225:48,1,85,0|2,1:0|1:2,0:0:0:0:
144,47,59520,1,8,1:2:0:0:
144,47,59685,6,0,P|126:91|128:146,1,85,2|0,1:2|0:0,0:0:0:0:
80,201,60017,2,0,P|98:245|96:300,1,85,2|8,1:2|1:2,0:0:0:0:
161,340,60348,1,2,0:0:0:0:
99,281,60514,6,0,L|8:293,2,85,2|2|8,1:2|0:0|1:2,0:0:0:0:
172,238,61011,1,2,1:2:0:0:
234,295,61177,6,0,B|293:302|293:302|311:299|311:299|361:303|361:303|340:299|328:272,1,170,2|10,1:2|1:2,0:0:0:0:
270,215,61674,2,0,B|221:157|240:95|240:95|245:123|264:141,1,170,2|2,1:2|1:2,0:0:0:0:
324,82,62171,2,0,P|377:54|424:55,1,85,10|2,1:2|1:2,0:0:0:0:
486,59,62503,6,0,L|477:150,1,85,0|0,1:0|1:0,0:0:0:0:
425,211,62834,1,8,1:2:0:0:
470,294,63000,1,2,0:0:0:0:
470,294,63083,1,0,1:0:0:0:
470,294,63166,6,0,L|385:302,1,85,2|2,1:2|1:2,0:0:0:0:
316,251,63497,1,10,1:2:0:0:
232,246,63663,1,2,1:2:0:0:
277,174,63829,6,0,B|297:132|297:132|241:8,1,170,4|10,1:2|1:2,0:0:0:0:
161,25,64326,2,0,L|76:33,1,85,2|0,0:0|1:0,0:0:0:0:
92,117,64658,2,0,L|176:125,1,85,2|8,1:2|1:2,0:0:0:0:
277,174,64989,6,0,P|285:227|278:271,1,85,2|2,1:2|0:3,0:0:0:0:
220,317,65321,2,0,L|135:308,1,85,2|8,0:0|1:2,0:0:0:0:
92,234,65652,2,0,B|101:177|76:140|76:140|13:139|-2:193,1,170,2|2,1:2|1:2,0:0:0:0:
134,47,66315,1,2,1:2:0:0:
195,106,66481,6,0,P|249:74|295:65,1,85,2|0,1:2|0:0,0:0:0:0:
330,128,66812,2,0,P|384:160|430:169,1,85,10|0,1:2|0:0,0:0:0:0:
481,126,67144,1,2,1:2:0:0:
481,126,67310,1,0,1:0:0:0:
510,205,67475,2,0,L|502:290,1,85,10|0,1:2|0:0,0:0:0:0:
430,337,67807,5,2,1:3:0:0:
430,337,67973,1,0,1:0:0:0:
357,293,68138,2,0,B|322:295|322:295|304:305|304:305|271:309,1,85,8|0,1:2|0:0,0:0:0:0:
189,315,68470,5,8,1:2:0:0:
226,238,68636,1,0,1:0:0:0:
187,172,68801,1,0,1:0:0:0:
213,100,68967,1,0,1:0:0:0:
297,106,69133,6,0,L|435:116,2,113.333333333333,4|2|2,1:0|0:0|0:0,0:0:0:0:
213,100,69796,2,0,L|99:91,2,113.333333333333,10|2|2,1:2|0:0|0:0,0:0:0:0:
249,176,70459,6,0,P|267:236|268:340,2,113.333333333333,2|2|2,1:2|0:0|1:2,0:0:0:0:
171,211,71122,2,0,P|153:271|154:371,2,113.333333333333,6|2|2,1:2|0:0|1:2,0:0:0:0:
106,155,71785,6,0,P|62:158|22:130,1,85,2|0,1:2|0:0,0:0:0:0:
50,55,72116,2,0,P|91:51|127:72,1,85,2|0,0:0|1:0,0:0:0:0:
186,134,72448,1,10,1:2:0:0:
360,28,72779,6,0,B|401:73|401:73|386:199,1,170,6|0,1:2|0:0,0:0:0:0:
333,247,73276,1,0,1:0:0:0:
333,247,73442,2,0,P|305:201|306:149,1,85,2|0,0:2|1:0,0:0:0:0:
388,181,73774,2,0,L|477:187,2,85,10|0|2,1:2|1:0|1:2,0:0:0:0:
302,170,74271,1,2,1:3:0:0:
285,168,74354,1,2,0:3:0:0:
268,166,74437,6,0,P|225:127|211:87,1,85,4|0,1:0|1:0,0:0:0:0:
158,39,74768,2,0,P|137:76|104:101,1,85,8|0,1:2|1:0,0:0:0:0:
62,176,75100,1,0,1:0:0:0:
62,176,75265,1,2,1:2:0:0:
110,246,75431,2,0,L|118:343,1,85,8|2,1:2|0:0,0:0:0:0:
195,366,75763,5,0,1:0:0:0:
195,366,75928,1,0,1:0:0:0:
264,316,76094,2,0,L|256:231,1,85,10|0,1:2|1:0,0:0:0:0:
248,146,76426,1,2,1:2:0:0:
248,146,76591,1,0,1:0:0:0:
325,181,76757,2,0,P|374:184|424:132,1,85,10|0,1:2|1:0,0:0:0:0:
350,88,77089,6,0,L|334:-2,1,85,12|0,1:2|0:0,0:0:0:0:
241,6,77420,2,0,L|226:89,1,85,8|0,1:2|0:0,0:0:0:0:
131,91,77752,5,8,1:2:0:0:
139,114,77917,1,0,3:0:0:0:
89,193,78083,5,8,1:2:0:0:
81,216,78248,1,2,3:2:0:0:
126,298,78415,6,0,P|175:278|216:282,1,85,8|0,1:2|0:0,0:0:0:0:
274,215,78746,2,0,P|323:235|364:231,1,85,8|0,1:2|0:0,0:0:0:0:
428,175,79078,1,8,1:2:0:0:
428,175,79243,1,2,1:2:0:0:
490,244,79409,2,0,L|484:308,3,42.5,8|0|2|0,1:2|1:0|1:2|1:0,0:0:0:0:
480,329,79741,6,0,P|431:349|390:345,1,85,6|2,1:2|0:0,0:0:0:0:
315,333,80072,2,0,L|306:238,1,85,10|2,1:2|0:0,0:0:0:0:
237,199,80403,2,0,L|245:104,1,85,2|2,1:2|1:2,0:0:0:0:
179,58,80735,2,0,P|134:31|46:48,1,127.5,10|0,1:2|0:0,0:0:0:0:
55,80,81066,6,0,B|48:139|48:139|51:157|51:157|47:207|47:207|51:186|78:174,1,170,2|10,1:2|1:2,0:0:0:0:
124,244,81564,1,2,0:0:0:0:
198,204,81729,1,2,1:2:0:0:
198,204,81895,1,2,1:2:0:0:
265,256,82061,2,0,L|273:350,1,85,8|2,1:2|0:0,0:0:0:0:
357,349,82392,6,0,B|417:342|445:299|445:299|425:252|385:246,1,170,2|10,1:2|1:2,0:0:0:0:
334,199,82890,1,2,0:0:0:0:
388,137,83055,1,0,1:0:0:0:
388,137,83221,1,2,1:2:0:0:
334,70,83387,2,0,P|266:57|229:80,1,85,10|0,1:2|0:0,0:0:0:0:
200,127,83718,6,0,L|207:220,1,85,2|0,1:2|1:0,0:0:0:0:
215,296,84050,2,0,P|164:313|111:299,1,85,10|0,1:2|0:0,0:0:0:0:
64,358,84381,1,0,1:0:0:0:
64,358,84547,1,2,1:2:0:0:
20,285,84713,2,0,L|26:200,1,85,10|2,1:2|0:1,0:0:0:0:
33,115,85044,5,6,1:0:0:0:
103,67,85210,2,0,L|173:62,3,42.5,0|0|2|0,1:0|1:0|1:0|1:0,0:0:0:0:
188,60,85542,1,2,1:0:0:0:
239,127,85707,2,0,L|309:132,3,42.5,0|0|2|0,1:0|1:0|1:0|1:0,0:0:0:0:
324,131,86039,1,2,1:0:0:0:
365,56,86205,2,0,L|435:51,3,42.5,0|0|2|0,1:0|1:0|1:0|1:0,0:0:0:0:
449,50,86536,1,2,1:0:0:0:
434,133,86702,2,0,L|439:203,3,42.5,0|0|2|0,1:0|1:0|1:0|1:0,0:0:0:0:
440,217,87033,5,2,1:0:0:0:
386,284,87199,1,0,1:0:0:0:
386,284,87282,1,0,1:0:0:0:
386,284,87365,2,0,P|338:271|313:279,4,42.5,2|0|2|0|6,1:0|1:0|1:0|1:0|1:2,0:0:0:0:
