osu file format v14

[General]
AudioFilename: audio.mp3
AudioLeadIn: 0
PreviewTime: 57553
Countdown: 0
SampleSet: Soft
StackLeniency: 0.4
Mode: 0
LetterboxInBreaks: 0
WidescreenStoryboard: 1

[Editor]
DistanceSpacing: 1
BeatDivisor: 6
GridSize: 4
TimelineZoom: 3.299998

[Metadata]
Title:No.1 (TV Size)
TitleUnicode:No.1 (TV Size)
Artist:DISH//
ArtistUnicode:DISH//
Creator:Stack
Version:Addy's Insane
Source:僕のヒーローアカデミア
Tags:Soue Yudragen Chaoticred gottagof4st Armin A_r_M_i_N Addy2607 Fall _tranquility op opening my hero academia bnha season 5 boku no japanese anime
BeatmapID:2916341
BeatmapSetID:1414639

[Difficulty]
HPDrainRate:5
CircleSize:3.8
OverallDifficulty:7.5
ApproachRate:9
SliderMultiplier:1.6
SliderTickRate:1

[Events]
//Background and Video events
0,0,"Konachan.com - 303404 sample.jpg",0,0
Video,107,"bnh720.mp4"
//Break Periods
//Storyboard Layer 0 (Background)
//Storyboard Layer 1 (Fail)
//Storyboard Layer 2 (Pass)
//Storyboard Layer 3 (Foreground)
//Storyboard Layer 4 (Overlay)
//Storyboard Sound Samples

[TimingPoints]
183,331.491712707182,4,2,1,40,1,0
183,-142.857142857143,4,2,1,40,0,0
5486,-117.647058823529,4,2,1,60,0,0
9547,-117.647058823529,4,2,1,60,0,0
9713,-117.647058823529,4,2,1,60,0,0
9796,-117.647058823529,4,2,1,60,0,0
9962,-117.647058823529,4,2,1,60,0,0
10044,-117.647058823529,4,2,1,60,0,0
10790,-100,4,2,1,85,0,0
16094,-142.857142857143,4,2,1,55,0,0
26702,-125,4,2,1,70,0,0
37061,-125,4,2,1,70,0,0
37144,-125,4,2,1,70,0,0
37310,-111.111111111111,4,2,1,75,0,0
50569,-111.111111111111,4,2,1,80,0,0
51564,-100,4,2,1,80,0,0
52061,-111.111111111111,4,2,1,80,0,0
53221,-100,4,2,1,85,0,0
57282,-100,4,2,1,85,0,0
57365,-100,4,2,1,85,0,0
57448,-100,4,2,1,85,0,0
58525,-90.9090909090909,4,2,1,90,0,1
69133,-100,4,2,1,75,0,0
74437,-90.9090909090909,4,2,1,90,0,1
77089,-90.9090909090909,4,2,1,100,0,1
79741,-100,4,2,1,90,0,0
85044,-100,4,2,1,95,0,0
87696,-125,4,2,1,60,0,0

[Colours]
Combo1 : 197,120,118
Combo2 : 242,153,111
Combo3 : 118,182,245

[HitObjects]
484,69,183,6,0,L|385:64,2,74.6666643880209,2|2|2,0:0|0:0|0:0,0:0:0:0:
415,146,845,2,0,L|499:151,2,74.6666643880209,2|2|2,0:0|0:0|0:0,0:0:0:0:
308,35,1508,2,0,L|225:40,2,74.6666643880209,2|2|2,0:0|0:0|0:0,0:0:0:0:
210,122,2171,2,0,L|294:117,2,74.6666643880209,2|2|2,0:0|0:0|0:0,0:0:0:0:
135,58,2834,6,0,P|90:38|28:69,2,111.999996582031,2|2|2,1:2|0:0|0:0,0:0:0:0:
124,208,3829,2,0,B|92:245|92:245|86:112,1,167.999994873047,2|0,0:0|0:0,0:0:0:0:
210,122,4492,2,0,L|213:192,1,55.9999982910157,2|0,0:0|0:0,0:0:0:0:
219,277,4823,2,0,L|222:347,1,55.9999982910157,2|0,0:0|0:0,0:0:0:0:
302,213,5155,1,4,1:0:0:0:
389,295,5321,1,0,0:0:0:0:
389,295,5403,1,0,0:0:0:0:
389,295,5486,6,0,L|471:293,1,68.0000012969971,0|4,1:0|0:3,0:0:0:0:
498,203,5818,2,0,L|416:205,1,68.0000012969971,0|4,1:0|0:3,0:0:0:0:
377,121,6149,2,0,L|459:119,1,68.0000012969971,0|4,1:0|0:3,0:0:0:0:
486,29,6481,2,0,L|404:31,1,68.0000012969971,0|4,1:0|0:3,0:0:0:0:
290,6,6812,6,0,L|298:79,1,68.0000012969971,2|4,1:2|0:3,0:0:0:0:
204,164,7144,2,0,L|212:91,1,68.0000012969971,2|4,1:2|0:3,0:0:0:0:
118,2,7475,2,0,L|126:75,1,68.0000012969971,2|4,1:2|0:3,0:0:0:0:
32,160,7807,2,0,L|40:87,1,68.0000012969971,2|4,1:2|0:3,0:0:0:0:
116,214,8138,5,0,1:0:0:0:
116,214,8304,1,4,0:3:0:0:
28,293,8470,1,0,1:0:0:0:
28,293,8636,1,4,0:3:0:0:
107,381,8801,1,0,1:0:0:0:
107,381,8967,1,0,1:0:0:0:
195,302,9133,1,0,1:0:0:0:
296,382,9299,1,4,1:2:0:0:
287,215,9464,6,0,L|289:259,1,34.0000006484985,2|0,0:0|0:0,0:0:0:0:
391,356,9713,6,0,L|389:312,1,34.0000006484985,0|0,0:0|0:0,0:0:0:0:
464,197,9962,6,0,L|466:241,1,34.0000006484985,0|0,0:0|0:0,0:0:0:0:
492,110,10790,6,0,P|452:100|411:124,1,80,6|2,1:0|1:0,0:0:0:0:
404,141,11039,1,0,0:0:0:0:
404,141,11122,1,0,1:0:0:0:
334,0,11287,2,0,P|308:32|312:79,1,80,2|2,1:0|1:0,0:0:0:0:
324,92,11536,1,0,1:0:0:0:
324,92,11619,1,0,1:0:0:0:
287,215,11785,1,2,1:0:0:0:
179,117,11950,1,2,1:0:0:0:
179,117,12033,1,0,1:0:0:0:
179,117,12116,6,0,L|90:110,1,80,0|2,1:0|1:0,0:0:0:0:
31,182,12448,1,2,1:0:0:0:
31,182,12531,1,0,1:0:0:0:
31,182,12613,1,0,1:0:0:0:
183,248,12779,2,0,L|94:241,1,80,2|2,1:0|1:0,0:0:0:0:
55,328,13028,1,0,1:0:0:0:
55,328,13111,2,0,L|144:335,1,80,0|2,1:0|1:0,0:0:0:0:
260,367,13442,6,0,L|349:360,1,80,6|0,1:0|1:0,0:0:0:0:
371,364,13691,1,0,1:0:0:0:
371,364,13774,1,0,1:0:0:0:
296,275,13939,2,0,L|385:268,1,80,2|2,1:0|1:0,0:0:0:0:
407,272,14188,1,0,1:0:0:0:
407,272,14271,1,0,1:0:0:0:
469,348,14437,1,2,1:0:0:0:
450,164,14602,1,2,1:0:0:0:
450,164,14685,1,0,1:0:0:0:
450,164,14768,6,0,L|444:106,2,40,0|0|2,1:0|1:0|1:0,0:0:0:0:
371,37,15100,1,2,1:0:0:0:
371,37,15183,1,0,1:0:0:0:
371,37,15266,2,0,L|365:95,1,40,0|0,1:0|1:0,0:0:0:0:
294,173,15431,2,0,L|288:115,1,40,2|0,1:0|1:0,0:0:0:0:
239,14,15597,2,0,B|182:10|182:10|150:32|150:32|78:29,1,160,2|2,1:0|1:2,0:0:0:0:
16,120,16094,6,0,L|21:199,1,55.9999982910157,6|0,1:2|0:0,0:0:0:0:
110,268,16426,2,0,P|58:253|1:290,2,111.999996582031,2|0|2,1:2|1:0|1:2,0:0:0:0:
174,343,17254,1,2,0:0:0:0:
269,281,17420,6,0,L|264:202,1,55.9999982910157,0|0,1:0|0:0,0:0:0:0:
318,141,17752,2,0,L|189:149,2,111.999996582031,2|0|0,1:2|1:0|1:0,0:0:0:0:
393,77,18580,1,2,0:0:0:0:
478,127,18746,6,0,P|452:178|471:239,1,111.999996582031,2|2,1:2|1:2,0:0:0:0:
512,315,19243,1,0,0:0:0:0:
423,356,19409,2,0,L|349:354,1,55.9999982910157,2|0,1:2|0:0,0:0:0:0:
323,266,19741,2,0,L|397:268,1,55.9999982910157,2|0,1:2|0:0,0:0:0:0:
259,341,20072,6,0,P|207:367|156:341,1,111.999996582031,2|0,1:2|1:0,0:0:0:0:
86,380,20569,2,0,P|40:343|42:286,1,111.999996582031,2|2,0:0|0:0,0:0:0:0:
0,220,21066,2,0,P|22:185|47:178,1,55.9999982910157,0|2,1:0|0:0,0:0:0:0:
176,214,21398,6,0,P|134:212|116:194,1,55.9999982910157,2|2,1:2|0:0,0:0:0:0:
125,46,21729,2,0,P|158:73|160:146,2,111.999996582031,2|0|0,1:2|1:0|1:0,0:0:0:0:
89,118,22558,1,2,0:0:0:0:
222,29,22724,6,0,B|276:8|276:8|334:31,1,111.999996582031,2|2,1:2|1:2,0:0:0:0:
413,74,23221,1,0,0:0:0:0:
329,180,23387,2,0,L|328:107,1,55.9999982910157,2|0,1:2|0:0,0:0:0:0:
413,74,23718,2,0,L|414:147,1,55.9999982910157,2|0,1:2|0:0,0:0:0:0:
512,216,24050,6,0,B|465:215|465:215|442:226|442:226|395:225,1,111.999996582031,2|0,1:2|1:0,0:0:0:0:
351,292,24547,2,0,P|303:316|248:292,1,111.999996582031,2|2,0:2|0:0,0:0:0:0:
207,170,25044,2,0,L|207:226,1,55.9999982910157,2|0,1:2|0:0,0:0:0:0:
261,101,25376,6,0,P|204:79|152:103,1,111.999996582031,2|0,1:2|1:0,0:0:0:0:
63,71,25873,2,0,L|74:197,1,111.999996582031,2|2,0:0|0:0,0:0:0:0:
7,256,26370,1,2,1:2:0:0:
80,351,26536,1,0,0:0:0:0:
80,351,26619,1,0,1:0:0:0:
80,351,26702,6,0,L|156:345,1,64,2|0,1:2|0:0,0:0:0:0:
192,242,27033,2,0,L|116:248,1,64,2|0,1:2|0:0,0:0:0:0:
245,362,27365,1,0,1:0:0:0:
245,362,27531,1,2,0:0:0:0:
342,276,27696,2,0,L|266:282,1,64,0|2,1:0|0:0,0:0:0:0:
412,320,28028,6,0,P|424:265|408:243,1,64,0|0,1:0|0:0,0:0:0:0:
321,157,28359,2,0,P|362:194|389:192,1,64,2|0,1:2|0:0,0:0:0:0:
510,150,28691,2,0,P|456:167|445:191,1,64,0|2,1:0|0:0,0:0:0:0:
510,236,29022,1,0,1:0:0:0:
510,236,29188,1,2,0:0:0:0:
377,87,29354,6,0,P|342:64|262:91,1,128,2|2,1:2|1:2,0:0:0:0:
220,176,29851,1,0,0:0:0:0:
155,34,30017,2,0,L|159:107,1,64,2|0,1:2|0:0,0:0:0:0:
61,104,30348,2,0,L|57:31,1,64,2|0,1:2|0:0,0:0:0:0:
220,176,30680,6,0,L|79:185,1,128,2|0,1:2|1:0,0:0:0:0:
25,256,31177,1,2,0:0:0:0:
167,312,31343,2,0,L|92:316,1,64,2|2,1:2|0:0,0:0:0:0:
220,176,31674,1,2,1:2:0:0:
312,273,31840,1,4,0:3:0:0:
312,273,31923,1,4,0:3:0:0:
312,273,32006,6,0,L|306:354,1,64,2|0,1:2|0:0,0:0:0:0:
399,372,32337,2,0,L|405:291,1,64,0|2,1:0|0:0,0:0:0:0:
490,209,32669,2,0,L|496:290,1,64,2|0,1:2|0:0,0:0:0:0:
403,308,33000,2,0,L|397:227,1,64,0|2,1:0|0:0,0:0:0:0:
501,117,33332,6,0,P|470:112|442:127,1,64,2|0,1:2|0:0,0:0:0:0:
313,47,33663,2,0,P|344:42|373:57,1,64,0|0,1:0|0:0,0:0:0:0:
327,188,33995,2,0,L|329:114,1,64,2|0,1:2|0:0,0:0:0:0:
236,89,34326,2,0,L|234:163,1,64,2|0,1:2|0:0,0:0:0:0:
284,277,34658,6,0,P|232:252|162:288,1,128,2|0,1:2|1:0,0:0:0:0:
0,340,35155,2,0,P|52:365|122:329,1,128,2|2,0:0|0:0,0:0:0:0:
58,208,35652,2,0,L|58:286,1,64,2|0,1:2|0:0,0:0:0:0:
150,174,35984,5,0,1:0:0:0:
0,128,36149,1,4,0:3:0:0:
118,28,36315,1,0,1:0:0:0:
58,208,36481,1,4,0:3:0:0:
118,28,36978,6,0,L|117:61,1,32,8|0,1:2|0:0,0:0:0:0:
0,128,37144,1,0,0:0:0:0:
150,174,37310,6,0,B|206:169|206:169|234:190|234:190|301:185,1,143.999995605469,6|10,1:2|1:2,0:0:0:0:
375,114,37807,1,0,0:0:0:0:
274,19,37973,2,0,L|280:107,1,71.9999978027344,0|0,1:0|1:0,0:0:0:0:
286,186,38304,1,8,1:2:0:0:
375,114,38470,1,2,0:0:0:0:
500,198,38636,6,0,B|462:171|462:171|472:280,1,143.999995605469,2|10,1:2|1:2,0:0:0:0:
480,367,39133,1,0,0:0:0:0:
383,224,39299,2,0,L|389:312,1,71.9999978027344,0|0,1:0|1:0,0:0:0:0:
480,367,39630,1,8,1:2:0:0:
382,208,39796,1,2,0:0:0:0:
273,355,39962,6,0,B|217:350|217:350|189:371|189:371|122:366,1,143.999995605469,2|10,1:2|1:2,0:0:0:0:
39,357,40459,1,0,0:0:0:0:
157,271,40624,2,0,P|170:233|159:201,1,71.9999978027344,0|0,1:0|1:0,0:0:0:0:
47,201,40956,2,0,P|33:238|44:270,1,71.9999978027344,8|0,1:2|0:0,0:0:0:0:
232,115,41287,6,0,L|87:111,1,143.999995605469,2|8,1:2|1:2,0:0:0:0:
161,204,41785,1,2,0:0:0:0:
202,37,41950,2,0,L|116:34,2,71.9999978027344,2|2|10,1:2|1:2|1:2,0:0:0:0:
300,41,42448,1,0,1:0:0:0:
429,46,42613,6,0,B|395:19|395:19|404:135,1,143.999995605469,2|10,1:2|1:2,0:0:0:0:
465,195,43111,2,0,P|408:226|335:191,1,143.999995605469,2|0,0:1|1:0,0:0:0:0:
402,119,43608,1,10,1:2:0:0:
465,195,43774,1,0,0:0:0:0:
426,320,43939,6,0,B|397:300|354:319|367:334|332:365|283:334,1,143.999995605469,2|10,1:2|1:2,0:0:0:0:
234,242,44437,1,2,0:1:0:0:
158,373,44602,2,0,L|160:293,1,71.9999978027344,2|0,1:2|1:0,0:0:0:0:
55,258,44934,2,0,L|53:338,1,71.9999978027344,10|0,1:2|0:0,0:0:0:0:
156,138,45265,6,0,B|131:167|131:167|12:164,1,143.999995605469,0|8,1:0|1:2,0:0:0:0:
154,52,45763,2,0,P|203:63|235:156,1,143.999995605469,2|2,0:0|1:2,0:0:0:0:
156,138,46260,1,8,1:2:0:0:
251,45,46426,1,2,0:0:0:0:
394,150,46591,6,0,L|315:147,2,71.9999978027344,0|0|8,1:0|1:0|1:2,0:0:0:0:
512,98,47089,2,0,B|478:73|478:73|487:199,1,143.999995605469,2|0,0:0|1:0,0:0:0:0:
494,274,47586,1,8,1:2:0:0:
394,150,47752,1,2,0:0:0:0:
313,291,47917,6,0,B|257:287|257:287|232:304|232:304|151:300,1,143.999995605469,2|10,1:2|1:2,0:0:0:0:
102,368,48415,1,2,0:1:0:0:
37,222,48580,2,0,L|35:293,1,71.9999978027344,0|0,1:0|1:0,0:0:0:0:
174,301,48912,2,0,L|175:229,1,71.9999978027344,8|2,1:2|0:0,0:0:0:0:
182,115,49243,5,2,1:2:0:0:
182,115,49409,1,0,1:0:0:0:
37,222,49575,5,10,1:2:0:0:
175,229,49741,1,0,1:0:0:0:
182,115,49906,5,8,1:2:0:0:
44,108,50072,1,0,1:0:0:0:
213,37,50238,2,0,P|262:75|268:119,1,107.999996704102,2|0,1:2|0:0,0:0:0:0:
258,141,50569,6,0,P|320:115|362:135,1,107.999996704102,6|0,1:2|0:0,0:0:0:0:
379,121,50901,2,0,P|428:166|428:212,1,107.999996704102,6|0,1:2|0:0,0:0:0:0:
451,218,51232,2,0,P|431:282|388:301,1,107.999996704102,6|0,1:2|1:0,0:0:0:0:
380,321,51564,6,0,B|326:281|260:326|282:344|223:409|137:347,1,240,6|0,1:0|0:0,0:0:0:0:
65,256,52227,1,8,1:2:0:0:
177,162,52392,1,0,1:0:0:0:
177,162,52475,1,0,1:0:0:0:
177,162,52558,1,10,1:2:0:0:
73,272,52724,1,0,1:2:0:0:
9,121,52890,1,2,1:2:0:0:
78,286,53055,1,0,0:0:0:0:
162,72,53221,6,0,L|252:70,1,80,4|0,1:0|1:0,0:0:0:0:
274,73,53470,1,0,1:0:0:0:
274,73,53553,1,0,1:0:0:0:
177,162,53718,2,0,L|267:160,1,80,2|0,1:2|1:0,0:0:0:0:
289,163,53967,1,0,1:0:0:0:
289,163,54050,1,0,1:0:0:0:
389,245,54216,1,2,1:2:0:0:
482,155,54381,1,0,1:0:0:0:
482,155,54464,1,0,1:0:0:0:
482,155,54547,6,0,L|484:65,1,80,4|0,1:2|1:0,0:0:0:0:
488,50,54796,1,0,1:0:0:0:
488,50,54879,1,0,0:0:0:0:
392,140,55044,2,0,L|394:50,1,80,2|0,1:2|1:0,0:0:0:0:
397,35,55293,1,0,1:0:0:0:
397,35,55376,1,0,1:0:0:0:
289,161,55542,1,2,1:2:0:0:
195,24,55707,1,2,1:2:0:0:
195,24,55790,1,0,1:0:0:0:
195,24,55873,6,0,P|153:15|101:34,1,80,4|0,1:2|1:0,0:0:0:0:
97,43,56122,1,0,1:0:0:0:
96,42,56205,1,0,1:0:0:0:
157,157,56370,1,0,1:0:0:0:
157,157,56453,1,0,1:0:0:0:
157,157,56536,2,0,L|157:96,1,40,0|0,1:0|1:0,0:0:0:0:
60,133,56702,2,0,L|60:194,1,40,0|0,1:0|1:0,0:0:0:0:
0,284,56868,5,2,1:2:0:0:
31,284,56950,1,0,1:0:0:0:
63,284,57033,1,0,1:0:0:0:
95,284,57116,1,0,1:0:0:0:
126,284,57199,6,0,L|174:284,1,40,2|0,1:2|0:0,0:0:0:0:
272,359,57365,6,0,L|211:359,1,40,4|0,1:2|0:0,0:0:0:0:
436,47,58525,6,0,B|478:7|478:7|471:147,1,176.000005371094,6|8,1:2|1:2,0:0:0:0:
512,231,59022,2,0,P|470:214|424:235,1,88.000002685547,2|0,1:2|1:0,0:0:0:0:
427,384,59354,2,0,P|462:356|467:305,1,88.000002685547,2|8,1:2|1:2,0:0:0:0:
343,231,59685,6,0,P|349:275|390:305,1,88.000002685547,2|0,1:2|0:0,0:0:0:0:
372,129,60017,2,0,B|310:124|310:124|275:146|275:146|191:140,1,176.000005371094,2|2,1:2|0:0,0:0:0:0:
133,52,60514,1,2,1:2:0:0:
58,220,60680,1,2,0:0:0:0:
27,41,60845,1,8,1:2:0:0:
202,140,61011,1,2,1:2:0:0:
58,220,61177,6,0,B|16:260|16:260|23:120,1,176.000005371094,2|10,1:2|1:2,0:0:0:0:
174,290,61674,2,0,P|140:308|91:290,1,88.000002685547,2|0,1:2|1:0,0:0:0:0:
131,182,62006,1,2,1:2:0:0:
223,357,62171,1,10,1:2:0:0:
319,224,62337,6,0,B|383:218|383:218|418:245|418:245|506:234,1,176.000005371094,2|0,1:2|1:0,0:0:0:0:
440,63,62834,2,0,L|450:166,1,88.000002685547,8|2,1:2|0:0,0:0:0:0:
358,313,63166,1,2,1:2:0:0:
448,150,63332,1,2,1:2:0:0:
359,327,63497,1,10,1:2:0:0:
256,148,63663,6,0,B|215:125|168:157|178:169|137:216|78:173,1,176.000005371094,2|0,1:2|0:0,0:0:0:0:
4,91,64160,1,10,1:2:0:0:
22,308,64326,2,0,L|15:213,1,88.000002685547,2|0,0:0|1:0,0:0:0:0:
115,99,64658,1,2,1:2:0:0:
115,99,64823,1,8,1:2:0:0:
233,239,64989,6,0,P|252:279|240:325,1,88.000002685547,2|2,1:2|0:3,0:0:0:0:
131,336,65321,2,0,P|112:296|124:250,1,88.000002685547,2|8,0:0|1:2,0:0:0:0:
321,356,65652,2,0,L|423:361,1,88.000002685547,2|0,1:2|1:0,0:0:0:0:
474,266,65984,2,0,L|372:261,1,88.000002685547,2|8,1:2|1:2,0:0:0:0:
493,369,66315,1,2,1:2:0:0:
500,171,66481,6,0,B|505:49|505:49|466:92,1,176.000005371094,2|10,1:2|1:2,0:0:0:0:
401,181,66978,1,0,0:0:0:0:
319,26,67144,2,0,P|369:10|409:36,1,88.000002685547,2|0,1:2|1:0,0:0:0:0:
401,181,67475,2,0,P|351:197|311:171,1,88.000002685547,10|0,1:2|0:0,0:0:0:0:
225,17,67807,6,0,L|241:117,1,88.000002685547,2|0,1:3|1:0,0:0:0:0:
54,105,68138,2,0,L|70:5,1,88.000002685547,8|0,1:2|0:0,0:0:0:0:
220,204,68470,5,8,1:2:0:0:
152,64,68636,1,0,1:0:0:0:
74,244,68801,1,0,1:0:0:0:
154,82,68967,1,0,1:0:0:0:
271,276,69133,6,0,P|230:297|170:275,2,106.666666666667,4|2|2,1:0|0:0|0:0,0:0:0:0:
264,118,69796,2,0,P|224:152|220:204,2,106.666666666667,10|2|2,1:2|0:0|0:0,0:0:0:0:
414,193,70459,6,0,L|290:187,2,106.666666666667,2|2|2,1:2|0:0|1:2,0:0:0:0:
271,276,71122,2,0,L|392:280,2,106.666666666667,6|2|2,1:2|0:0|1:2,0:0:0:0:
191,357,71785,6,0,P|154:330|71:349,1,120,2|0,1:2|0:0,0:0:0:0:
59,353,72116,2,0,P|86:316|67:233,1,120,2|0,0:0|0:0,0:0:0:0:
52,231,72448,2,0,P|25:194|44:111,1,120,10|0,1:2|0:0,0:0:0:0:
30,95,72779,6,0,B|84:55|150:100|128:118|187:183|273:121,1,240,6|0,1:2|1:0,0:0:0:0:
343,5,73442,2,0,P|329:30|345:82,1,80,2|0,0:2|1:0,0:0:0:0:
454,79,73774,2,0,P|467:53|451:1,1,80,10|0,1:2|1:0,0:0:0:0:
329,161,74105,1,2,1:2:0:0:
512,219,74271,1,2,1:3:0:0:
512,219,74354,1,2,0:3:0:0:
512,219,74437,6,0,B|464:178|464:178|474:313,1,176.000005371094,4|8,1:0|1:2,0:0:0:0:
393,372,74934,1,0,1:0:0:0:
266,261,75100,2,0,L|370:255,1,88.000002685547,0|2,0:0|1:2,0:0:0:0:
393,372,75431,2,0,L|289:378,1,88.000002685547,8|2,1:2|0:0,0:0:0:0:
176,299,75763,6,0,B|105:296|105:296|74:317|74:317|1:315,1,176.000005371094,0|10,1:0|1:2,0:0:0:0:
145,384,76260,1,0,1:0:0:0:
205,221,76426,2,0,L|95:217,1,88.000002685547,2|0,1:2|1:0,0:0:0:0:
0,122,76757,2,0,L|110:126,1,88.000002685547,10|0,1:2|1:0,0:0:0:0:
188,43,77089,5,12,1:2:0:0:
117,217,77254,1,0,0:0:0:0:
79,10,77420,5,8,1:2:0:0:
171,144,77586,1,0,0:0:0:0:
285,20,77752,6,0,P|327:6|374:28,1,88.000002685547,8|0,1:2|0:0,0:0:0:0:
366,151,78083,2,0,P|324:165|277:143,1,88.000002685547,8|2,1:2|1:2,0:0:0:0:
464,9,78415,2,0,L|456:100,1,88.000002685547,8|0,1:2|0:0,0:0:0:0:
373,238,78746,2,0,L|365:147,1,88.000002685547,8|0,1:2|0:0,0:0:0:0:
512,214,79078,1,8,1:2:0:0:
447,349,79243,1,2,1:2:0:0:
447,349,79326,1,0,0:0:0:0:
447,349,79409,2,0,L|390:345,1,44.0000013427735,8|0,1:2|1:0,0:0:0:0:
310,377,79575,2,0,L|253:373,1,44.0000013427735,2|0,1:2|1:0,0:0:0:0:
203,215,79741,6,0,P|208:253|180:298,1,80,6|2,1:2|0:0,0:0:0:0:
51,266,80072,2,0,P|81:242|134:243,1,80,10|2,1:2|0:0,0:0:0:0:
172,369,80403,2,0,P|136:354|110:307,1,80,2|2,1:2|1:2,0:0:0:0:
139,152,80735,1,10,1:2:0:0:
191,289,80901,1,2,1:2:0:0:
313,211,81066,6,0,L|407:222,2,80,2|2|10,1:2|0:0|1:2,0:0:0:0:
218,142,81564,2,0,L|124:153,2,80,2|2|2,0:0|1:2|1:2,0:0:0:0:
364,61,82061,1,8,1:2:0:0:
313,211,82227,1,2,0:0:0:0:
188,65,82392,6,0,L|94:76,1,80,2|2,1:2|0:0,0:0:0:0:
12,89,82724,1,10,1:2:0:0:
218,142,82890,2,0,L|124:153,1,80,2|0,0:0|1:0,0:0:0:0:
42,166,83222,1,2,1:2:0:0:
181,241,83387,1,10,1:2:0:0:
108,74,83553,1,0,0:0:0:0:
7,259,83718,6,0,B|66:254|66:254|97:273|97:273|175:267,1,160,2|10,1:2|1:2,0:0:0:0:
218,142,84216,1,0,0:0:0:0:
295,248,84381,2,0,L|294:341,1,80,0|2,1:0|1:2,0:0:0:0:
160,348,84713,2,0,L|161:255,1,80,10|2,1:2|0:1,0:0:0:0:
318,236,85044,6,0,L|412:244,1,80,6|0,1:0|1:0,0:0:0:0:
429,250,85293,1,0,1:0:0:0:
429,250,85376,1,2,1:0:0:0:
299,139,85542,2,0,L|393:147,1,80,2|0,1:0|1:0,0:0:0:0:
410,153,85790,1,0,1:0:0:0:
410,153,85874,1,0,1:0:0:0:
318,236,86039,1,2,1:0:0:0:
241,66,86205,1,0,1:0:0:0:
241,66,86287,1,0,1:0:0:0:
241,66,86370,6,0,P|201:49|154:75,1,80,2|2,1:0|1:0,0:0:0:0:
155,86,86619,1,0,0:0:0:0:
155,86,86702,1,0,1:0:0:0:
51,33,86868,1,2,1:0:0:0:
51,33,86950,1,0,1:0:0:0:
51,33,87033,2,0,L|55:136,1,80,2|0,1:0|1:0,0:0:0:0:
14,188,87282,1,0,1:0:0:0:
14,188,87365,2,0,L|16:240,1,40,2|0,1:0|1:0,0:0:0:0:
113,240,87531,2,0,L|111:188,1,40,2|0,1:0|1:0,0:0:0:0:
0,326,87696,6,0,L|83:320,2,64,6|2|2,1:2|0:0|0:0,0:0:0:0:
200,358,88194,2,0,L|117:364,2,64,2|2|2,0:0|0:0|0:0,0:0:0:0:
270,267,88691,1,2,0:0:0:0:
365,354,88857,1,2,0:0:0:0:
