osu file format v14

[General]
AudioFilename: audio.mp3
AudioLeadIn: 0
PreviewTime: 57551
Countdown: 0
SampleSet: Soft
StackLeniency: 0.6
Mode: 0
LetterboxInBreaks: 0
WidescreenStoryboard: 1

[Editor]
Bookmarks: 13442,16094,26702,37310,42613,47089,53387,53884,54381,54713,55210,55707,56039,63829,82890
DistanceSpacing: 1
BeatDivisor: 4
GridSize: 32
TimelineZoom: 1.1

[Metadata]
Title:No.1 (TV Size)
TitleUnicode:No.1 (TV Size)
Artist:DISH//
ArtistUnicode:DISH//
Creator:-karUpA-
Version:Normal
Source:僕のヒーローアカデミア
Tags:Ninjaking311 op opening my hero academia bnha season 5 boku no japanese anime j-rock jrock rock
BeatmapID:3353307
BeatmapSetID:1642834

[Difficulty]
HPDrainRate:3
CircleSize:3.3
OverallDifficulty:4
ApproachRate:5
SliderMultiplier:1.09
SliderTickRate:1

[Events]
//Background and Video events
0,0,"okkkkkkkk.png",0,0
Video,0,"bnh720.mp4"
//Break Periods
//Storyboard Layer 0 (Background)
//Storyboard Layer 1 (Fail)
//Storyboard Layer 2 (Pass)
//Storyboard Layer 3 (Foreground)
//Storyboard Layer 4 (Overlay)
//Storyboard Sound Samples

[TimingPoints]
183,331.491712707182,4,2,1,50,1,0
183,-100,4,2,1,50,0,0
4823,-100,4,2,1,50,0,0
5155,-100,4,2,1,60,0,0
5486,-100,4,2,1,60,0,0
9464,-100,4,2,1,60,0,0
10790,-100,4,2,1,75,0,0
16094,-100,4,2,1,60,0,0
37310,-100,4,2,1,70,0,0
50901,-100,4,2,1,70,0,0
51232,-100,4,2,1,70,0,0
51564,-100,4,2,1,70,0,0
52227,-100,4,2,1,70,0,0
53221,-100,4,2,1,75,0,0
57696,-100,4,2,1,60,0,0
58525,-100,4,2,1,85,0,1
69133,-100,4,2,1,75,0,0
72779,-100,4,2,1,85,0,0
73276,-100,4,2,1,85,0,0
74437,-100,4,2,1,85,0,1
79741,-100,4,2,1,70,0,0
85044,-100,4,2,1,75,0,0
87696,-100,4,2,1,60,0,0

[Colours]
Combo1 : 128,128,192
Combo2 : 128,255,255
Combo3 : 0,128,128
Combo4 : 0,128,255

[HitObjects]
36,238,5155,5,14,0:0:0:0:
90,334,5486,2,0,L|198:323,1,109,0|0,1:2|1:2,0:0:0:0:
289,258,6149,2,0,P|339:292|403:278,1,109,0|0,1:2|1:2,0:0:0:0:
492,322,6812,2,0,P|494:267|459:222,1,109,0|2,1:2|1:2,0:0:0:0:
376,159,7475,1,2,1:2:0:0:
470,103,7807,1,2,1:2:0:0:
383,37,8138,6,0,B|319:61|339:22|268:40,1,109,0|0,1:2|1:2,0:0:0:0:
196,111,8801,2,0,B|152:88|152:88|83:119,1,109,0|0,1:2|1:2,0:0:0:0:
52,92,9299,1,14,0:0:0:0:
52,92,9464,1,2,0:0:0:0:
411,338,10790,6,0,L|284:311,1,109,6|8,1:2|0:0,0:0:0:0:
256,341,11287,2,0,P|202:370|147:355,1,109,6|8,1:2|0:0,0:0:0:0:
106,381,11785,1,6,1:2:0:0:
26,306,12116,1,8,0:0:0:0:
26,306,12282,2,0,B|34:261|34:261|23:230|23:230|31:196,1,109,2|8,1:2|0:0,0:0:0:0:
15,147,12779,2,0,P|87:180|119:162,1,109,2|8,1:2|0:0,0:0:0:0:
199,114,13442,6,0,L|190:230,1,109,6|8,1:2|0:0,0:0:0:0:
217,270,13939,2,0,B|283:277|267:240|326:256,1,109,6|8,1:2|0:0,0:0:0:0:
373,274,14437,1,6,1:2:0:0:
435,187,14768,1,8,0:0:0:0:
435,187,14934,2,0,P|444:143|379:106,1,109,6|8,1:2|0:0,0:0:0:0:
349,111,15431,1,8,0:0:0:0:
349,111,15597,1,2,1:2:0:0:
200,42,16094,6,0,L|72:82,1,109,6|2,1:2|1:2,0:0:0:0:
21,153,16757,2,0,P|-10:226|15:263,1,109,0|0,1:2|1:2,0:0:0:0:
0,351,17420,2,0,P|46:338|118:338,1,109,2|2,1:2|1:2,0:0:0:0:
198,276,18083,1,0,1:2:0:0:
275,353,18415,1,0,1:2:0:0:
349,273,18746,6,0,P|350:206|362:140,1,109,2|2,1:2|1:2,0:0:0:0:
263,106,19409,1,2,1:2:0:0:
326,17,19741,1,2,1:2:0:0:
422,68,20072,2,0,P|469:109|469:163,1,109,2|0,1:2|1:2,0:0:0:0:
493,202,20569,2,0,P|464:244|463:313,1,109,2|0,0:0|0:0,0:0:0:0:
488,346,21066,1,2,1:2:0:0:
382,319,21398,6,0,B|326:339|326:339|260:312,1,109,2|2,1:2|1:2,0:0:0:0:
184,267,22061,2,0,P|128:327|100:326,1,109,0|0,1:2|1:2,0:0:0:0:
25,254,22724,2,0,L|43:144,2,109,2|2|2,1:2|1:2|1:2,0:0:0:0:
116,194,23718,1,2,1:2:0:0:
106,85,24050,6,0,P|179:97|216:109,1,109,2|0,1:2|1:2,0:0:0:0:
256,139,24547,2,0,P|324:123|370:120,1,109,2|0,0:0|0:0,0:0:0:0:
400,80,25044,1,2,1:2:0:0:
477,156,25376,2,0,L|451:271,1,109,2|0,1:2|1:2,0:0:0:0:
455,316,25873,2,0,P|419:285|353:293,1,109,2|0,0:0|0:0,0:0:0:0:
323,328,26370,1,2,1:2:0:0:
252,243,26702,6,0,L|268:127,1,109,2|2,1:2|1:2,0:0:0:0:
183,64,27365,2,0,L|168:171,1,109,0|0,1:2|1:2,0:0:0:0:
252,243,28028,1,2,1:2:0:0:
349,194,28359,1,2,1:2:0:0:
432,264,28691,2,0,P|387:318|345:318,1,109,0|0,1:2|1:2,0:0:0:0:
249,355,29354,6,0,L|129:332,1,109,2|2,1:2|1:2,0:0:0:0:
69,252,30017,1,2,1:2:0:0:
107,150,30348,1,2,1:2:0:0:
215,161,30680,2,0,P|267:137|334:166,1,109,2|0,1:2|1:2,0:0:0:0:
404,211,31343,1,2,1:2:0:0:
481,134,31674,1,2,1:2:0:0:
398,62,32006,6,0,P|339:15|253:46,1,163.5,2|2,1:2|0:0,0:0:0:0:
208,56,32669,1,2,1:2:0:0:
109,9,33000,1,0,1:2:0:0:
15,65,33332,2,0,P|36:96|5:214,1,163.5,2|0,1:2|0:0,0:0:0:0:
17,264,33995,1,2,1:2:0:0:
116,217,34326,1,2,1:2:0:0:
192,294,34658,6,0,B|260:312|242:268|306:289,1,109,2|0,1:2|1:2,0:0:0:0:
337,324,35155,2,0,L|353:203,1,109,2|0,0:0|0:0,0:0:0:0:
320,170,35652,1,2,1:2:0:0:
410,108,35984,2,0,L|478:124,1,54.5,0|8,1:2|3:0,0:0:0:0:
505,162,36315,1,0,1:2:0:0:
505,162,36481,1,4,3:0:0:0:
457,318,36978,1,8,0:0:0:0:
375,245,37310,6,0,L|258:262,1,109,6|10,1:2|0:0,0:0:0:0:
194,339,37973,2,0,L|135:323,1,54.5,0|0,1:2|1:2,0:0:0:0:
91,345,38304,1,8,0:0:0:0:
4,278,38636,2,0,P|5:218|47:186,1,109,2|10,1:2|0:0,0:0:0:0:
111,104,39299,2,0,P|170:127|176:128,1,54.5,0|0,1:2|1:2,0:0:0:0:
207,153,39630,1,8,0:0:0:0:
309,114,39962,6,0,P|299:193|295:240,2,109,2|10|2,1:2|0:0|1:2,0:0:0:0:
355,85,40790,1,0,1:2:0:0:
355,85,40956,1,10,0:0:0:0:
448,116,41287,2,0,P|474:178|459:220,1,109,0|8,1:2|0:0,0:0:0:0:
473,273,41785,1,2,0:0:0:0:
473,273,41950,2,0,L|460:339,2,54.5,2|2|10,1:2|1:2|0:0,0:0:0:0:
365,252,42613,6,0,L|383:129,1,109,2|10,1:2|0:0,0:0:0:0:
290,82,43276,2,0,P|313:75|354:58,2,54.5,0|0|10,1:2|1:2|0:0,0:0:0:0:
224,169,43939,2,0,B|150:180|182:139|98:157,1,109,2|10,1:2|0:0,0:0:0:0:
78,51,44602,1,2,1:2:0:0:
12,138,44934,1,10,0:0:0:0:
67,232,45265,6,0,P|54:291|42:345,1,109,0|8,1:2|0:0,0:0:0:0:
98,343,45763,2,0,B|142:325|142:325|207:361,1,109,2|2,0:0|1:2,0:0:0:0:
248,368,46260,1,10,0:0:0:0:
263,260,46591,2,0,L|389:287,1,109,2|10,1:2|0:0,0:0:0:0:
407,322,47089,2,0,P|406:266|453:237,1,109,2|2,0:0|1:2,0:0:0:0:
498,253,47586,1,8,0:0:0:0:
444,158,47917,6,0,L|461:50,1,109,2|10,1:2|0:0,0:0:0:0:
359,9,48580,2,0,P|316:32|301:35,1,54.5,0|0,1:2|1:2,0:0:0:0:
263,60,48912,1,8,0:0:0:0:
160,22,49243,2,0,P|136:70|155:131,1,109,2|10,1:2|0:0,0:0:0:0:
129,172,49741,1,0,1:2:0:0:
129,172,49906,2,0,L|60:154,2,54.5,8|0|6,0:0|1:2|3:0,0:0:0:0:
85,272,50569,5,6,1:2:0:0:
186,312,50901,1,6,1:2:0:0:
262,234,51232,1,6,1:2:0:0:
217,134,51564,2,0,B|306:100|292:155|388:122,1,163.5,6|0,1:2|0:0,0:0:0:0:
426,103,52227,2,0,P|402:157|435:212,1,109,10|10,0:0|0:0,0:0:0:0:
505,268,52890,1,6,3:3:0:0:
421,337,53221,6,0,P|382:324|256:291,2,163.5,6|2|2,1:2|1:2|1:2,0:0:0:0:
505,268,54547,2,0,B|508:224|508:224|488:200|488:200|489:161,1,109,6|8,1:2|0:0,0:0:0:0:
485,111,55044,2,0,P|432:99|382:144,1,109,2|8,1:2|0:0,0:0:0:0:
353,169,55542,1,2,1:2:0:0:
285,85,55873,6,0,P|220:91|164:98,1,109,6|10,1:2|0:0,0:0:0:0:
125,76,56370,2,0,P|94:116|104:191,1,109,8|10,0:0|0:0,0:0:0:0:
74,223,56868,1,10,0:0:0:0:
125,324,57199,1,14,1:2:0:0:
125,324,57365,1,6,1:2:0:0:
426,74,58525,6,0,L|406:196,1,109,6|10,1:2|0:0,0:0:0:0:
439,226,59022,2,0,B|369:225|400:194|321:196,1,109,2|2,0:0|1:2,0:0:0:0:
264,276,59685,1,2,0:0:0:0:
175,211,60017,1,2,0:0:0:0:
85,272,60348,1,2,0:0:0:0:
85,272,60514,2,0,L|69:209,1,54.5,2|2,1:2|1:2,0:0:0:0:
26,187,60845,2,0,L|41:113,1,54.5,10|2,0:0|0:0,0:0:0:0:
22,80,61177,6,0,P|106:59|131:80,1,109,2|10,1:2|0:0,0:0:0:0:
155,107,61674,2,0,P|206:121|251:94,1,109,2|2,0:0|1:2,0:0:0:0:
289,54,62171,1,10,0:0:0:0:
289,54,62337,2,0,B|395:41|348:87|453:79,1,163.5,2|8,1:2|0:0,0:0:0:0:
504,172,63166,2,0,L|486:232,1,54.5,2|2,1:2|1:2,0:0:0:0:
467,274,63497,1,10,0:0:0:0:
467,274,63663,6,0,P|424:234|361:250,1,109,2|0,0:0|0:0,0:0:0:0:
338,276,64160,1,10,0:0:0:0:
338,276,64326,1,2,0:0:0:0:
275,186,64658,1,2,1:2:0:0:
362,120,64989,1,2,0:0:0:0:
270,60,65321,2,0,P|215:90|157:70,1,109,2|2,1:2|0:0,0:0:0:0:
77,25,65984,2,0,P|49:70|71:140,1,109,2|2,1:2|0:0,0:0:0:0:
82,171,66481,6,0,L|59:288,2,109,2|10|2,1:2|0:0|1:2,0:0:0:0:
159,93,67475,1,10,0:0:0:0:
245,159,67807,2,0,P|348:165|389:119,1,163.5,0|0,1:2|0:0,0:0:0:0:
424,87,68470,2,0,L|438:166,1,54.5,8|8,0:0|3:0,0:0:0:0:
470,180,68801,2,0,L|456:259,1,54.5,8|0,3:0|1:2,0:0:0:0:
426,276,69133,6,0,L|443:355,2,72.6666666666667,6|2|2,1:2|2:2|2:2,0:0:0:0:
373,225,69796,2,0,B|301:220|329:253|247:242,1,109,8|0,0:0|0:0,0:0:0:0:
184,172,70459,2,0,B|168:87,2,72.6666666666667,2|2|2,1:2|2:2|2:2,0:0:0:0:
148,235,71122,2,0,P|131:287|56:292,1,109,10|0,0:0|0:0,0:0:0:0:
14,217,71785,6,0,P|17:135|-3:112,1,109,2|2,1:2|0:0,0:0:0:0:
58,23,72448,1,10,0:0:0:0:
153,74,72779,2,0,P|216:98|293:42,1,163.5,14|8,1:2|0:0,0:0:0:0:
341,29,73442,1,2,0:0:0:0:
408,116,73774,2,0,L|391:188,1,54.5,10|0,0:0|1:2,0:0:0:0:
359,210,74105,2,0,L|376:282,1,54.5,10|8,0:0|0:0,0:0:0:0:
348,312,74437,6,0,P|295:288|223:286,2,109,4|8|0,1:2|0:0|1:2,0:0:0:0:
434,380,75431,1,8,0:0:0:0:
491,287,75763,1,0,1:2:0:0:
403,222,76094,2,0,P|419:155|430:106,1,109,10|2,0:0|1:2,0:0:0:0:
346,43,76757,1,10,0:0:0:0:
257,106,77089,6,0,P|193:89|137:86,1,109,12|8,0:0|0:0,0:0:0:0:
58,26,77752,2,0,P|32:71|49:134,1,109,8|8,0:0|0:0,0:0:0:0:
75,175,78249,1,2,1:2:0:0:
75,175,78415,2,0,P|52:228|54:245,1,54.5,14|0,0:0|1:2,0:0:0:0:
21,268,78746,2,0,P|84:253|131:287,1,109,10|10,0:0|0:0,0:0:0:0:
191,356,79409,2,0,L|206:293,1,54.5,10|10,0:0|0:0,0:0:0:0:
237,259,79741,6,0,B|289:240|289:240|347:274,1,109,6|10,1:2|0:0,0:0:0:0:
364,319,80238,1,2,0:0:0:0:
364,319,80403,2,0,L|422:312,1,54.5,2|2,1:2|1:2,0:0:0:0:
471,325,80735,1,10,0:0:0:0:
503,214,81066,2,0,P|461:164|400:174,1,109,0|10,1:2|0:0,0:0:0:0:
367,176,81564,1,0,0:0:0:0:
367,176,81729,2,0,L|308:156,1,54.5,2|2,1:2|1:2,0:0:0:0:
264,179,82061,1,10,0:0:0:0:
183,105,82392,6,0,L|307:81,1,109,2|8,1:2|0:0,0:0:0:0:
307,32,82890,2,0,L|424:60,1,109,2|0,0:0|1:2,0:0:0:0:
457,25,83387,2,0,L|468:100,1,54.5,10|0,0:0|1:2,0:0:0:0:
489,127,83718,2,0,P|464:190|477:245,2,109,2|10|2,0:0|0:0|1:2,0:0:0:0:
382,139,84713,2,0,P|331:155|310:153,1,54.5,10|2,0:0|1:2,0:0:0:0:
280,133,85044,6,0,B|252:140|223:120|223:120|222:151|186:174,1,109,6|8,1:2|0:0,0:0:0:0:
147,154,85542,2,0,L|163:278,1,109,6|8,1:2|0:0,0:0:0:0:
117,295,86039,1,6,1:2:0:0:
204,369,86370,1,8,0:0:0:0:
204,369,86536,2,0,P|259:346|324:368,1,109,6|8,1:2|0:0,0:0:0:0:
356,374,87033,2,0,L|383:259,1,109,6|8,1:2|0:0,0:0:0:0:
454,187,87696,6,0,L|429:65,1,109,2|2,0:0|0:0,0:0:0:0:
390,44,88194,2,0,P|320:75|281:60,1,109,2|2,0:0|0:0,0:0:0:0:
253,37,88691,1,2,0:0:0:0:
253,37,88857,1,2,0:0:0:0:
