osu file format v14

[General]
AudioFilename: audio.mp3
AudioLeadIn: 0
PreviewTime: 57551
Countdown: 0
SampleSet: Soft
StackLeniency: 0.6
Mode: 0
LetterboxInBreaks: 0
WidescreenStoryboard: 1

[Editor]
DistanceSpacing: 1.2
BeatDivisor: 4
GridSize: 32
TimelineZoom: 3.999998

[Metadata]
Title:No.1 (TV Size)
TitleUnicode:No.1 (TV Size)
Artist:DISH//
ArtistUnicode:DISH//
Creator:-karUpA-
Version:Ninja's Plus Ultra
Source:僕のヒーローアカデミア
Tags:Ninjaking311 op opening my hero academia bnha season 5 boku no japanese anime j-rock jrock rock
BeatmapID:3370728
BeatmapSetID:1642834

[Difficulty]
HPDrainRate:6
CircleSize:4.2
OverallDifficulty:9
ApproachRate:9.2
SliderMultiplier:1.7
SliderTickRate:1

[Events]
//Background and Video events
0,0,"okkkkkkkk.png",0,0
Video,0,"bnh720.mp4"
//Break Periods
//Storyboard Layer 0 (Background)
//Storyboard Layer 1 (Fail)
//Storyboard Layer 2 (Pass)
//Storyboard Layer 3 (Foreground)
//Storyboard Layer 4 (Overlay)
//Storyboard Sound Samples

[TimingPoints]
183,331.491712707182,4,2,1,50,1,0
183,-166.666666666667,4,2,1,50,0,0
3083,-166.666666666667,4,2,1,5,0,0
3166,-166.666666666667,4,2,1,50,0,0
3415,-166.666666666667,4,2,1,5,0,0
3497,-166.666666666667,4,2,1,50,0,0
3746,-166.666666666667,4,2,1,5,0,0
3829,-166.666666666667,4,2,1,50,0,0
4409,-166.666666666667,4,2,1,50,0,0
4492,-166.666666666667,4,2,1,50,0,0
4741,-166.666666666667,4,2,1,50,0,0
4823,-166.666666666667,4,2,1,50,0,0
5072,-166.666666666667,4,2,1,5,0,0
5155,-83.3333333333333,4,2,1,60,0,0
5403,-83.3333333333333,4,2,1,5,0,0
5486,-117.647058823529,4,2,1,60,0,0
9464,-117.647058823529,4,2,1,60,0,0
10790,-90.9090909090909,4,2,1,75,0,0
16094,-133.333333333333,4,2,1,60,0,0
18746,-133.333333333333,4,2,1,60,0,0
22724,-133.333333333333,4,2,1,60,0,0
29188,-133.333333333333,4,2,1,60,0,0
29354,-133.333333333333,4,2,1,60,0,0
34658,-133.333333333333,4,2,1,60,0,0
36647,-200,4,2,1,60,0,0
37310,-90.9090909090909,4,2,1,70,0,0
37558,-90.9090909090909,4,2,1,5,0,0
37641,-117.647058823529,4,2,1,70,0,0
39630,-117.647058823529,4,2,1,70,0,0
42613,-117.647058823529,4,2,1,70,0,0
46592,-117.647058823529,4,2,1,70,0,0
47420,-117.647058823529,4,2,1,70,0,0
50486,-117.647058823529,4,2,1,70,0,0
50569,-90.9090909090909,4,2,1,70,0,0
50818,-90.9090909090909,4,2,1,5,0,0
50901,-90.9090909090909,4,2,1,70,0,0
51149,-90.9090909090909,4,2,1,5,0,0
51232,-90.9090909090909,4,2,1,70,0,0
51481,-90.9090909090909,4,2,1,5,0,0
51564,-117.647058823529,4,2,1,70,0,0
52227,-117.647058823529,4,2,1,70,0,0
53221,-105.263157894737,4,2,1,75,0,0
57696,-105.263157894737,4,2,1,60,0,0
58525,-83.3333333333333,4,2,1,85,0,0
59188,-90.9090909090909,4,2,1,85,0,0
61177,-90.9090909090909,4,2,1,85,0,0
61426,-90.9090909090909,4,2,1,5,0,0
61508,-90.9090909090909,4,2,1,85,0,0
63829,-90.9090909090909,4,2,1,85,0,0
65901,-90.9090909090909,4,2,1,5,0,0
65984,-90.9090909090909,4,2,1,85,0,0
69133,-105.263157894737,4,2,1,75,0,0
69299,-105.263157894737,4,2,1,5,0,0
69354,-105.263157894737,4,2,1,75,0,0
69520,-105.263157894737,4,2,1,5,0,0
69575,-105.263157894737,4,2,1,75,0,0
69962,-105.263157894737,4,2,1,5,0,0
70017,-105.263157894737,4,2,1,75,0,0
70182,-105.263157894737,4,2,1,5,0,0
70238,-105.263157894737,4,2,1,75,0,0
70680,-105.263157894737,4,2,1,75,0,0
70845,-105.263157894737,4,2,1,5,0,0
70901,-105.263157894737,4,2,1,75,0,0
71343,-105.263157894737,4,2,1,75,0,0
71508,-105.263157894737,4,2,1,5,0,0
71564,-105.263157894737,4,2,1,75,0,0
72033,-105.263157894737,4,2,1,75,0,0
72116,-105.263157894737,4,2,1,75,0,0
72365,-105.263157894737,4,2,1,75,0,0
72448,-105.263157894737,4,2,1,75,0,0
72696,-105.263157894737,4,2,1,75,0,0
72779,-90.9090909090909,4,2,1,85,0,0
73442,-105.263157894737,4,2,1,85,0,0
74437,-83.3333333333333,4,2,1,85,0,0
75265,-90.9090909090909,4,2,1,85,0,0
76011,-90.9090909090909,4,2,1,5,0,0
76094,-90.9090909090909,4,2,1,85,0,0
77089,-90.9090909090909,4,2,1,85,0,1
78415,-90.9090909090909,4,2,1,85,0,1
79078,-83.3333333333333,4,2,1,85,0,1
79741,-83.3333333333333,4,2,1,70,0,0
80238,-90.9090909090909,4,2,1,70,0,0
82393,-90.9090909090909,4,2,1,70,0,0
85044,-83.3333333333333,4,2,1,75,0,0
85045,-83.3333333333333,4,2,1,75,0,0
87696,-142.857142857143,4,2,1,60,0,0

[Colours]
Combo1 : 128,128,192
Combo2 : 128,255,255
Combo3 : 0,128,128
Combo4 : 0,128,255

[HitObjects]
23,103,183,38,0,P|12:66|1:31,2,67.9999979248048,2|2|2,0:0|0:0|0:0,0:0:0:0:
86,0,845,2,0,P|96:36|105:73,2,67.9999979248048,2|2|2,0:0|0:0|0:0,0:0:0:0:
271,176,1508,6,0,P|282:139|290:111,2,67.9999979248048,2|2|2,0:0|0:0|0:0,0:0:0:0:
208,73,2171,2,0,P|197:109|186:140,2,67.9999979248048,2|2|2,0:0|0:0|0:0,0:0:0:0:
45,180,2834,6,0,P|81:191|117:204,1,76.4999976654053,2|0,0:0|0:0,0:0:0:0:
183,233,3166,2,0,P|147:244|111:257,1,76.4999976654053,2|0,0:0|0:0,0:0:0:0:
45,286,3497,2,0,P|81:297|117:310,1,76.4999976654053,2|0,0:0|0:0,0:0:0:0:
132,384,3829,6,0,L|96:183,1,203.999993774414,2|2,0:0|0:0,0:0:0:0:
281,68,4823,2,0,L|265:142,1,76.4999976654053,2|0,0:0|0:0,0:0:0:0:
195,217,5155,6,0,P|258:177|332:188,1,152.999995330811,14|0,0:0|0:0,0:0:0:0:
428,207,5486,6,0,P|415:172|405:138,1,72.2500013780594,0|0,1:2|0:0,0:0:0:0:
275,261,5818,2,0,P|309:271|343:283,1,72.2500013780594,0|0,1:2|0:0,0:0:0:0:
249,142,6149,2,0,P|214:155|180:165,1,72.2500013780594,0|0,1:2|0:0,0:0:0:0:
99,259,6481,2,0,P|64:246|30:236,1,72.2500013780594,0|0,1:2|0:0,0:0:0:0:
218,41,6812,6,0,P|227:75|239:109,1,72.2500013780594,0|0,1:2|0:0,0:0:0:0:
385,205,7144,2,0,P|403:174|405:138,1,72.2500013780594,2|0,1:2|0:0,0:0:0:0:
277,276,7475,2,0,P|293:307|323:327,1,72.2500013780594,2|0,1:2|0:0,0:0:0:0:
269,146,7807,2,0,P|234:144|201:160,1,72.2500013780594,2|0,1:2|0:0,0:0:0:0:
60,325,8138,6,0,P|49:290|37:256,1,72.2500013780594,0|0,1:2|1:2,0:0:0:0:
0,369,8470,1,0,1:2:0:0:
100,216,8636,1,0,1:2:0:0:
245,287,8801,1,0,1:2:0:0:
269,146,8967,1,0,1:2:0:0:
99,316,9133,1,0,1:2:0:0:
37,61,9299,1,14,0:0:0:0:
130,181,9464,6,0,L|147:175,1,18.0625003445149,2|2,0:0|0:0,0:0:0:0:
356,17,10790,5,6,1:2:0:0:
364,28,10956,6,0,L|348:75,1,46.7500014266968,8|8,0:0|0:0,0:0:0:0:
265,156,11122,2,0,L|250:111,1,46.7500014266968,8|8,0:0|0:0,0:0:0:0:
390,189,11287,1,6,1:2:0:0:
403,182,11453,6,0,L|358:167,1,46.7500014266968,8|8,0:0|0:0,0:0:0:0:
227,289,11619,2,0,L|271:274,1,46.7500014266968,8|8,0:0|0:0,0:0:0:0:
157,183,11785,1,6,1:2:0:0:
99,241,11950,5,8,0:0:0:0:
75,201,12032,1,8,0:0:0:0:
77,157,12115,1,8,0:0:0:0:
104,120,12198,1,8,0:0:0:0:
145,105,12281,1,2,1:2:0:0:
34,14,12448,6,0,L|18:61,1,46.7500014266968,8|8,0:0|0:0,0:0:0:0:
192,13,12613,2,0,L|206:57,1,46.7500014266968,8|8,0:0|0:0,0:0:0:0:
157,183,12779,1,2,1:2:0:0:
144,174,12945,6,0,L|188:159,1,46.7500014266968,8|8,0:0|0:0,0:0:0:0:
309,269,13111,2,0,L|274:238,1,46.7500014266968,8|8,0:0|0:0,0:0:0:0:
309,79,13276,2,0,L|299:124,1,46.7500014266968,0|0,1:2|1:2,0:0:0:0:
173,272,13442,1,6,1:2:0:0:
162,282,13608,6,0,L|206:297,1,46.7500014266968,8|8,0:0|0:0,0:0:0:0:
306,379,13774,2,0,L|350:364,1,46.7500014266968,8|8,0:0|0:0,0:0:0:0:
479,308,13939,1,6,1:2:0:0:
491,303,14105,6,0,L|476:259,1,46.7500014266968,8|8,0:0|0:0,0:0:0:0:
413,165,14271,2,0,L|428:121,1,46.7500014266968,8|8,0:0|0:0,0:0:0:0:
468,0,14436,1,6,1:2:0:0:
475,11,14602,6,0,L|431:24,1,46.7500014266968,8|8,0:0|0:0,0:0:0:0:
457,178,14768,2,0,L|413:165,1,46.7500014266968,8|8,0:0|0:0,0:0:0:0:
512,97,14934,1,4,1:2:0:0:
280,33,15100,5,8,0:0:0:0:
248,55,15182,1,8,0:0:0:0:
235,94,15265,1,8,0:0:0:0:
250,132,15347,1,8,0:0:0:0:
267,137,15431,5,8,0:0:0:0:
304,188,15513,1,8,0:0:0:0:
275,246,15596,1,2,1:2:0:0:
212,255,15679,1,0,1:2:0:0:
171,205,15763,2,0,L|193:136,1,46.7500014266968,8|8,3:0|3:0,0:0:0:0:
97,49,15928,2,0,L|119:117,1,46.7500014266968,6|4,3:0|3:0,0:0:0:0:
27,241,16094,5,6,1:2:0:0:
24,227,16426,1,2,1:2:0:0:
21,214,16757,1,0,1:2:0:0:
18,201,17089,1,0,1:2:0:0:
158,361,17420,5,2,1:2:0:0:
161,348,17752,1,2,1:2:0:0:
164,335,18083,1,0,1:2:0:0:
167,321,18415,1,0,1:2:0:0:
291,208,18580,5,2,0:0:0:0:
291,208,18663,1,2,0:0:0:0:
291,208,18746,1,2,1:2:0:0:
246,283,19078,1,2,1:2:0:0:
171,238,19409,1,2,1:2:0:0:
216,163,19741,1,2,1:2:0:0:
136,57,20072,6,0,P|76:78|14:96,1,127.500004863739,2|0,1:2|1:2,0:0:0:0:
39,179,20569,2,0,P|99:157|160:140,1,127.500004863739,2|0,0:2|0:2,0:0:0:0:
207,76,21066,1,2,1:2:0:0:
176,277,21398,5,2,1:2:0:0:
173,263,21730,1,2,1:2:0:0:
170,250,22061,1,0,1:2:0:0:
167,237,22393,1,0,1:2:0:0:
258,102,22558,5,2,0:0:0:0:
258,102,22641,1,2,0:0:0:0:
258,102,22724,1,2,1:2:0:0:
336,140,23055,1,2,1:2:0:0:
374,62,23387,1,2,1:2:0:0:
296,24,23718,1,2,1:2:0:0:
288,199,24050,6,0,P|348:178|410:160,1,127.500004863739,2|0,1:2|1:2,0:0:0:0:
312,277,24547,2,0,P|372:256|434:238,1,127.500004863739,2|0,0:0|0:0,0:0:0:0:
483,181,25044,1,2,1:2:0:0:
312,277,25376,6,0,P|252:256|190:238,1,127.500004863739,2|0,1:2|1:2,0:0:0:0:
288,355,25873,2,0,P|228:334|166:316,1,127.500004863739,2|0,0:0|0:0,0:0:0:0:
117,259,26370,1,2,1:2:0:0:
242,114,26536,5,2,1:2:0:0:
238,116,26619,1,0,1:2:0:0:
234,118,26702,2,0,P|265:110|298:98,1,63.7500024318696,2|0,1:2|0:0,0:0:0:0:
129,41,27033,2,0,P|98:33|65:21,1,63.7500024318696,2|0,1:2|0:0,0:0:0:0:
142,134,27365,2,0,P|128:205|105:279,1,127.500004863739,0|0,1:2|1:2,0:0:0:0:
297,301,28028,5,2,1:2:0:0:
197,264,28194,1,0,0:0:0:0:
270,220,28359,1,2,1:2:0:0:
224,345,28525,1,0,0:0:0:0:
217,361,28857,1,0,0:0:0:0:
270,220,29022,1,0,1:2:0:0:
402,376,29188,5,2,0:0:0:0:
400,372,29271,1,2,0:0:0:0:
398,368,29354,2,0,P|428:357|458:349,1,63.7500024318696,2|0,1:2|0:0,0:0:0:0:
337,234,29685,2,0,P|307:245|277:253,1,63.7500024318696,2|0,1:2|0:0,0:0:0:0:
401,162,30017,2,0,P|409:192|420:222,1,63.7500024318696,2|0,1:2|0:0,0:0:0:0:
260,384,30348,2,0,P|251:353|240:323,1,63.7500024318696,2|0,1:2|0:0,0:0:0:0:
387,291,30680,6,0,P|326:270|265:251,2,127.500004863739,2|0|2,1:2|1:2|1:2,0:0:0:0:
295,357,31674,1,2,1:2:0:0:
165,207,31840,5,2,1:2:0:0:
167,211,31923,1,0,1:2:0:0:
169,215,32006,2,0,P|108:233|47:254,1,127.500004863739,2|0,1:2|1:2,0:0:0:0:
11,156,32503,1,2,0:0:0:0:
11,156,32669,2,0,P|71:138|132:117,1,127.500004863739,2|0,1:2|1:2,0:0:0:0:
252,257,33166,1,2,0:0:0:0:
252,257,33332,2,0,P|270:195|290:135,1,127.500004863739,2|0,1:2|1:2,0:0:0:0:
120,11,33995,2,0,P|140:71|158:132,1,127.500004863739,2|2,1:2|1:2,0:0:0:0:
325,13,34492,5,2,0:0:0:0:
323,17,34575,1,2,0:0:0:0:
321,21,34658,2,0,P|381:41|442:58,1,127.500004863739,2|0,1:2|1:2,0:0:0:0:
397,215,35321,2,0,P|336:194|275:177,1,127.500004863739,0|2,1:2|1:2,0:0:0:0:
276,178,35984,5,0,1:2:0:0:
397,215,36149,1,8,3:0:0:0:
351,105,36315,1,0,1:2:0:0:
302,279,36481,1,4,3:0:0:0:
270,167,36647,6,0,L|173:199,1,85,2|8,0:0|0:0,0:0:0:0:
416,375,37310,6,0,P|460:322|454:254,1,140.25000428009,6|0,1:2|0:0,0:0:0:0:
377,206,37641,2,0,P|365:240|353:274,1,72.2500013780594,10|0,0:0|0:0,0:0:0:0:
253,384,37972,1,0,1:2:0:0:
284,236,38138,1,0,1:2:0:0:
405,380,38304,2,0,P|370:367|336:356,1,72.2500013780594,8|2,0:0|0:0,0:0:0:0:
159,384,38636,6,0,P|171:349|180:315,1,72.2500013780594,2|0,1:2|0:0,0:0:0:0:
55,201,38967,2,0,P|68:234|79:269,1,72.2500013780594,10|0,0:0|0:0,0:0:0:0:
45,381,39299,1,0,1:2:0:0:
190,236,39464,1,0,1:2:0:0:
190,236,39547,1,0,1:2:0:0:
190,236,39630,1,8,0:0:0:0:
159,384,39796,1,2,0:0:0:0:
2,244,39962,6,0,P|14:210|26:176,1,72.2500013780594,2|0,1:2|0:0,0:0:0:0:
148,67,40293,2,0,P|160:101|172:135,1,72.2500013780594,10|0,0:0|0:0,0:0:0:0:
252,272,40624,1,2,1:2:0:0:
108,196,40790,1,0,1:2:0:0:
291,105,40956,2,0,P|279:139|267:173,1,72.2500013780594,10|0,0:0|0:0,0:0:0:0:
381,348,41287,6,0,P|433:302|503:308,1,144.500002756119,0|8,1:2|0:0,0:0:0:0:
359,232,41785,1,2,0:0:0:0:
460,379,41950,1,2,1:2:0:0:
512,207,42116,1,2,1:2:0:0:
369,329,42282,1,10,0:0:0:0:
291,105,42448,5,2,0:0:0:0:
291,105,42531,1,2,0:0:0:0:
291,105,42613,2,0,P|325:93|359:81,1,72.2500013780594,2|0,1:2|0:0,0:0:0:0:
216,202,42945,2,0,P|182:190|148:178,1,72.2500013780594,10|0,0:0|0:0,0:0:0:0:
37,102,43276,1,0,1:2:0:0:
94,264,43442,1,0,1:2:0:0:
25,90,43608,6,0,P|59:78|93:66,1,72.2500013780594,10|0,0:0|0:0,0:0:0:0:
127,252,43939,2,0,P|100:227|73:203,1,72.2500013780594,2|0,1:2|0:0,0:0:0:0:
217,82,44271,2,0,P|208:117|201:152,1,72.2500013780594,10|0,0:0|0:0,0:0:0:0:
261,234,44602,1,2,1:2:0:0:
123,139,44768,1,0,1:2:0:0:
60,367,44934,2,0,P|128:343|197:322,1,144.500002756119,10|0,0:0|1:2,0:0:0:0:
422,22,45597,5,8,0:0:0:0:
442,138,45763,2,0,P|372:114|304:93,1,144.500002756119,2|2,0:0|1:2,0:0:0:0:
196,24,46260,1,10,0:0:0:0:
229,213,46426,1,2,0:0:0:0:
254,204,46508,1,2,0:0:0:0:
278,197,46591,5,2,1:2:0:0:
121,91,46757,2,0,P|133:125|145:159,1,72.2500013780594,0|10,1:2|0:0,0:0:0:0:
8,313,47089,2,0,L|19:278,1,36.1250006890297,2|2,0:0|0:0,0:0:0:0:
80,206,47254,2,0,L|91:240,1,36.1250006890297,2|2,1:2|0:0,0:0:0:0:
159,345,47420,2,0,P|125:333|91:321,1,72.2500013780594,2|8,1:2|0:0,0:0:0:0:
190,210,47752,1,2,0:0:0:0:
302,384,47917,6,0,P|336:372|370:360,1,72.2500013780594,2|0,1:2|0:0,0:0:0:0:
479,234,48249,2,0,P|445:222|411:210,1,72.2500013780594,10|0,0:0|0:0,0:0:0:0:
481,330,48580,1,0,1:2:0:0:
341,282,48746,1,0,1:2:0:0:
470,135,48912,2,0,P|482:169|494:203,1,72.2500013780594,8|2,0:0|0:0,0:0:0:0:
331,25,49243,2,0,P|319:59|307:93,1,72.2500013780594,2|0,1:2|1:2,0:0:0:0:
240,263,49575,5,10,0:0:0:0:
189,76,49741,1,0,1:2:0:0:
156,319,49906,5,8,0:0:0:0:
90,77,50072,1,0,1:2:0:0:
0,275,50238,2,0,P|34:263|68:251,1,72.2500013780594,6|0,3:0|0:0,0:0:0:0:
253,384,50569,6,0,P|242:317|290:268,1,140.25000428009,6|0,1:2|0:0,0:0:0:0:
393,268,50901,6,0,P|404:201|356:152,1,140.25000428009,6|0,1:2|0:0,0:0:0:0:
296,69,51232,6,0,B|247:101|247:101|270:183,1,140.25000428009,6|0,1:2|0:0,0:0:0:0:
393,268,51564,6,0,P|268:220|107:224,1,289.000005512238,6|10,1:2|0:0,0:0:0:0:
277,368,52392,1,8,0:0:0:0:
287,338,52474,1,8,0:0:0:0:
297,308,52558,1,10,0:0:0:0:
159,188,52725,1,8,3:3:0:0:
207,307,52890,1,6,3:3:0:0:
284,205,53055,1,0,0:0:0:0:
82,290,53221,5,6,1:2:0:0:
67,298,53387,6,0,L|52:254,1,40.3749989218712,8|8,0:0|0:0,0:0:0:0:
159,188,53553,2,0,L|145:226,1,40.3749989218712,8|8,0:0|0:0,0:0:0:0:
28,126,53718,1,2,1:2:0:0:
16,116,53884,6,0,L|54:102,1,40.3749989218712,8|8,0:0|0:0,0:0:0:0:
186,48,54050,2,0,L|148:34,1,40.3749989218712,8|8,0:0|0:0,0:0:0:0:
0,0,54216,1,2,1:2:0:0:
242,179,54381,1,8,0:0:0:0:
266,142,54463,1,8,0:0:0:0:
254,100,54546,5,6,1:2:0:0:
443,20,54713,2,0,L|429:58,1,40.3749989218712,8|8,0:0|0:0,0:0:0:0:
373,153,54879,2,0,L|387:191,1,40.3749989218712,8|8,0:0|0:0,0:0:0:0:
445,336,55044,1,2,1:2:0:0:
503,282,55210,5,8,0:0:0:0:
463,258,55292,1,8,0:0:0:0:
419,260,55375,1,8,0:0:0:0:
382,287,55458,1,8,0:0:0:0:
367,328,55542,6,0,L|329:314,1,40.3749989218712,2|0,1:2|0:0,0:0:0:0:
247,239,55707,2,0,L|209:253,1,40.3749989218712,10|8,0:0|0:0,0:0:0:0:
93,368,55873,6,0,P|69:335|69:296,1,80.7499978437424,6|8,1:2|0:0,0:0:0:0:
113,232,56122,1,8,0:0:0:0:
128,227,56205,2,0,L|90:213,1,40.3749989218712,10|8,0:0|0:0,0:0:0:0:
40,76,56370,1,8,0:0:0:0:
36,72,56453,1,8,0:0:0:0:
32,68,56537,5,8,0:0:0:0:
55,34,56620,1,8,0:0:0:0:
98,17,56702,1,10,0:0:0:0:
140,32,56785,1,8,0:0:0:0:
143,52,56868,5,10,0:0:0:0:
188,97,56951,1,8,0:0:0:0:
254,83,57034,1,8,0:0:0:0:
278,24,57116,1,8,0:0:0:0:
271,11,57199,5,14,1:2:0:0:
128,227,57365,1,6,1:2:0:0:
267,323,57696,5,2,0:0:0:0:
292,246,57862,1,2,0:0:0:0:
215,216,58028,1,2,0:0:0:0:
184,295,58194,1,2,0:0:0:0:
292,246,58359,2,0,L|283:194,1,40.3749989218712,2|2,0:0|0:0,0:0:0:0:
270,86,58525,6,0,P|254:181|234:291,1,203.999993774414,6|10,1:2|0:0,0:0:0:0:
172,118,59022,1,2,0:0:0:0:
172,118,59105,1,2,0:0:0:0:
172,118,59188,1,0,1:2:0:0:
330,264,59354,2,0,P|374:249|418:236,1,93.5000028533936,2|8,1:2|0:0,0:0:0:0:
278,53,59685,2,0,P|268:98|258:143,1,93.5000028533936,2|0,0:0|1:2,0:0:0:0:
486,114,60017,2,0,P|451:83|417:51,1,93.5000028533936,2|8,0:0|0:0,0:0:0:0:
228,248,60348,5,2,0:0:0:0:
366,147,60514,1,2,1:2:0:0:
197,0,60680,1,2,1:2:0:0:
261,175,60845,1,10,0:0:0:0:
435,0,61011,5,2,0:0:0:0:
435,0,61094,1,2,0:0:0:0:
435,0,61177,2,0,B|365:-14|364:56|303:40,1,140.25000428009,2|0,1:2|0:0,0:0:0:0:
215,17,61508,1,10,0:0:0:0:
401,179,61674,2,0,P|414:134|429:89,1,93.5000028533936,2|0,0:0|1:2,0:0:0:0:
249,156,62006,1,2,1:2:0:0:
441,332,62171,2,0,P|377:268|288:283,1,187.000005706787,10|0,0:0|1:2,0:0:0:0:
225,384,62669,1,0,1:2:0:0:
352,344,62834,1,8,0:0:0:0:
182,196,63000,5,2,0:0:0:0:
246,371,63166,1,2,1:2:0:0:
271,136,63332,1,2,1:2:0:0:
133,287,63497,1,10,0:0:0:0:
277,47,63663,5,2,0:0:0:0:
277,47,63746,1,2,0:0:0:0:
277,47,63829,2,0,P|352:92|347:181,1,187.000005706787,6|10,1:2|0:0,0:0:0:0:
136,89,64326,2,0,P|151:44|164:-1,1,93.5000028533936,2|0,0:0|1:2,0:0:0:0:
16,151,64658,2,0,P|31:196|44:241,1,93.5000028533936,2|8,1:2|0:0,0:0:0:0:
262,337,64989,6,0,P|217:323|172:310,1,93.5000028533936,2|0,0:0|1:2,0:0:0:0:
325,150,65321,2,0,P|337:194|351:239,1,93.5000028533936,2|8,1:2|0:0,0:0:0:0:
512,0,65652,2,0,P|445:-17|392:22,1,140.25000428009,2|0,0:0|0:0,0:0:0:0:
325,150,65984,2,0,P|312:105|298:60,1,93.5000028533936,2|8,1:2|0:0,0:0:0:0:
457,130,66315,1,2,0:0:0:0:
200,282,66481,6,0,P|213:237|226:192,1,93.5000028533936,2|0,1:2|0:0,0:0:0:0:
35,95,66812,2,0,P|48:140|61:185,1,93.5000028533936,10|0,0:0|0:0,0:0:0:0:
182,359,67144,1,2,1:2:0:0:
15,276,67310,1,0,1:2:0:0:
259,195,67475,2,0,P|246:240|233:285,1,93.5000028533936,10|0,0:0|0:0,0:0:0:0:
85,362,67807,5,0,1:2:0:0:
159,185,67973,1,0,1:2:0:0:
296,384,68138,2,0,P|341:371|386:358,1,93.5000028533936,8|0,0:0|0:0,0:0:0:0:
469,156,68470,1,8,0:0:0:0:
295,247,68636,1,8,3:0:0:0:
462,330,68801,1,8,3:0:0:0:
402,239,68967,1,0,1:2:0:0:
296,384,69133,6,0,P|257:370|219:359,1,80.7499978437424,6|0,1:2|0:0,0:0:0:0:
165,278,69354,2,0,L|241:252,1,80.7499978437424,2|0,2:2|0:0,0:0:0:0:
124,384,69575,1,2,2:2:0:0:
16,224,69796,6,0,P|29:261|41:300,1,80.7499978437424,8|0,0:0|0:0,0:0:0:0:
126,277,70017,2,0,P|112:239|100:200,1,80.7499978437424,2|0,2:2|0:0,0:0:0:0:
42,147,70238,1,2,2:2:0:0:
254,36,70459,6,0,P|240:75|229:113,1,80.7499978437424,2|8,1:2|0:0,0:0:0:0:
145,92,70680,2,0,L|119:15,1,80.7499978437424,2|0,2:2|0:0,0:0:0:0:
209,190,70901,1,2,0:0:0:0:
354,67,71122,6,0,P|391:80|430:92,1,80.7499978437424,10|0,0:0|1:2,0:0:0:0:
407,171,71343,2,0,P|370:158|331:146,1,80.7499978437424,2|0,2:2|0:0,0:0:0:0:
278,91,71564,1,10,2:2:0:0:
381,301,71785,6,0,P|342:287|304:276,1,80.7499978437424,2|0,1:2|0:0,0:0:0:0:
434,125,72116,2,0,P|441:165|450:204,1,80.7499978437424,2|0,0:0|1:2,0:0:0:0:
256,168,72448,2,0,P|287:141|316:113,1,80.7499978437424,10|0,0:0|0:0,0:0:0:0:
114,321,72779,6,0,B|170:268|158:193|158:193|188:264|265:270,1,280.500008560181,14|8,1:2|0:0,0:0:0:0:
67,204,73442,2,0,P|67:164|90:130,1,80.7499978437424,2|0,0:0|1:2,0:0:0:0:
203,339,73774,1,10,0:0:0:0:
5,280,73939,1,0,1:2:0:0:
206,176,74105,1,10,0:0:0:0:
19,383,74271,5,8,0:0:0:0:
19,383,74354,1,8,0:0:0:0:
19,383,74437,2,0,P|48:278|71:185,2,203.999993774414,4|8|0,1:2|0:0|1:2,0:0:0:0:
192,291,75265,1,0,1:2:0:0:
15,163,75431,2,0,P|60:150|105:137,1,93.5000028533936,8|0,0:0|0:0,0:0:0:0:
309,288,75763,6,0,P|258:242|191:250,1,140.25000428009,0|0,1:2|0:0,0:0:0:0:
246,352,76094,2,0,P|291:339|336:326,1,93.5000028533936,10|0,0:0|0:0,0:0:0:0:
358,106,76426,2,0,P|346:150|335:196,1,93.5000028533936,2|0,1:2|1:2,0:0:0:0:
512,327,76757,2,0,P|477:293|444:262,1,93.5000028533936,10|0,0:0|1:2,0:0:0:0:
225,341,77089,5,12,0:0:0:0:
371,262,77254,1,0,1:2:0:0:
168,273,77420,5,8,0:0:0:0:
323,154,77586,1,0,1:2:0:0:
102,221,77752,5,8,0:0:0:0:
259,55,77917,1,0,1:2:0:0:
225,341,78083,5,8,0:0:0:0:
86,82,78249,1,2,1:2:0:0:
86,82,78332,1,0,1:2:0:0:
86,82,78415,5,14,0:0:0:0:
344,160,78580,1,0,1:2:0:0:
86,301,78746,5,10,0:0:0:0:
272,39,78912,1,0,1:2:0:0:
385,249,79078,6,0,L|336:234,1,50.9999984436036,10|0,0:0|0:0,0:0:0:0:
142,176,79243,2,0,L|190:161,1,50.9999984436036,2|0,1:2|1:2,0:0:0:0:
329,85,79409,2,0,L|314:134,1,50.9999984436036,10|8,0:0|0:0,0:0:0:0:
234,297,79575,2,0,L|219:249,1,50.9999984436036,10|8,0:0|0:0,0:0:0:0:
128,88,79741,6,0,P|53:148|78:241,1,203.999993774414,6|10,1:2|0:0,0:0:0:0:
311,311,80238,1,2,0:0:0:0:
142,176,80403,1,2,1:2:0:0:
103,374,80569,1,2,1:2:0:0:
240,261,80735,1,10,0:0:0:0:
78,241,80901,1,2,1:2:0:0:
232,363,81066,5,0,1:2:0:0:
0,384,81232,2,0,P|13:339|26:294,1,93.5000028533936,2|10,1:2|0:0,0:0:0:0:
115,156,81564,1,0,0:0:0:0:
232,363,81729,2,0,P|187:350|142:337,1,93.5000028533936,2|2,1:2|1:2,0:0:0:0:
297,217,82061,1,10,0:0:0:0:
78,44,82227,5,2,1:2:0:0:
78,44,82310,1,2,1:2:0:0:
78,44,82392,2,0,P|107:132|135:222,2,187.000005706787,2|8|0,1:2|0:0|1:2,0:0:0:0:
17,181,83221,1,0,1:2:0:0:
186,47,83387,6,0,P|230:62|274:75,1,93.5000028533936,10|0,0:0|1:2,0:0:0:0:
182,280,83718,2,0,P|172:234|162:189,1,93.5000028533936,2|0,0:0|1:2,0:0:0:0:
386,167,84050,2,0,P|351:197|317:229,1,93.5000028533936,10|0,0:0|0:0,0:0:0:0:
133,110,84381,1,2,1:2:0:0:
367,86,84547,1,2,1:2:0:0:
182,280,84713,1,10,0:0:0:0:
311,2,84879,5,2,1:2:0:0:
311,2,84962,1,0,1:2:0:0:
311,2,85044,2,0,P|359:16|407:33,1,101.999996887207,6|8,1:2|0:0,0:0:0:0:
486,60,85293,1,8,0:0:0:0:
500,66,85376,2,0,L|483:114,1,50.9999984436036,8|8,0:0|0:0,0:0:0:0:
377,228,85542,1,6,1:2:0:0:
372,245,85707,6,0,L|324:228,1,50.9999984436036,8|8,0:0|0:0,0:0:0:0:
229,161,85873,2,0,L|181:178,1,50.9999984436036,8|8,0:0|0:0,0:0:0:0:
38,229,86039,1,6,1:2:0:0:
23,220,86205,6,0,L|40:172,1,50.9999984436036,8|8,0:0|0:0,0:0:0:0:
95,54,86370,2,0,L|112:102,1,50.9999984436036,8|8,0:0|0:0,0:0:0:0:
170,258,86536,1,6,1:2:0:0:
174,275,86702,6,0,L|222:258,1,50.9999984436036,8|8,0:0|0:0,0:0:0:0:
315,162,86868,2,0,L|363:179,1,50.9999984436036,8|8,0:0|0:0,0:0:0:0:
500,280,87033,1,6,1:2:0:0:
288,335,87199,1,8,0:0:0:0:
291,323,87281,1,8,0:0:0:0:
295,310,87366,5,8,0:0:0:0:
345,271,87448,1,8,0:0:0:0:
405,284,87531,1,8,0:0:0:0:
434,339,87614,1,8,0:0:0:0:
425,349,87697,5,2,0:0:0:0:
500,280,87862,2,0,L|482:223,1,59.4999981842042,2|0,0:0|0:0,0:0:0:0:
346,123,88194,5,2,0:0:0:0:
450,89,88359,2,0,L|432:146,1,59.4999981842042,2|0,0:0|0:0,0:0:0:0:
334,271,88691,5,2,0:0:0:0:
511,212,88857,1,2,0:0:0:0:
