osu file format v14

[General]
AudioFilename: audio.mp3
AudioLeadIn: 0
PreviewTime: 57551
Countdown: 0
SampleSet: Soft
StackLeniency: 0.6
Mode: 0
LetterboxInBreaks: 0
WidescreenStoryboard: 1

[Editor]
Bookmarks: 15100,16094,26702,37310,47917,53387,53884,54381,54713,55210,55707,56039,57033,58525,63829,69133,74437,77089,79741,85044
DistanceSpacing: 1.1
BeatDivisor: 4
GridSize: 32
TimelineZoom: 2.4

[Metadata]
Title:No.1 (TV Size)
TitleUnicode:No.1 (TV Size)
Artist:DISH//
ArtistUnicode:DISH//
Creator:-karUpA-
Version:Insane
Source:僕のヒーローアカデミア
Tags:Ninjaking311 op opening my hero academia bnha season 5 boku no japanese anime j-rock jrock rock
BeatmapID:3357634
BeatmapSetID:1642834

[Difficulty]
HPDrainRate:5
CircleSize:3.8
OverallDifficulty:7.5
ApproachRate:9
SliderMultiplier:1.7
SliderTickRate:1

[Events]
//Background and Video events
0,0,"okkkkkkkk.png",0,0
Video,0,"bnh720.mp4"
//Break Periods
//Storyboard Layer 0 (Background)
//Storyboard Layer 1 (Fail)
//Storyboard Layer 2 (Pass)
//Storyboard Layer 3 (Foreground)
//Storyboard Layer 4 (Overlay)
//Storyboard Sound Samples

[TimingPoints]
183,331.491712707182,4,2,1,50,1,0
183,-166.666666666667,4,2,1,50,0,0
2834,-142.857142857143,4,2,1,50,0,0
3083,-125,4,2,1,5,0,0
3166,-125,4,2,1,50,0,0
3415,-125,4,2,1,5,0,0
3497,-111.111111111111,4,2,1,50,0,0
3746,-125,4,2,1,5,0,0
3829,-142.857142857143,4,2,1,50,0,0
4409,-125,4,2,1,5,0,0
4492,-125,4,2,1,50,0,0
4741,-125,4,2,1,5,0,0
4823,-125,4,2,1,50,0,0
5155,-83.3333333333333,4,2,1,60,0,0
5403,-83.3333333333333,4,2,1,5,0,0
5486,-111.111111111111,4,2,1,60,0,0
7061,-111.111111111111,4,2,1,60,0,0
7144,-111.111111111111,4,2,1,60,0,0
9464,-142.857142857143,4,2,1,60,0,0
10790,-90.9090909090909,4,2,1,75,0,0
16094,-125,4,2,1,60,0,0
19989,-125,4,2,1,5,0,0
20072,-125,4,2,1,60,0,0
23967,-125,4,2,1,5,0,0
24050,-125,4,2,1,60,0,0
25293,-125,4,2,1,60,0,0
25376,-125,4,2,1,60,0,0
27282,-125,4,2,1,60,0,0
27365,-125,4,2,1,60,0,0
28608,-125,4,2,1,60,0,0
28691,-125,4,2,1,60,0,0
29602,-125,4,2,1,60,0,0
29685,-125,4,2,1,60,0,0
36895,-125,4,2,1,60,0,0
36978,-83.3333333333333,4,2,1,60,0,0
37227,-83.3333333333333,4,2,1,5,0,0
37310,-111.111111111111,4,2,1,70,0,0
37890,-111.111111111111,4,2,1,70,0,0
37973,-111.111111111111,4,2,1,70,0,0
38884,-111.111111111111,4,2,1,70,0,0
38967,-111.111111111111,4,2,1,70,0,0
39547,-111.111111111111,4,2,1,70,0,0
39630,-111.111111111111,4,2,1,70,0,0
40210,-111.111111111111,4,2,1,5,0,0
40293,-111.111111111111,4,2,1,70,0,0
42613,-111.111111111111,4,2,1,70,0,0
44188,-111.111111111111,4,2,1,70,0,0
44271,-111.111111111111,4,2,1,70,0,0
48166,-111.111111111111,4,2,1,70,0,0
48249,-111.111111111111,4,2,1,70,0,0
50238,-83.3333333333333,4,2,1,70,0,0
50486,-83.3333333333333,4,2,1,5,0,0
50569,-142.857142857143,4,2,1,70,0,0
50818,-142.857142857143,4,2,1,5,0,0
50901,-99.9999999999999,4,2,1,70,0,0
51149,-99.9999999999999,4,2,1,5,0,0
51232,-83.3333333333333,4,2,1,70,0,0
51481,-83.3333333333333,4,2,1,5,0,0
51564,-142.857142857143,4,2,1,70,0,0
52227,-111.111111111111,4,2,1,70,0,0
53221,-90.9090909090909,4,2,1,75,0,0
57696,-90.9090909090909,4,2,1,60,0,0
58359,-90.9090909090909,4,2,1,60,0,0
58525,-90.9090909090909,4,2,1,85,0,1
59188,-90.9090909090909,4,2,1,85,0,1
61426,-90.9090909090909,4,2,1,85,0,1
61508,-90.9090909090909,4,2,1,85,0,1
63829,-90.9090909090909,4,2,1,85,0,1
65238,-90.9090909090909,4,2,1,85,0,1
65321,-90.9090909090909,4,2,1,85,0,1
65901,-90.9090909090909,4,2,1,85,0,1
65984,-90.9090909090909,4,2,1,85,0,1
66729,-90.9090909090909,4,2,1,85,0,1
66812,-90.9090909090909,4,2,1,85,0,1
69133,-100,4,2,1,75,0,0
69299,-100,4,2,1,75,0,0
69354,-100,4,2,1,75,0,0
69520,-100,4,2,1,75,0,0
69575,-100,4,2,1,75,0,0
69962,-100,4,2,1,75,0,0
70017,-100,4,2,1,75,0,0
70182,-100,4,2,1,75,0,0
70238,-100,4,2,1,75,0,0
70624,-100,4,2,1,75,0,0
70680,-100,4,2,1,75,0,0
70845,-100,4,2,1,75,0,0
70901,-100,4,2,1,75,0,0
71287,-100,4,2,1,75,0,0
71343,-100,4,2,1,75,0,0
71508,-100,4,2,1,75,0,0
71564,-100,4,2,1,75,0,0
71785,-142.857142857143,4,2,1,75,0,0
72033,-100,4,2,1,5,0,0
72116,-100,4,2,1,75,0,0
72365,-100,4,2,1,5,0,0
72448,-83.3333333333333,4,2,1,75,0,0
72696,-83.3333333333333,4,2,1,5,0,0
72779,-142.857142857143,4,2,1,85,0,0
73276,-100,4,2,1,85,0,0
74437,-90.9090909090909,4,2,1,85,0,1
76011,-90.9090909090909,4,2,1,85,0,1
76094,-90.9090909090909,4,2,1,85,0,1
76343,-90.9090909090909,4,2,1,85,0,1
76426,-90.9090909090909,4,2,1,85,0,1
78332,-90.9090909090909,4,2,1,85,0,1
78415,-90.9090909090909,4,2,1,85,0,1
79741,-100,4,2,1,70,0,0
82393,-100,4,2,1,70,0,0
85044,-90.9090909090909,4,2,1,75,0,0
87696,-125,4,2,1,60,0,0

[Colours]
Combo1 : 128,128,192
Combo2 : 128,255,255
Combo3 : 0,128,128
Combo4 : 0,128,255

[HitObjects]
399,275,183,6,0,P|349:311|316:308,2,67.9999979248048,2|2|2,0:0|0:0|0:0,0:0:0:0:
261,207,845,2,0,P|308:211|325:231,2,67.9999979248048,2|2|2,0:0|0:0|0:0,0:0:0:0:
224,352,1508,6,0,B|205:270,2,67.9999979248048,2|2|2,0:0|0:0|0:0,0:0:0:0:
126,207,2171,2,0,B|112:274,2,67.9999979248048,2|2|2,0:0|0:0|0:0,0:0:0:0:
68,140,2834,6,0,P|115:169|160:148,1,89.2499972763062,2|0,0:0|0:0,0:0:0:0:
199,109,3166,2,0,L|323:136,1,102,2|0,0:0|0:0,0:0:0:0:
362,200,3497,2,0,L|488:179,1,114.749996498108,2|0,0:0|0:0,0:0:0:0:
475,181,3829,6,0,B|447:158|418:113|418:113|457:248,1,208.249993644715,2|0,0:0|0:0,0:0:0:0:
464,303,4492,2,0,P|400:331|369:314,1,102,2|0,0:0|0:0,0:0:0:0:
331,297,4823,2,0,L|310:383,1,68,2|0,0:0|0:0,0:0:0:0:
233,261,5155,6,0,B|258:235|266:169|266:169|285:204|356:188,1,152.999995330811,14|0,0:0|0:0,0:0:0:0:
312,193,5486,6,0,P|383:202|403:180,1,76.4999976654053,0|0,1:2|0:0,0:0:0:0:
442,110,5818,2,0,P|403:99|366:116,1,76.4999976654053,0|0,1:2|0:0,0:0:0:0:
476,258,6149,2,0,P|486:219|469:185,1,76.4999976654053,0|0,1:2|0:0,0:0:0:0:
379,276,6481,2,0,P|363:312|372:347,1,76.4999976654053,0|0,1:2|0:0,0:0:0:0:
309,208,6812,6,0,L|222:230,1,76.4999976654053,0|0,1:2|0:0,0:0:0:0:
110,167,7144,2,0,P|130:233|144:322,2,152.999995330811,2|2|2,1:2|1:2|1:2,0:0:0:0:
235,40,8138,6,0,P|308:57|319:60,1,76.4999976654053,0|0,1:2|1:2,0:0:0:0:
422,158,8470,2,0,P|349:175|337:179,1,76.4999976654053,0|0,1:2|1:2,0:0:0:0:
198,228,8801,1,0,1:2:0:0:
296,115,8967,1,0,1:2:0:0:
326,265,9133,1,0,1:2:0:0:
193,144,9299,1,14,0:0:0:0:
181,311,9464,5,2,0:0:0:0:
78,350,10790,6,0,L|57:247,1,93.5000028533936,6|8,1:2|0:0,0:0:0:0:
41,220,11039,1,8,0:0:0:0:
41,220,11122,2,0,L|92:201,1,46.7500014266968,8|8,0:0|0:0,0:0:0:0:
188,249,11287,1,6,1:2:0:0:
262,159,11453,6,0,L|272:208,3,46.7500014266968,8|8|8|8,0:0|0:0|0:0|0:0,0:0:0:0:
176,120,11785,2,0,P|212:74|261:71,1,93.5000028533936,6|8,1:2|0:0,0:0:0:0:
283,43,12033,5,8,0:0:0:0:
283,43,12116,2,0,L|338:59,1,46.7500014266968,8|8,0:0|0:0,0:0:0:0:
461,85,12282,1,2,1:2:0:0:
386,193,12448,5,8,0:0:0:0:
386,193,12531,1,8,0:0:0:0:
386,193,12613,1,8,0:0:0:0:
386,193,12696,1,8,0:0:0:0:
386,193,12779,2,0,L|403:295,1,93.5000028533936,2|8,1:2|0:0,0:0:0:0:
373,318,13028,5,8,0:0:0:0:
373,318,13111,2,0,P|322:339|304:336,1,46.7500014266968,8|8,0:0|0:0,0:0:0:0:
252,375,13276,2,0,P|201:353|190:338,1,46.7500014266968,0|0,1:2|1:2,0:0:0:0:
171,267,13442,1,6,1:2:0:0:
26,338,13608,6,0,L|34:399,3,46.7500014266968,8|8|8|8,0:0|0:0|0:0|0:0,0:0:0:0:
86,269,13939,2,0,L|72:172,1,93.5000028533936,6|8,1:2|0:0,0:0:0:0:
53,144,14188,5,8,0:0:0:0:
53,144,14271,2,0,L|56:84,1,46.7500014266968,8|8,0:0|0:0,0:0:0:0:
70,0,14437,1,6,1:2:0:0:
161,69,14602,6,0,L|223:59,1,46.7500014266968,8|8,0:0|0:0,0:0:0:0:
287,16,14768,2,0,L|333:23,1,46.7500014266968,8|8,0:0|0:0,0:0:0:0:
451,39,14934,1,6,1:2:0:0:
350,143,15100,5,8,0:0:0:0:
350,143,15182,1,8,0:0:0:0:
350,143,15265,1,8,0:0:0:0:
350,143,15348,1,8,0:0:0:0:
350,143,15431,6,0,L|362:192,1,46.7500014266968,8|8,0:0|0:0,0:0:0:0:
406,266,15597,2,0,L|394:315,1,46.7500014266968,2|0,1:2|1:2,0:0:0:0:
488,215,15763,6,0,L|476:169,1,46.7500014266968,8|8,3:0|3:0,0:0:0:0:
439,84,15928,2,0,L|450:38,1,46.7500014266968,6|4,3:0|3:0,0:0:0:0:
335,24,16094,6,0,L|256:41,1,68,6|0,1:2|0:0,0:0:0:0:
129,117,16426,2,0,P|160:159|258:140,1,136,2|0,1:2|1:2,0:0:0:0:
118,33,17089,1,0,1:2:0:0:
118,33,17254,1,2,0:0:0:0:
32,99,17420,6,0,L|49:181,1,68,2|0,1:2|0:0,0:0:0:0:
0,246,17752,2,0,P|72:211|124:263,1,136,2|0,1:2|1:2,0:0:0:0:
215,371,18415,1,0,1:2:0:0:
215,371,18580,1,2,0:0:0:0:
284,320,18746,6,0,L|264:166,2,136,2|2|2,1:2|1:2|1:2,0:0:0:0:
197,145,19741,2,0,P|214:108|278:92,1,102,2|0,1:2|0:0,0:0:0:0:
296,108,20072,6,0,B|381:96|359:149|447:137,1,136,2|0,1:2|1:2,0:0:0:0:
509,65,20569,2,0,P|472:132|508:206,1,136,2|0,0:0|0:0,0:0:0:0:
411,260,21066,2,0,L|335:236,1,68,2|2,1:2|0:0,0:0:0:0:
278,353,21398,6,0,L|345:337,1,68,2|0,1:2|0:0,0:0:0:0:
240,262,21729,2,0,B|157:255|188:315|96:302,1,136,2|0,1:2|1:2,0:0:0:0:
41,187,22392,1,0,1:2:0:0:
41,187,22558,1,2,0:0:0:0:
123,160,22724,6,0,L|105:308,2,136,2|2|2,1:2|1:2|1:2,0:0:0:0:
186,343,23718,2,0,P|240:347|276:301,1,102,2|0,1:2|0:0,0:0:0:0:
264,279,24050,6,0,B|355:274|309:319|420:325,1,136,2|0,1:2|1:2,0:0:0:0:
466,257,24547,2,0,P|445:172|431:115,1,136,2|0,0:0|0:0,0:0:0:0:
415,47,25044,1,2,1:2:0:0:
219,10,25376,6,0,P|238:75|255:156,1,136,2|0,1:2|1:2,0:0:0:0:
142,80,25873,2,0,P|109:149|70:108,1,136,2|0,0:0|0:0,0:0:0:0:
2,241,26370,2,0,L|81:224,1,68,2|2,1:2|1:2,0:0:0:0:
100,250,26619,5,0,1:2:0:0:
100,250,26702,2,0,P|90:313|84:337,1,68,2|0,1:2|0:0,0:0:0:0:
108,159,27033,2,0,P|188:199|192:256,1,136,2|0,1:2|1:2,0:0:0:0:
270,334,27531,1,0,0:0:0:0:
270,334,27696,2,0,P|279:292|288:261,1,68,0|2,1:2|0:0,0:0:0:0:
369,195,28028,6,0,P|380:229|387:264,1,68,2|0,1:2|0:0,0:0:0:0:
270,334,28359,2,0,B|348:313|321:374|402:349,1,136,2|0,1:2|1:2,0:0:0:0:
476,254,28857,1,0,0:0:0:0:
476,254,29022,2,0,P|416:264|392:274,1,68,0|2,1:2|0:0,0:0:0:0:
295,202,29354,6,0,B|395:210|351:155|454:170,1,136,2|2,1:2|1:2,0:0:0:0:
313,120,29851,1,0,0:0:0:0:
313,120,30017,2,0,P|316:73|297:40,1,68,2|0,1:2|0:0,0:0:0:0:
225,0,30348,2,0,P|213:33|218:68,1,68,2|0,1:2|0:0,0:0:0:0:
290,209,30680,6,0,P|353:186|433:203,1,136,2|0,1:2|1:2,0:0:0:0:
511,134,31177,1,2,0:0:0:0:
470,276,31343,2,0,P|426:282|393:254,1,68,2|2,1:2|0:0,0:0:0:0:
301,180,31674,1,2,1:2:0:0:
264,307,31840,5,2,1:2:0:0:
264,307,31923,1,0,1:2:0:0:
264,307,32006,2,0,P|202:357|133:326,1,136,2|0,1:2|1:2,0:0:0:0:
57,275,32503,1,2,0:0:0:0:
57,275,32669,2,0,B|92:268|114:270|114:270|147:245|147:245|185:252|208:251,1,136,2|0,1:2|1:2,0:0:0:0:
280,199,33166,5,2,0:0:0:0:
280,199,33332,2,0,P|296:153|229:82,1,136,2|0,1:2|1:2,0:0:0:0:
153,37,33829,1,0,0:0:0:0:
153,37,33995,2,0,B|170:80|170:80|164:117,1,68,2|0,1:2|0:0,0:0:0:0:
58,156,34326,2,0,B|52:129|52:129|72:88,1,68,2|0,1:2|0:0,0:0:0:0:
135,213,34658,6,0,P|62:256|3:239,1,136,2|0,1:2|1:2,0:0:0:0:
146,124,35155,2,0,B|201:131|201:131|226:158|226:158|272:166,1,136,2|0,0:0|0:0,0:0:0:0:
334,56,35652,2,0,P|277:85|270:108,1,68,2|0,1:2|0:0,0:0:0:0:
369,209,35984,6,0,L|355:126,1,68,0|8,1:2|3:0,0:0:0:0:
274,207,36315,1,0,1:2:0:0:
444,124,36481,1,4,3:0:0:0:
274,207,36978,6,0,B|238:243|269:300|269:300|312:289|326:255,1,152.999995330811,8|0,0:0|0:0,0:0:0:0:
342,259,37310,6,0,P|379:288|433:278,1,76.4999976654053,6|0,1:2|0:0,0:0:0:0:
361,147,37641,2,0,L|191:186,1,152.999995330811,10|0,0:0|1:2,0:0:0:0:
91,143,38138,1,0,1:2:0:0:
129,286,38304,2,0,P|187:302|228:318,1,76.4999976654053,8|2,0:0|0:0,0:0:0:0:
287,185,38636,6,0,P|229:201|189:215,1,76.4999976654053,2|0,1:2|0:0,0:0:0:0:
360,270,38967,2,0,B|399:175|399:175|374:112,1,152.999995330811,10|0,0:0|1:2,0:0:0:0:
287,185,39464,1,0,1:2:0:0:
440,301,39630,2,0,L|476:206,1,76.4999976654053,8|2,0:0|0:0,0:0:0:0:
287,185,39962,6,0,L|310:329,1,114.749996498108,2|0,1:2|0:0,0:0:0:0:
310,330,40293,2,0,P|282:300|232:300,1,76.4999976654053,10|0,0:0|0:0,0:0:0:0:
149,362,40624,1,2,1:2:0:0:
149,362,40790,1,0,1:2:0:0:
156,211,40956,2,0,P|172:286|174:294,1,76.4999976654053,10|0,0:0|0:0,0:0:0:0:
314,362,41287,6,0,P|390:347|413:259,1,152.999995330811,0|8,1:2|0:0,0:0:0:0:
305,168,41785,1,2,0:0:0:0:
335,281,41950,1,2,1:2:0:0:
198,156,42116,1,2,1:2:0:0:
146,284,42282,2,0,P|194:270|236:264,1,76.4999976654053,10|2,0:0|0:0,0:0:0:0:
67,378,42613,6,0,P|54:325|39:290,1,76.4999976654053,2|0,1:2|0:0,0:0:0:0:
114,171,42945,2,0,B|219:151|179:211|286:197,1,152.999995330811,10|0,0:0|1:2,0:0:0:0:
329,123,43442,1,0,1:2:0:0:
431,253,43608,2,0,L|412:160,1,76.4999976654053,10|0,0:0|0:0,0:0:0:0:
279,333,43939,6,0,L|295:253,1,76.4999976654053,2|0,1:2|0:0,0:0:0:0:
155,186,44271,2,0,L|168:263,1,76.4999976654053,10|0,0:0|0:0,0:0:0:0:
102,357,44602,2,0,P|144:372|180:359,1,76.4999976654053,2|0,1:2|1:2,0:0:0:0:
75,265,44934,2,0,P|36:255|2:270,1,76.4999976654053,10|0,0:0|0:0,0:0:0:0:
155,186,45265,6,0,P|187:245|276:253,1,152.999995330811,0|8,1:2|0:0,0:0:0:0:
390,173,45763,2,0,B|337:182|337:182|301:164|301:164|225:175,1,152.999995330811,2|2,0:0|1:2,0:0:0:0:
357,15,46260,2,0,L|377:106,1,76.4999976654053,10|2,0:0|0:0,0:0:0:0:
487,236,46591,5,2,1:2:0:0:
487,236,46674,1,2,0:0:0:0:
487,236,46757,2,0,L|462:325,1,76.4999976654053,0|10,1:2|0:0,0:0:0:0:
325,377,47089,2,0,B|231:387|263:342|156:353,1,152.999995330811,2|2,0:0|1:2,0:0:0:0:
68,246,47586,1,8,0:0:0:0:
28,335,47752,1,2,0:0:0:0:
179,267,47917,6,0,L|287:287,1,76.4999976654053,2|0,1:2|0:0,0:0:0:0:
162,155,48249,2,0,P|117:195|16:157,1,152.999995330811,10|0,0:0|1:2,0:0:0:0:
148,62,48746,1,0,1:2:0:0:
247,177,48912,2,0,L|269:83,1,76.4999976654053,8|2,0:0|0:0,0:0:0:0:
315,247,49243,5,2,1:2:0:0:
162,155,49409,1,0,1:2:0:0:
101,310,49575,2,0,P|173:298|193:273,1,76.4999976654053,10|0,0:0|1:2,0:0:0:0:
247,177,49906,1,8,0:0:0:0:
124,235,50072,1,0,1:2:0:0:
263,351,50238,6,0,P|343:366|421:383,1,152.999995330811,6|0,3:0|0:0,0:0:0:0:
452,360,50569,6,0,P|473:302|487:268,1,89.2499972763062,6|0,1:2|0:0,0:0:0:0:
473,234,50901,6,0,B|390:248|390:248|368:235|367:195,1,127.5,6|0,1:2|0:0,0:0:0:0:
291,213,51232,6,0,P|337:131|416:159,1,152.999995330811,6|0,1:2|0:0,0:0:0:0:
485,129,51564,6,0,B|446:116|426:118|426:118|390:83|390:83|338:90|312:79,1,178.499994552612,6|0,1:2|0:0,0:0:0:0:
132,30,52227,1,10,0:0:0:0:
227,73,52392,2,0,L|236:133,1,38.2499988327027,8|8,0:0|0:0,0:0:0:0:
245,196,52558,2,0,P|183:222|150:211,1,76.4999976654053,10|8,0:0|3:3,0:0:0:0:
53,113,52890,2,0,P|93:115|126:133,1,76.4999976654053,6|0,3:3|0:0,0:0:0:0:
1,298,53221,6,0,L|107:327,1,93.5000028533936,6|8,1:2|0:0,0:0:0:0:
133,293,53470,1,8,0:0:0:0:
133,293,53553,2,0,L|203:278,1,46.7500014266968,8|8,0:0|0:0,0:0:0:0:
308,301,53718,1,2,1:2:0:0:
226,164,53884,6,0,L|156:149,3,46.7500014266968,8|8|8|8,0:0|0:0|0:0|0:0,0:0:0:0:
223,71,54216,2,0,L|328:48,1,93.5000028533936,2|8,1:2|0:0,0:0:0:0:
353,68,54464,1,8,0:0:0:0:
353,68,54547,1,6,1:2:0:0:
491,7,54713,6,0,L|472:67,1,46.7500014266968,8|8,0:0|0:0,0:0:0:0:
420,133,54879,2,0,L|439:193,1,46.7500014266968,8|8,0:0|0:0,0:0:0:0:
478,287,55044,1,2,1:2:0:0:
349,236,55210,6,0,L|330:296,3,46.7500014266968,8|8|8|8,0:0|0:0|0:0|0:0,0:0:0:0:
282,184,55542,2,0,P|226:172|174:202,1,93.5000028533936,2|10,1:2|0:0,0:0:0:0:
169,207,55790,1,8,0:0:0:0:
169,207,55873,1,6,1:2:0:0:
67,103,56039,6,0,L|121:88,1,46.7500014266968,8|8,0:0|0:0,0:0:0:0:
190,36,56205,2,0,L|235:48,1,46.7500014266968,10|8,0:0|0:0,0:0:0:0:
310,97,56370,6,0,L|364:82,3,46.7500014266968,8|8|8|8,0:0|0:0|0:0|0:0,0:0:0:0:
446,128,56702,1,10,0:0:0:0:
446,128,56785,1,8,0:0:0:0:
446,128,56868,2,0,L|429:207,1,46.7500014266968,10|8,0:0|0:0,0:0:0:0:
374,247,57033,2,0,L|383:292,1,46.7500014266968,8|8,0:0|0:0,0:0:0:0:
489,252,57199,5,14,1:2:0:0:
290,210,57365,1,6,1:2:0:0:
35,93,58525,6,0,B|142:116|112:34|231:69,1,187.000005706787,6|10,1:2|0:0,0:0:0:0:
357,173,59022,2,0,L|377:78,1,93.5000028533936,2|0,0:0|1:2,0:0:0:0:
182,147,59354,2,0,P|257:168|273:193,1,93.5000028533936,2|8,1:2|0:0,0:0:0:0:
191,330,59685,2,0,L|172:230,1,93.5000028533936,2|0,0:0|1:2,0:0:0:0:
77,156,60017,2,0,P|46:209|60:257,1,93.5000028533936,2|8,0:0|0:0,0:0:0:0:
191,330,60348,5,2,0:0:0:0:
260,216,60514,1,2,1:2:0:0:
108,302,60680,1,2,1:2:0:0:
280,370,60845,1,10,0:0:0:0:
176,230,61011,1,2,0:0:0:0:
60,383,61177,6,0,B|32:248|32:248|51:273|73:278,1,187.000005706787,2|10,1:2|0:0,0:0:0:0:
195,136,61674,2,0,L|91:170,1,93.5000028533936,2|0,0:0|1:2,0:0:0:0:
162,50,62006,1,2,1:2:0:0:
263,218,62171,6,0,B|309:179|362:190|362:190|382:252|450:249,1,187.000005706787,10|0,0:0|1:2,0:0:0:0:
296,96,62669,1,0,1:2:0:0:
397,17,62834,2,0,P|389:77|377:120,1,93.5000028533936,8|2,0:0|0:0,0:0:0:0:
206,104,63166,2,0,P|211:57|222:12,1,93.5000028533936,2|2,1:2|1:2,0:0:0:0:
263,218,63497,1,10,0:0:0:0:
116,70,63663,6,0,B|79:100|45:105|45:105|81:217,1,187.000005706787,2|0,0:0|0:0,0:0:0:0:
206,104,64160,1,10,0:0:0:0:
107,286,64326,2,0,P|43:289|14:259,1,93.5000028533936,2|0,0:0|1:2,0:0:0:0:
243,206,64658,2,0,L|212:324,1,93.5000028533936,2|8,1:2|0:0,0:0:0:0:
133,143,64989,6,0,P|217:115|231:125,1,93.5000028533936,2|0,0:0|1:2,0:0:0:0:
327,229,65321,2,0,P|280:231|240:202,1,93.5000028533936,2|8,1:2|0:0,0:0:0:0:
342,49,65652,2,0,P|346:97|313:133,1,93.5000028533936,2|0,0:0|1:2,0:0:0:0:
134,239,65984,2,0,L|125:139,1,93.5000028533936,2|8,1:2|0:0,0:0:0:0:
28,68,66315,1,2,0:0:0:0:
227,192,66481,6,0,B|336:149|320:234|433:190,2,187.000005706787,2|10|2,1:2|0:0|1:2,0:0:0:0:
76,325,67310,1,0,1:2:0:0:
124,147,67475,2,0,L|150:257,1,93.5000028533936,10|0,0:0|0:0,0:0:0:0:
295,106,67807,5,0,1:2:0:0:
240,254,67973,1,0,1:2:0:0:
140,60,68138,2,0,P|83:67|47:105,1,93.5000028533936,8|0,0:0|0:0,0:0:0:0:
142,304,68470,1,8,0:0:0:0:
210,128,68636,1,8,3:0:0:0:
52,214,68801,1,8,3:0:0:0:
52,214,68967,1,0,1:2:0:0:
140,60,69133,6,0,B|117:82|113:116|113:116|86:90|34:83,2,113.333333333333,6|2|2,1:2|2:2|2:2,0:0:0:0:
257,145,69796,2,0,P|270:103|235:35,1,113.333333333333,8|2,0:0|2:2,0:0:0:0:
155,193,70238,1,2,2:2:0:0:
335,224,70459,6,0,B|401:195|396:239|458:218,2,113.333333333333,2|2|2,1:2|2:2|2:2,0:0:0:0:
242,320,71122,2,0,B|222:264|222:264|238:187,1,113.333333333333,10|2,0:0|2:2,0:0:0:0:
353,332,71564,1,2,2:2:0:0:
98,355,71785,6,0,L|125:243,1,89.2499972763062,2|0,1:2|0:0,0:0:0:0:
118,230,72116,6,0,B|101:143|101:143|97:182|82:192,1,127.5,2|0,0:0|0:0,0:0:0:0:
24,109,72448,6,0,B|107:67|101:145|191:112,1,152.999995330811,10|0,0:0|0:0,0:0:0:0:
215,29,72779,6,0,P|315:60|319:134,1,178.499994552612,14|8,1:2|0:0,0:0:0:0:
214,199,73442,2,0,P|257:212|299:224,1,85,2|0,0:0|1:2,0:0:0:0:
457,313,73774,5,10,0:0:0:0:
337,142,73939,1,0,1:2:0:0:
307,334,74105,5,10,0:0:0:0:
426,203,74271,1,8,0:0:0:0:
426,203,74354,1,8,0:0:0:0:
426,203,74437,6,0,L|297:237,1,93.5000028533936,4|0,1:2|0:0,0:0:0:0:
206,144,74768,2,0,P|283:180|277:280,1,187.000005706787,8|0,0:0|1:2,0:0:0:0:
127,374,75265,1,0,1:2:0:0:
208,230,75431,2,0,P|194:296|228:337,1,93.5000028533936,8|0,0:0|0:0,0:0:0:0:
134,171,75763,5,0,1:2:0:0:
284,275,75928,1,0,1:2:0:0:
117,164,76094,2,0,L|95:261,1,93.5000028533936,10|0,0:0|0:0,0:0:0:0:
46,96,76426,2,0,P|106:127|141:112,1,93.5000028533936,2|0,1:2|1:2,0:0:0:0:
245,8,76757,2,0,P|196:3|156:30,1,93.5000028533936,10|0,0:0|1:2,0:0:0:0:
297,168,77089,6,0,P|325:128|316:80,1,93.5000028533936,12|0,0:0|1:2,0:0:0:0:
142,153,77420,2,0,P|136:201|163:238,1,93.5000028533936,8|0,0:0|1:2,0:0:0:0:
332,321,77752,5,8,0:0:0:0:
216,178,77917,1,0,1:2:0:0:
251,365,78083,5,8,0:0:0:0:
297,168,78249,1,2,1:2:0:0:
421,329,78415,6,0,L|444:219,1,93.5000028533936,14|0,0:0|1:2,0:0:0:0:
276,76,78746,2,0,L|297:171,1,93.5000028533936,10|0,0:0|1:2,0:0:0:0:
211,301,79078,5,10,0:0:0:0:
390,189,79243,1,2,1:2:0:0:
390,189,79326,1,0,1:2:0:0:
390,189,79409,1,10,0:0:0:0:
390,189,79492,1,8,0:0:0:0:
390,189,79575,2,0,L|375:128,1,46.7500014266968,10|8,0:0|0:0,0:0:0:0:
267,31,79741,5,6,1:2:0:0:
209,161,79906,1,2,0:0:0:0:
186,66,80072,1,10,0:0:0:0:
287,115,80238,1,2,0:0:0:0:
356,31,80403,2,0,L|460:50,1,85,2|2,1:2|1:2,0:0:0:0:
512,176,80735,5,10,0:0:0:0:
512,176,80901,2,0,L|424:190,1,85,2|0,1:2|1:2,0:0:0:0:
314,293,81232,1,2,1:2:0:0:
347,177,81398,1,10,0:0:0:0:
414,274,81564,1,0,0:0:0:0:
268,215,81729,2,0,P|209:254|173:248,1,85,2|2,1:2|1:2,0:0:0:0:
94,129,82061,2,0,P|137:137|167:168,1,85,10|0,0:0|0:0,0:0:0:0:
77,295,82392,6,0,L|104:189,2,85,2|0|8,1:2|0:0|0:0,0:0:0:0:
182,176,82890,1,2,0:0:0:0:
94,129,83055,1,0,1:2:0:0:
148,55,83221,1,0,1:2:0:0:
97,212,83387,1,10,0:0:0:0:
9,116,83553,1,0,1:2:0:0:
123,231,83718,6,0,L|96:343,1,85,2|0,0:0|1:2,0:0:0:0:
218,144,84050,2,0,L|242:256,1,85,10|0,0:0|0:0,0:0:0:0:
310,65,84381,1,2,1:2:0:0:
310,65,84547,1,2,1:2:0:0:
412,189,84713,2,0,P|353:174|316:177,1,85,10|2,0:0|1:2,0:0:0:0:
383,318,85044,6,0,P|425:316|481:296,1,93.5000028533936,6|8,1:2|0:0,0:0:0:0:
504,279,85293,1,8,0:0:0:0:
504,279,85376,2,0,L|489:221,1,46.7500014266968,8|8,0:0|0:0,0:0:0:0:
459,111,85542,1,6,1:2:0:0:
329,174,85707,6,0,L|275:164,3,46.7500014266968,8|8|8|8,0:0|0:0|0:0|0:0,0:0:0:0:
208,126,86039,2,0,L|118:152,1,93.5000028533936,6|8,1:2|0:0,0:0:0:0:
88,175,86287,5,8,0:0:0:0:
88,175,86370,2,0,L|108:231,1,46.7500014266968,8|8,0:0|0:0,0:0:0:0:
157,341,86536,1,6,1:2:0:0:
0,278,86702,5,8,0:0:0:0:
0,278,86785,1,8,0:0:0:0:
0,278,86868,2,0,L|14:222,1,46.7500014266968,8|8,0:0|0:0,0:0:0:0:
37,90,87033,1,6,1:2:0:0:
179,172,87199,6,0,P|196:133|214:118,1,46.7500014266968,8|8,0:0|0:0,0:0:0:0:
207,45,87365,2,0,P|246:29|269:31,1,46.7500014266968,8|8,0:0|0:0,0:0:0:0:
334,4,87531,2,0,P|373:20|388:39,1,46.7500014266968,8|8,0:0|0:0,0:0:0:0:
423,111,87696,5,2,0:0:0:0:
423,111,87862,2,0,L|409:202,1,68,2|2,0:0|0:0,0:0:0:0:
419,189,88194,1,2,0:0:0:0:
279,211,88359,6,0,L|293:302,1,68,2|2,0:0|0:0,0:0:0:0:
282,289,88691,1,2,0:0:0:0:
409,361,88857,1,2,0:0:0:0:
