osu file format v14

[General]
AudioFilename: audio.mp3
AudioLeadIn: 0
PreviewTime: 57551
Countdown: 0
SampleSet: Soft
StackLeniency: 0.6
Mode: 0
LetterboxInBreaks: 0
WidescreenStoryboard: 1

[Editor]
Bookmarks: 13111,15100,16094,26702,37310,47917,53387,53884,54381,54713,55210,55707,56039,58525,63829,69133,74437,77089,79741,82061,85044,87199
DistanceSpacing: 1.4
BeatDivisor: 4
GridSize: 32
TimelineZoom: 2.4

[Metadata]
Title:No.1 (TV Size)
TitleUnicode:No.1 (TV Size)
Artist:DISH//
ArtistUnicode:DISH//
Creator:-karUpA-
Version:Hard
Source:僕のヒーローアカデミア
Tags:Ninjaking311 op opening my hero academia bnha season 5 boku no japanese anime j-rock jrock rock
BeatmapID:3370727
BeatmapSetID:1642834

[Difficulty]
HPDrainRate:4
CircleSize:3.5
OverallDifficulty:6.5
ApproachRate:8
SliderMultiplier:1.41
SliderTickRate:1

[Events]
//Background and Video events
Video,0,"bnh720.mp4"
0,0,"okkkkkkkk.png",0,0
//Break Periods
//Storyboard Layer 0 (Background)
//Storyboard Layer 1 (Fail)
//Storyboard Layer 2 (Pass)
//Storyboard Layer 3 (Foreground)
//Storyboard Layer 4 (Overlay)
//Storyboard Sound Samples

[TimingPoints]
183,331.491712707182,4,2,1,50,1,0
183,-166.666666666667,4,2,1,50,0,0
3083,-125,4,2,1,50,0,0
3166,-125,4,2,1,50,0,0
3415,-125,4,2,1,50,0,0
3497,-125,4,2,1,50,0,0
3746,-125,4,2,1,50,0,0
3829,-125,4,2,1,50,0,0
4409,-125,4,2,1,50,0,0
4492,-125,4,2,1,50,0,0
4741,-125,4,2,1,50,0,0
4823,-125,4,2,1,50,0,0
5155,-83.3333333333333,4,2,1,60,0,0
5403,-83.3333333333333,4,2,1,5,0,0
5486,-111.111111111111,4,2,1,60,0,0
9464,-142.857142857143,4,2,1,60,0,0
10790,-100,4,2,1,75,0,0
16094,-125,4,2,1,60,0,0
19989,-125,4,2,1,60,0,0
20072,-125,4,2,1,60,0,0
23967,-125,4,2,1,60,0,0
24050,-125,4,2,1,60,0,0
36978,-83.3333333333333,4,2,1,60,0,0
37310,-111.111111111111,4,2,1,70,0,0
37890,-111.111111111111,4,2,1,70,0,0
37973,-111.111111111111,4,2,1,70,0,0
40210,-111.111111111111,4,2,1,70,0,0
40293,-111.111111111111,4,2,1,70,0,0
44188,-111.111111111111,4,2,1,70,0,0
44271,-111.111111111111,4,2,1,70,0,0
50238,-83.3333333333333,4,2,1,70,0,0
50486,-83.3333333333333,4,2,1,70,0,0
50569,-142.857142857143,4,2,1,70,0,0
50818,-142.857142857143,4,2,1,5,0,0
50901,-99.9999999999999,4,2,1,70,0,0
51149,-99.9999999999999,4,2,1,5,0,0
51232,-83.3333333333333,4,2,1,70,0,0
51481,-83.3333333333333,4,2,1,5,0,0
51564,-142.857142857143,4,2,1,70,0,0
52227,-111.111111111111,4,2,1,70,0,0
53221,-111.111111111111,4,2,1,75,0,0
57696,-111.111111111111,4,2,1,60,0,0
58525,-100,4,2,1,85,0,1
69133,-100,4,2,1,75,0,0
69299,-100,4,2,1,75,0,0
69354,-100,4,2,1,75,0,0
69520,-100,4,2,1,75,0,0
69575,-100,4,2,1,75,0,0
69962,-100,4,2,1,75,0,0
70017,-100,4,2,1,75,0,0
70182,-100,4,2,1,75,0,0
70238,-100,4,2,1,75,0,0
70624,-100,4,2,1,75,0,0
70680,-100,4,2,1,75,0,0
70845,-100,4,2,1,75,0,0
70901,-100,4,2,1,75,0,0
71287,-100,4,2,1,75,0,0
71343,-100,4,2,1,75,0,0
71508,-100,4,2,1,75,0,0
71564,-100,4,2,1,75,0,0
72033,-100,4,2,1,75,0,0
72116,-100,4,2,1,75,0,0
72365,-100,4,2,1,75,0,0
72448,-83.3333333333333,4,2,1,75,0,0
72696,-83.3333333333333,4,2,1,75,0,0
72779,-142.857142857143,4,2,1,85,0,0
73276,-100,4,2,1,85,0,0
74437,-100,4,2,1,85,0,1
79741,-100,4,2,1,70,0,0
85044,-100,4,2,1,75,0,0
87696,-125,4,2,1,60,0,0

[Colours]
Combo1 : 128,128,192
Combo2 : 128,255,255
Combo3 : 0,128,128
Combo4 : 0,128,255

[HitObjects]
65,291,5155,6,0,P|89:326|178:307,1,126.899996127319,14|0,0:0|0:0,0:0:0:0:
188,308,5486,6,0,P|176:242|167:168,3,126.899996127319,0|0|0|0,1:2|1:2|1:2|1:2,0:0:0:0:
265,74,6812,1,0,1:2:0:0:
135,21,7144,2,0,P|80:37|-11:59,2,126.899996127319,2|2|2,1:2|1:2|1:2,0:0:0:0:
265,74,8138,6,0,L|402:42,1,126.899996127319,0|0,1:2|1:2,0:0:0:0:
458,118,8636,1,0,1:2:0:0:
458,118,8801,2,0,L|378:138,1,63.4499980636597,0|0,1:2|1:2,0:0:0:0:
324,194,9133,2,0,L|262:178,1,63.4499980636597,0|14,1:2|0:0,0:0:0:0:
173,152,9464,5,2,0:0:0:0:
61,129,10790,6,0,P|42:165|49:198,1,70.5,6|8,1:2|0:0,0:0:0:0:
137,184,11122,1,8,0:0:0:0:
137,184,11287,2,0,B|241:213|241:213|277:181,1,141,6|8,1:2|0:0,0:0:0:0:
335,99,11785,6,0,B|323:179|375:153|357:248,1,141,6|8,1:2|0:0,0:0:0:0:
430,296,12282,2,0,P|461:281|496:285,2,70.5,2|8|8,1:2|0:0|0:0,0:0:0:0:
357,359,12779,6,0,P|318:364|275:347,1,70.5,2|8,1:2|0:0,0:0:0:0:
259,334,13028,1,8,0:0:0:0:
259,334,13111,2,0,L|207:349,3,35.25,8|8|0|0,0:0|0:0|1:2|1:2,0:0:0:0:
195,363,13442,6,0,L|121:345,1,70.5,6|8,1:2|0:0,0:0:0:0:
42,384,13774,1,8,0:0:0:0:
42,384,13939,2,0,B|21:280|21:280|32:297|53:312,1,141,6|8,1:2|0:0,0:0:0:0:
110,221,14437,6,0,B|200:209|170:252|261:237,1,141,6|8,1:2|0:0,0:0:0:0:
338,277,14934,2,0,P|344:237|318:192,1,70.5,6|8,1:2|0:0,0:0:0:0:
264,152,15265,1,8,0:0:0:0:
264,152,15431,1,8,0:0:0:0:
343,100,15597,2,0,L|492:127,1,141,2|6,1:2|3:0,0:0:0:0:
512,226,16094,6,0,L|443:214,1,56.4,6|0,1:2|0:0,0:0:0:0:
448,306,16426,2,0,P|387:311|325:320,1,112.8,2|0,1:2|1:2,0:0:0:0:
188,374,17089,1,0,1:2:0:0:
103,351,17254,1,2,0:0:0:0:
103,351,17420,2,0,L|104:283,1,56.4,2|0,1:2|0:0,0:0:0:0:
31,237,17752,2,0,B|66:273|66:273|145:261,1,112.8,2|0,1:2|1:2,0:0:0:0:
266,187,18415,1,0,1:2:0:0:
211,118,18580,5,2,0:0:0:0:
211,118,18746,2,0,P|171:116|94:128,2,112.8,2|2|2,1:2|1:2|1:2,0:0:0:0:
319,186,19741,1,2,1:2:0:0:
357,70,20072,2,0,P|361:152|364:198,1,112.8,2|0,1:2|1:2,0:0:0:0:
365,269,20569,2,0,B|418:243|418:243|485:273,1,112.8,2|0,0:0|0:0,0:0:0:0:
509,348,21066,1,2,1:2:0:0:
509,348,21232,1,2,0:0:0:0:
423,377,21398,6,0,P|383:365|351:358,1,56.4,2|0,1:2|0:0,0:0:0:0:
339,269,21729,2,0,P|268:278|218:288,1,112.8,2|0,1:2|1:2,0:0:0:0:
104,377,22392,1,0,1:2:0:0:
28,321,22558,1,2,0:0:0:0:
28,321,22724,2,0,B|11:270|11:270|37:200,2,112.8,2|2|2,1:2|1:2|1:2,0:0:0:0:
144,266,23718,1,2,1:2:0:0:
201,377,24050,6,0,P|223:350|314:345,1,112.8,2|0,1:2|1:2,0:0:0:0:
382,377,24547,2,0,P|390:318|403:248,1,112.8,2|0,0:0|0:0,0:0:0:0:
450,186,25044,1,2,1:2:0:0:
312,250,25376,2,0,B|251:255|276:219|187:228,1,112.8,2|0,1:2|1:2,0:0:0:0:
110,253,25873,2,0,P|108:195|146:157,1,112.8,2|0,0:0|0:0,0:0:0:0:
225,117,26370,1,2,1:2:0:0:
146,65,26536,5,2,1:2:0:0:
146,65,26619,1,0,1:2:0:0:
146,65,26702,2,0,L|75:72,1,56.4,2|0,1:2|0:0,0:0:0:0:
4,157,27033,2,0,L|127:181,1,112.8,2|0,1:2|1:2,0:0:0:0:
295,172,27696,1,0,1:2:0:0:
262,95,27862,1,2,0:0:0:0:
262,95,28028,2,0,P|311:88|330:98,1,56.4,2|0,1:2|0:0,0:0:0:0:
411,46,28359,2,0,P|395:97|382:169,1,112.8,2|0,1:2|1:2,0:0:0:0:
427,307,29022,1,0,1:2:0:0:
499,267,29188,5,2,0:0:0:0:
499,267,29354,2,0,P|464:230|397:232,2,112.8,2|2|2,1:2|1:2|1:2,0:0:0:0:
409,354,30348,1,2,1:2:0:0:
316,273,30680,2,0,P|264:278|219:212,1,112.8,2|0,1:2|1:2,0:0:0:0:
103,136,31343,2,0,L|108:197,1,56.4,2|2,1:2|0:0,0:0:0:0:
166,257,31674,2,0,L|161:313,1,56.4,2|2,1:2|1:2,0:0:0:0:
237,380,32006,6,0,P|262:345|330:358,1,112.8,2|0,1:2|1:2,0:0:0:0:
412,367,32503,1,2,0:0:0:0:
412,367,32669,2,0,P|419:305|434:246,1,112.8,2|0,1:2|1:2,0:0:0:0:
373,182,33166,1,2,0:0:0:0:
373,182,33332,2,0,B|301:187|329:161|252:172,1,112.8,2|0,1:2|1:2,0:0:0:0:
221,327,33995,2,0,P|272:304|270:242,1,112.8,2|2,1:2|1:2,0:0:0:0:
153,166,34658,6,0,P|108:168|29:185,1,112.8,2|0,1:2|1:2,0:0:0:0:
10,277,35155,2,0,P|65:265|121:261,1,112.8,2|0,0:0|0:0,0:0:0:0:
170,335,35652,1,2,1:2:0:0:
265,247,35984,2,0,L|329:253,1,56.4,0|8,1:2|3:0,0:0:0:0:
369,327,36315,1,0,1:2:0:0:
369,327,36481,1,4,3:0:0:0:
475,170,36978,1,8,0:0:0:0:
475,170,37310,6,0,L|470:93,1,63.4499980636597,6|0,1:2|0:0,0:0:0:0:
397,45,37641,2,0,B|365:78|365:78|266:78,1,126.899996127319,10|0,0:0|1:2,0:0:0:0:
184,115,38138,1,0,1:2:0:0:
267,161,38304,1,8,0:0:0:0:
182,278,38636,2,0,P|178:236|173:207,1,63.4499980636597,2|0,1:2|0:0,0:0:0:0:
92,143,38967,2,0,P|81:195|70:271,1,126.899996127319,10|0,0:0|1:2,0:0:0:0:
91,373,39464,1,0,1:2:0:0:
9,341,39630,1,8,0:0:0:0:
179,365,39962,6,0,P|232:355|252:334,1,63.4499980636597,2|0,1:2|0:0,0:0:0:0:
302,279,40293,2,0,L|374:287,1,63.4499980636597,10|0,0:0|0:0,0:0:0:0:
428,368,40624,1,2,1:2:0:0:
428,368,40790,1,0,1:2:0:0:
491,299,40956,1,10,0:0:0:0:
338,199,41287,2,0,P|294:185|225:240,1,126.899996127319,0|8,1:2|0:0,0:0:0:0:
184,307,41785,1,2,0:0:0:0:
184,307,41951,2,0,P|154:316|122:313,1,63.4499980636597,2|2,1:2|1:2,0:0:0:0:
105,213,42282,2,0,L|100:142,1,63.4499980636597,10|2,0:0|0:0,0:0:0:0:
193,89,42613,6,0,L|197:152,1,63.4499980636597,2|0,1:2|0:0,0:0:0:0:
265,223,42945,2,0,B|312:203|312:203|340:213|340:213|408:191,1,126.899996127319,10|0,0:0|1:2,0:0:0:0:
456,258,43442,1,0,1:2:0:0:
469,167,43608,1,10,0:0:0:0:
382,282,43939,2,0,P|387:331|392:359,1,63.4499980636597,2|0,1:2|0:0,0:0:0:0:
305,373,44271,2,0,P|300:341|297:310,1,63.4499980636597,10|0,0:0|0:0,0:0:0:0:
206,266,44602,2,0,P|211:315|216:343,1,63.4499980636597,2|0,1:2|1:2,0:0:0:0:
128,358,44934,2,0,P|123:326|120:295,1,63.4499980636597,10|0,0:0|0:0,0:0:0:0:
43,247,45265,6,0,P|47:195|62:107,1,126.899996127319,0|8,1:2|0:0,0:0:0:0:
128,52,45763,2,0,B|214:35|175:79|263:69,1,126.899996127319,2|2,0:0|1:2,0:0:0:0:
339,117,46260,1,10,0:0:0:0:
339,117,46426,1,2,0:0:0:0:
264,174,46591,2,0,L|226:168,2,31.7249990318299,2|2|0,1:2|0:0|1:2,0:0:0:0:
337,236,46923,1,10,0:0:0:0:
337,236,47089,2,0,P|373:262|456:230,1,126.899996127319,2|2,0:0|1:2,0:0:0:0:
492,162,47586,1,8,0:0:0:0:
378,74,47917,6,0,L|311:83,1,63.4499980636597,2|0,1:2|0:0,0:0:0:0:
230,155,48249,2,0,P|229:107|143:93,1,126.899996127319,10|0,0:0|1:2,0:0:0:0:
76,145,48746,1,0,1:2:0:0:
81,53,48912,1,8,0:0:0:0:
149,187,49243,2,0,P|94:229|75:228,1,63.4499980636597,2|0,1:2|1:2,0:0:0:0:
15,303,49575,2,0,L|102:318,1,63.4499980636597,10|0,0:0|1:2,0:0:0:0:
142,375,49906,1,8,0:0:0:0:
142,375,50072,1,0,1:2:0:0:
186,288,50238,1,6,3:0:0:0:
296,368,50569,6,0,P|319:313|316:290,1,74.0249977409363,6|0,1:2|0:0,0:0:0:0:
289,270,50901,2,0,P|339:267|397:256,1,105.75,6|0,1:2|0:0,0:0:0:0:
429,267,51232,2,0,B|439:222|439:222|431:199|431:199|450:132,1,126.899996127319,6|0,1:2|0:0,0:0:0:0:
456,115,51564,6,0,P|427:69|294:89,1,197.39999397583,6|10,1:2|0:0,0:0:0:0:
245,159,52392,1,8,0:0:0:0:
245,159,52475,1,8,0:0:0:0:
245,159,52558,2,0,L|316:170,1,63.4499980636597,10|8,0:0|3:3,0:0:0:0:
382,244,52890,2,0,L|311:255,1,63.4499980636597,6|0,3:3|0:0,0:0:0:0:
250,323,53221,5,6,1:2:0:0:
174,256,53387,2,0,L|188:207,2,31.7249990318299,8|8|8,0:0|0:0|0:0,0:0:0:0:
106,333,53718,2,0,P|94:289|64:208,1,126.899996127319,2|8,1:2|0:0,0:0:0:0:
6,132,54216,2,0,P|56:117|78:125,1,63.4499980636597,2|8,1:2|0:0,0:0:0:0:
162,156,54547,1,6,1:2:0:0:
126,66,54713,2,0,L|127:29,2,31.7249990318299,8|8|8,0:0|0:0|0:0,0:0:0:0:
162,156,55044,2,0,P|209:119|280:150,1,126.899996127319,2|8,1:2|0:0,0:0:0:0:
341,198,55542,1,2,1:2:0:0:
341,198,55707,1,10,0:0:0:0:
415,142,55873,6,0,P|437:167|420:253,1,126.899996127319,6|10,1:2|0:0,0:0:0:0:
334,282,56370,2,0,L|292:287,5,31.7249990318299,8|8|8|8|10|8,0:0|0:0|0:0|0:0|0:0|0:0,0:0:0:0:
272,309,56868,2,0,L|240:305,3,31.7249990318299,10|8|8|8,0:0|0:0|0:0|0:0,0:0:0:0:
209,327,57199,5,14,1:2:0:0:
209,327,57365,1,6,1:2:0:0:
357,87,58525,6,0,P|360:128|256:165,1,141,6|10,1:2|0:0,0:0:0:0:
192,109,59022,2,0,L|179:13,1,70.5,2|0,0:0|1:2,0:0:0:0:
70,6,59354,2,0,L|60:75,1,70.5,2|8,1:2|0:0,0:0:0:0:
0,179,59685,6,0,L|9:248,1,70.5,2|0,0:0|1:2,0:0:0:0:
73,339,60017,2,0,B|166:310|121:361|237:332,1,141,2|2,0:0|0:0,0:0:0:0:
311,370,60514,1,2,1:2:0:0:
375,291,60680,1,2,1:2:0:0:
290,219,60845,2,0,L|200:230,1,70.5,10|2,0:0|0:0,0:0:0:0:
115,170,61177,6,0,P|133:107|213:104,1,141,2|10,1:2|0:0,0:0:0:0:
292,28,61674,2,0,P|336:36|367:43,1,70.5,2|0,0:0|1:2,0:0:0:0:
467,94,62006,1,2,1:2:0:0:
379,177,62171,1,10,0:0:0:0:
379,177,62337,6,0,P|387:233|393:322,1,141,2|0,1:2|1:2,0:0:0:0:
271,363,62834,2,0,P|279:309|281:286,1,70.5,8|2,0:0|0:0,0:0:0:0:
193,195,63166,2,0,P|189:230|183:264,1,70.5,2|2,1:2|1:2,0:0:0:0:
122,353,63497,1,10,0:0:0:0:
36,283,63663,6,0,B|46:227|46:227|34:195|34:195|50:122,1,141,2|0,0:0|0:0,0:0:0:0:
110,47,64160,1,10,0:0:0:0:
110,47,64326,2,0,P|168:57|189:61,1,70.5,2|0,0:0|1:2,0:0:0:0:
260,145,64658,2,0,P|294:138|329:132,1,70.5,2|8,1:2|0:0,0:0:0:0:
400,50,64989,6,0,P|448:108|419:190,2,141,2|2|2,0:0|1:2|0:0,0:0:0:0:
260,145,65984,2,0,L|178:142,1,70.5,2|8,1:2|0:0,0:0:0:0:
94,62,66315,1,2,0:0:0:0:
24,156,66481,6,0,P|19:210|95:244,1,141,2|10,1:2|0:0,0:0:0:0:
260,145,67144,2,0,L|245:215,1,70.5,2|0,1:2|1:2,0:0:0:0:
367,264,67475,2,0,L|352:195,1,70.5,10|0,0:0|0:0,0:0:0:0:
391,83,67807,5,0,1:2:0:0:
391,83,67973,1,0,1:2:0:0:
480,170,68138,2,0,B|478:246,1,70.5,8|0,0:0|0:0,0:0:0:0:
416,345,68470,2,0,P|363:358|333:344,1,70.5,8|8,0:0|3:0,0:0:0:0:
253,291,68801,1,8,3:0:0:0:
182,367,68967,1,0,1:2:0:0:
96,334,69133,6,0,L|130:214,2,94,6|2|2,1:2|2:2|2:2,0:0:0:0:
25,257,69796,2,0,L|-9:137,2,94,8|2|2,0:0|2:2|2:2,0:0:0:0:
112,143,70459,6,0,P|180:160|247:177,2,94,2|2|2,1:2|2:2|2:2,0:0:0:0:
199,66,71122,2,0,P|244:54|290:43,2,94,10|2|2,0:0|2:2|2:2,0:0:0:0:
99,27,71785,6,0,L|30:46,1,70.5,2|0,1:2|0:0,0:0:0:0:
0,144,72116,2,0,P|51:155|78:140,1,70.5,2|0,0:0|1:2,0:0:0:0:
162,137,72448,2,0,L|150:220,1,84.599997418213,10|0,0:0|0:0,0:0:0:0:
37,258,72779,6,0,B|130:227|96:284|202:253,1,148.049995481873,14|8,1:2|0:0,0:0:0:0:
272,325,73442,2,0,L|352:309,1,70.5,2|0,0:0|1:2,0:0:0:0:
441,350,73774,2,0,P|451:312|438:267,1,70.5,10|0,0:0|1:2,0:0:0:0:
350,230,74105,1,10,0:0:0:0:
435,148,74271,5,8,0:0:0:0:
435,148,74354,1,8,0:0:0:0:
435,148,74437,2,0,L|444:71,1,70.5,4|0,1:2|0:0,0:0:0:0:
351,11,74768,2,0,P|291:12|246:80,1,141,8|0,0:0|1:2,0:0:0:0:
203,186,75265,1,0,1:2:0:0:
203,186,75431,2,0,P|150:168|124:174,1,70.5,8|0,0:0|0:0,0:0:0:0:
49,108,75763,1,0,1:2:0:0:
150,253,76094,6,0,L|136:334,1,70.5,10|0,0:0|0:0,0:0:0:0:
238,384,76426,2,0,L|250:314,1,70.5,2|0,1:2|1:2,0:0:0:0:
356,241,76757,2,0,L|342:322,1,70.5,10|0,0:0|1:2,0:0:0:0:
443,365,77089,6,0,P|497:340|499:310,1,70.5,12|0,0:0|1:2,0:0:0:0:
454,246,77420,1,8,0:0:0:0:
492,154,77586,1,0,1:2:0:0:
394,136,77752,2,0,P|346:151|312:137,1,70.5,8|0,0:0|1:2,0:0:0:0:
258,75,78083,1,8,0:0:0:0:
175,130,78249,1,2,1:2:0:0:
84,90,78415,6,0,P|44:100|24:127,1,70.5,14|0,0:0|1:2,0:0:0:0:
1,232,78746,2,0,P|70:215|155:215,1,141,10|10,0:0|0:0,0:0:0:0:
234,288,79243,1,2,1:2:0:0:
298,190,79409,2,0,L|292:141,3,35.25,10|8|10|8,0:0|0:0|0:0|0:0,0:0:0:0:
260,124,79741,6,0,P|292:89|385:115,1,141,6|10,1:2|0:0,0:0:0:0:
463,156,80238,1,2,0:0:0:0:
463,156,80403,2,0,P|454:221|454:235,1,70.5,2|2,1:2|1:2,0:0:0:0:
506,314,80735,1,10,0:0:0:0:
506,314,80901,1,2,1:2:0:0:
414,373,81066,1,0,1:2:0:0:
342,304,81232,2,0,B|247:304|278:350|204:345,1,141,2|0,1:2|0:0,0:0:0:0:
102,384,81729,2,0,B|91:344|91:344|96:307,1,70.5,2|2,1:2|1:2,0:0:0:0:
152,235,82061,2,0,B|163:195|163:195|159:166,1,70.5,10|0,0:0|0:0,0:0:0:0:
78,124,82392,6,0,P|101:86|205:95,1,141,2|8,1:2|0:0,0:0:0:0:
273,136,82890,2,0,P|340:144|384:93,1,141,2|0,0:0|1:2,0:0:0:0:
474,27,83387,2,0,L|468:108,1,70.5,10|0,0:0|1:2,0:0:0:0:
496,195,83718,2,0,P|444:184|418:181,1,70.5,2|0,0:0|1:2,0:0:0:0:
346,239,84050,2,0,P|335:291|332:317,1,70.5,10|0,0:0|0:0,0:0:0:0:
270,384,84381,1,2,1:2:0:0:
270,384,84547,1,2,1:2:0:0:
195,315,84713,2,0,P|203:248|208:225,1,70.5,10|2,0:0|1:2,0:0:0:0:
281,174,85044,6,0,P|278:138|272:104,1,70.5,6|8,1:2|0:0,0:0:0:0:
187,42,85376,1,8,0:0:0:0:
187,42,85542,2,0,P|146:27|58:83,1,141,6|8,1:2|0:0,0:0:0:0:
23,153,86039,2,0,L|31:231,1,70.5,6|8,1:2|0:0,0:0:0:0:
42,319,86370,5,8,0:0:0:0:
42,319,86536,2,0,B|78:297|78:297|186:324,1,141,6|8,1:2|0:0,0:0:0:0:
258,384,87033,1,6,1:2:0:0:
289,287,87199,1,8,0:0:0:0:
289,287,87282,1,8,0:0:0:0:
289,287,87365,2,0,L|299:238,3,35.25,8|8|8|8,0:0|0:0|0:0|0:0,0:0:0:0:
285,220,87696,6,0,L|298:154,1,56.4,2|2,0:0|0:0,0:0:0:0:
373,53,88194,2,0,L|383:108,1,56.4,2|2,0:0|0:0,0:0:0:0:
465,222,88691,2,0,L|478:156,1,56.4,2|2,0:0|0:0,0:0:0:0:
